osu file format v14

[General]
AudioFilename: audio.mp3
AudioLeadIn: 0
PreviewTime: 51283
Countdown: 1
SampleSet: Normal
StackLeniency: 0.7
Mode: 3
LetterboxInBreaks: 0
SpecialStyle: 0
WidescreenStoryboard: 0

[Editor]
DistanceSpacing: 1
BeatDivisor: 12
GridSize: 4
TimelineZoom: 2.2

[Metadata]
Title:Arifureta Sekai Seifuku
TitleUnicode:ありふれたせかいせいふく
Artist:Pinocchio P feat. Hatsune Miku
ArtistUnicode:ピノキオP feat. 初音ミク
Creator:inkuxuan
Version:Hard
Source:
Tags:Miku Magicalmirai
BeatmapID:1016560
BeatmapSetID:475823

[Difficulty]
HPDrainRate:5
CircleSize:4
OverallDifficulty:5
ApproachRate:5
SliderMultiplier:1.99999990463257
SliderTickRate:2

[Events]
//Background and Video events
0,0,"4f352fdb6795d4af85179468fe1b60ea.jpg",0,0
//Break Periods
//Storyboard Layer 0 (Background)
//Storyboard Layer 1 (Fail)
//Storyboard Layer 2 (Pass)
//Storyboard Layer 3 (Foreground)
//Storyboard Sound Samples

[TimingPoints]
483,400,4,1,0,31,1,0
51683,-100,4,1,0,31,0,1
64483,-100,4,1,0,31,0,0
138083,400,5,1,0,31,1,0
138883,400,4,1,0,31,1,0
167683,-100,4,1,0,31,0,1
180483,400,5,1,0,31,1,1
181283,400,4,1,0,31,1,0

[HitObjects]
192,192,483,5,0,0:0:0:0:
448,192,483,1,0,0:0:0:0:
320,192,683,1,0,0:0:0:0:
192,192,783,1,0,0:0:0:0:
64,192,783,1,0,0:0:0:0:
192,192,1083,1,0,0:0:0:0:
64,192,1283,1,0,0:0:0:0:
320,192,1283,1,0,0:0:0:0:
192,192,1583,1,0,0:0:0:0:
448,192,1583,1,0,0:0:0:0:
192,192,1783,1,0,0:0:0:0:
448,192,1783,1,0,0:0:0:0:
64,192,2083,1,0,0:0:0:0:
320,192,2083,1,0,0:0:0:0:
192,192,2283,1,0,0:0:0:0:
448,192,2383,1,0,0:0:0:0:
320,192,2383,1,0,0:0:0:0:
320,192,2683,1,0,0:0:0:0:
192,192,2883,128,0,3283:0:0:0:0:
448,192,2883,1,0,0:0:0:0:
320,192,3283,1,0,0:0:0:0:
64,192,3383,1,0,0:0:0:0:
320,192,3683,1,0,0:0:0:0:
64,192,3683,1,0,0:0:0:0:
192,192,3883,1,0,0:0:0:0:
448,192,3983,1,0,0:0:0:0:
320,192,3983,1,0,0:0:0:0:
64,192,4283,1,0,0:0:0:0:
448,192,4283,1,0,0:0:0:0:
320,192,4483,1,0,0:0:0:0:
192,192,4483,1,0,0:0:0:0:
64,192,4783,1,0,0:0:0:0:
448,192,4783,1,0,0:0:0:0:
192,192,4983,1,0,0:0:0:0:
320,192,4983,1,0,0:0:0:0:
320,192,5283,1,0,0:0:0:0:
192,192,5283,1,0,0:0:0:0:
448,192,5383,1,0,0:0:0:0:
448,192,5583,1,0,0:0:0:0:
192,192,5583,1,0,0:0:0:0:
64,192,5783,1,0,0:0:0:0:
320,192,5783,1,0,0:0:0:0:
192,192,5883,1,0,0:0:0:0:
320,192,5983,1,0,0:0:0:0:
448,192,6083,1,0,0:0:0:0:
64,192,6183,1,0,0:0:0:0:
320,192,6383,1,0,0:0:0:0:
448,192,6483,1,0,0:0:0:0:
320,192,6583,1,0,0:0:0:0:
192,192,6683,1,0,0:0:0:0:
64,192,6783,1,0,0:0:0:0:
192,192,6883,128,0,7183:0:0:0:0:
448,192,6883,128,0,7183:0:0:0:0:
64,192,7283,128,0,7483:0:0:0:0:
320,192,7283,128,0,7483:0:0:0:0:
192,192,7683,1,0,0:0:0:0:
448,192,7683,128,0,7983:0:0:0:0:
320,192,7983,1,0,0:0:0:0:
192,192,8083,1,0,0:0:0:0:
64,192,8183,1,0,0:0:0:0:
192,192,8283,1,0,0:0:0:0:
192,192,8483,128,0,8783:0:0:0:0:
448,192,8483,1,0,0:0:0:0:
448,192,8783,1,0,0:0:0:0:
320,192,8883,128,8,9083:0:0:0:0:
64,192,8883,1,0,0:0:0:0:
448,192,9083,1,0,0:0:0:0:
64,192,9283,1,0,0:0:0:0:
320,192,9483,1,0,0:0:0:0:
448,192,9583,1,0,0:0:0:0:
320,192,9683,1,0,0:0:0:0:
192,192,9783,1,0,0:0:0:0:
64,192,9883,1,0,0:0:0:0:
64,192,10083,128,0,10283:0:0:0:0:
320,192,10083,128,0,10283:0:0:0:0:
192,192,10383,128,0,10583:0:0:0:0:
448,192,10383,128,0,10583:0:0:0:0:
64,192,10683,128,0,10883:0:0:0:0:
320,192,10683,128,0,10883:0:0:0:0:
192,192,10883,1,0,0:0:0:0:
448,192,10883,1,0,0:0:0:0:
64,192,11283,1,0,0:0:0:0:
320,192,11283,128,0,11483:0:0:0:0:
448,192,11483,1,0,0:0:0:0:
64,192,11683,128,0,12883:0:0:0:0:
448,192,11683,128,0,12883:0:0:0:0:
320,192,12483,1,0,0:0:0:0:
192,192,12583,1,0,0:0:0:0:
320,192,12683,1,0,0:0:0:0:
192,192,12783,1,0,0:0:0:0:
320,192,12883,1,0,0:0:0:0:
320,192,13283,1,4,0:0:0:0:
192,192,13283,1,4,0:0:0:0:
448,192,13383,1,0,0:0:0:0:
320,192,13483,1,0,0:0:0:0:
192,192,13583,1,0,0:0:0:0:
64,192,13683,1,0,0:0:0:0:
320,192,13683,1,0,0:0:0:0:
448,192,13883,1,0,0:0:0:0:
192,192,14083,1,0,0:0:0:0:
320,192,14083,1,0,0:0:0:0:
320,192,14283,1,0,0:0:0:0:
64,192,14283,1,0,0:0:0:0:
448,192,14483,1,0,0:0:0:0:
192,192,14483,1,0,0:0:0:0:
192,192,14683,1,0,0:0:0:0:
320,192,14683,1,0,0:0:0:0:
64,192,14883,1,0,0:0:0:0:
192,192,14983,1,0,0:0:0:0:
64,192,15083,1,0,0:0:0:0:
448,192,15183,1,0,0:0:0:0:
192,192,15283,1,0,0:0:0:0:
64,192,15283,1,0,0:0:0:0:
320,192,15483,1,0,0:0:0:0:
64,192,15683,1,0,0:0:0:0:
320,192,15683,1,0,0:0:0:0:
192,192,15883,1,0,0:0:0:0:
320,192,15883,1,0,0:0:0:0:
192,192,16083,1,0,0:0:0:0:
448,192,16083,1,0,0:0:0:0:
320,192,16283,1,0,0:0:0:0:
448,192,16283,1,0,0:0:0:0:
64,192,16483,128,0,16883:0:0:0:0:
192,192,16483,1,0,0:0:0:0:
320,192,16583,1,0,0:0:0:0:
448,192,16683,1,0,0:0:0:0:
192,192,16783,1,0,0:0:0:0:
320,192,16883,1,0,0:0:0:0:
192,192,17083,1,0,0:0:0:0:
448,192,17083,1,0,0:0:0:0:
448,192,17283,128,0,17683:0:0:0:0:
320,192,17283,1,0,0:0:0:0:
192,192,17383,1,0,0:0:0:0:
64,192,17483,1,0,0:0:0:0:
320,192,17583,1,0,0:0:0:0:
192,192,17683,1,0,0:0:0:0:
64,192,17883,1,0,0:0:0:0:
320,192,17883,1,0,0:0:0:0:
64,192,18083,1,0,0:0:0:0:
320,192,18083,1,0,0:0:0:0:
192,192,18383,1,0,0:0:0:0:
320,192,18383,1,0,0:0:0:0:
64,192,18483,1,0,0:0:0:0:
448,192,18483,1,0,0:0:0:0:
192,192,18683,5,0,0:0:0:0:
448,192,18683,1,0,0:0:0:0:
64,192,18683,1,0,0:0:0:0:
192,192,18883,1,0,0:0:0:0:
320,192,18883,1,0,0:0:0:0:
448,192,18883,1,0,0:0:0:0:
64,192,19083,1,0,0:0:0:0:
448,192,19083,1,0,0:0:0:0:
64,192,19283,1,0,0:0:0:0:
448,192,19283,1,0,0:0:0:0:
320,192,19383,1,0,0:0:0:0:
192,192,19483,1,0,0:0:0:0:
64,192,19583,1,0,0:0:0:0:
448,192,19683,5,0,0:0:0:0:
320,192,19683,1,0,0:0:0:0:
320,192,19983,1,0,0:0:0:0:
448,192,20083,1,0,0:0:0:0:
192,192,20083,128,0,20283:0:0:0:0:
320,192,20283,1,0,0:0:0:0:
64,192,20483,128,0,20883:0:0:0:0:
192,192,20883,1,0,0:0:0:0:
320,192,20983,1,0,0:0:0:0:
448,192,21083,1,0,0:0:0:0:
320,192,21183,1,0,0:0:0:0:
192,192,21283,1,0,0:0:0:0:
448,192,21283,1,0,0:0:0:0:
64,192,21583,1,0,0:0:0:0:
192,192,21683,128,0,21883:0:0:0:0:
448,192,21683,1,0,0:0:0:0:
320,192,21883,1,0,0:0:0:0:
448,192,22083,128,0,22483:0:0:0:0:
320,192,22483,1,0,0:0:0:0:
192,192,22583,1,0,0:0:0:0:
448,192,22683,1,0,0:0:0:0:
64,192,22783,1,0,0:0:0:0:
320,192,22883,1,0,0:0:0:0:
192,192,22883,1,0,0:0:0:0:
448,192,23183,1,0,0:0:0:0:
192,192,23283,128,0,23483:0:0:0:0:
448,192,23483,1,0,0:0:0:0:
192,192,23683,128,0,23883:0:0:0:0:
448,192,23683,128,0,23883:0:0:0:0:
192,192,24083,1,0,0:0:0:0:
320,192,24183,1,0,0:0:0:0:
448,192,24283,1,0,0:0:0:0:
448,192,24483,1,0,0:0:0:0:
320,192,24583,1,0,0:0:0:0:
64,192,24683,1,0,0:0:0:0:
192,192,24783,1,0,0:0:0:0:
448,192,24883,1,0,0:0:0:0:
320,192,24983,1,0,0:0:0:0:
192,192,25083,1,0,0:0:0:0:
64,192,25183,1,0,0:0:0:0:
448,192,25283,1,0,0:0:0:0:
320,192,25383,1,0,0:0:0:0:
192,192,25483,1,0,0:0:0:0:
64,192,25583,1,0,0:0:0:0:
192,192,25683,1,0,0:0:0:0:
320,192,25783,1,0,0:0:0:0:
448,192,25883,1,0,0:0:0:0:
320,192,25983,1,0,0:0:0:0:
192,192,26083,128,4,26383:0:0:0:0:
64,192,26383,1,0,0:0:0:0:
448,192,26483,1,0,0:0:0:0:
320,192,26483,1,0,0:0:0:0:
320,192,26683,1,0,0:0:0:0:
448,192,26683,1,0,0:0:0:0:
64,192,26883,128,0,27183:0:0:0:0:
320,192,26883,128,0,27183:0:0:0:0:
192,192,26883,1,0,0:0:0:0:
448,192,27183,1,0,0:0:0:0:
64,192,27283,1,0,0:0:0:0:
192,192,27283,1,0,0:0:0:0:
192,192,27483,1,0,0:0:0:0:
64,192,27483,1,0,0:0:0:0:
192,192,27683,128,0,27983:0:0:0:0:
320,192,27683,128,0,27983:0:0:0:0:
64,192,28083,1,0,0:0:0:0:
320,192,28283,1,0,0:0:0:0:
320,192,28483,1,0,0:0:0:0:
64,192,28483,1,0,0:0:0:0:
448,192,28483,1,0,0:0:0:0:
320,192,28883,1,0,0:0:0:0:
64,192,28883,1,0,0:0:0:0:
448,192,28883,1,0,0:0:0:0:
192,192,29083,1,0,0:0:0:0:
192,192,29283,1,0,0:0:0:0:
64,192,29283,1,0,0:0:0:0:
448,192,29283,128,0,29683:0:0:0:0:
320,192,29683,1,8,0:0:0:0:
64,192,29683,1,8,0:0:0:0:
448,192,29883,1,0,0:0:0:0:
192,192,29883,1,0,0:0:0:0:
64,192,30083,1,0,0:0:0:0:
320,192,30083,1,0,0:0:0:0:
192,192,30083,1,0,0:0:0:0:
320,192,30283,1,0,0:0:0:0:
192,192,30483,1,8,0:0:0:0:
448,192,30483,1,8,0:0:0:0:
64,192,30483,1,8,0:0:0:0:
448,192,30683,1,0,0:0:0:0:
192,192,30883,128,0,31283:0:0:0:0:
320,192,30883,1,0,0:0:0:0:
448,192,30883,1,0,0:0:0:0:
448,192,31283,1,0,0:0:0:0:
448,192,31483,128,0,31683:0:0:0:0:
192,192,31683,128,0,32083:0:0:0:0:
320,192,31683,1,0,0:0:0:0:
448,192,32083,128,8,32483:0:0:0:0:
320,192,32083,1,8,0:0:0:0:
192,192,32483,1,0,0:0:0:0:
64,192,32483,1,0,0:0:0:0:
192,192,32783,1,0,0:0:0:0:
448,192,32883,1,0,0:0:0:0:
64,192,32883,1,0,0:0:0:0:
192,192,33083,1,0,0:0:0:0:
448,192,33283,1,0,0:0:0:0:
64,192,33283,1,0,0:0:0:0:
320,192,33383,1,0,0:0:0:0:
64,192,33483,1,0,0:0:0:0:
448,192,33583,1,0,0:0:0:0:
64,192,33683,1,0,0:0:0:0:
320,192,33883,1,0,0:0:0:0:
192,192,34083,128,0,34383:0:0:0:0:
320,192,34083,1,0,0:0:0:0:
448,192,34383,1,0,0:0:0:0:
64,192,34483,1,0,0:0:0:0:
320,192,34483,1,0,0:0:0:0:
448,192,34683,1,0,0:0:0:0:
192,192,34683,1,0,0:0:0:0:
320,192,34883,128,0,35283:0:0:0:0:
64,192,34883,128,0,35283:0:0:0:0:
192,192,35283,1,0,0:0:0:0:
320,192,35483,1,0,0:0:0:0:
448,192,35683,1,0,0:0:0:0:
64,192,35683,1,0,0:0:0:0:
192,192,35683,128,0,36083:0:0:0:0:
320,192,36083,1,8,0:0:0:0:
64,192,36083,1,8,0:0:0:0:
320,192,36283,1,0,0:0:0:0:
64,192,36483,1,0,0:0:0:0:
320,192,36483,128,0,36883:0:0:0:0:
448,192,36483,1,0,0:0:0:0:
448,192,36883,1,8,0:0:0:0:
192,192,36883,1,8,0:0:0:0:
64,192,37083,1,0,0:0:0:0:
320,192,37083,1,0,0:0:0:0:
64,192,37283,128,0,37683:0:0:0:0:
320,192,37283,1,0,0:0:0:0:
320,192,37483,1,0,0:0:0:0:
192,192,37683,128,0,38083:0:0:0:0:
448,192,37683,1,0,0:0:0:0:
448,192,37883,1,0,0:0:0:0:
448,192,38083,128,0,38483:0:0:0:0:
192,192,38483,1,2,0:0:0:0:
64,192,38483,1,2,0:0:0:0:
64,192,38883,1,4,0:0:0:0:
448,192,38883,128,0,39283:0:0:0:0:
64,192,39283,1,0,0:0:0:0:
320,192,39283,1,0,0:0:0:0:
320,192,39483,1,0,0:0:0:0:
448,192,39583,1,0,0:0:0:0:
320,192,39683,1,0,0:0:0:0:
64,192,39683,1,0,0:0:0:0:
192,192,39683,1,0,0:0:0:0:
448,192,39883,1,0,0:0:0:0:
320,192,39883,1,0,0:0:0:0:
448,192,40083,1,0,0:0:0:0:
192,192,40083,1,0,0:0:0:0:
448,192,40283,1,0,0:0:0:0:
64,192,40283,1,0,0:0:0:0:
448,192,40483,1,0,0:0:0:0:
192,192,40483,128,0,40883:0:0:0:0:
64,192,40883,1,0,0:0:0:0:
192,192,41083,1,0,0:0:0:0:
448,192,41083,1,0,0:0:0:0:
192,192,41283,128,0,41483:0:0:0:0:
320,192,41283,1,0,0:0:0:0:
448,192,41483,1,0,0:0:0:0:
448,192,41683,1,0,0:0:0:0:
192,192,41683,128,0,41883:0:0:0:0:
320,192,41883,1,0,0:0:0:0:
448,192,42083,1,0,0:0:0:0:
64,192,42083,128,0,42383:0:0:0:0:
448,192,42483,128,0,42683:0:0:0:0:
192,192,42683,1,0,0:0:0:0:
192,192,42883,1,0,0:0:0:0:
448,192,42883,1,0,0:0:0:0:
64,192,42883,1,0,0:0:0:0:
320,192,43083,1,0,0:0:0:0:
64,192,43083,1,0,0:0:0:0:
192,192,43183,1,0,0:0:0:0:
320,192,43283,1,0,0:0:0:0:
64,192,43283,1,0,0:0:0:0:
320,192,43483,1,0,0:0:0:0:
448,192,43683,128,0,44083:0:0:0:0:
192,192,43683,1,0,0:0:0:0:
320,192,43883,1,0,0:0:0:0:
320,192,44083,128,0,44483:0:0:0:0:
192,192,44083,1,0,0:0:0:0:
64,192,44283,1,0,0:0:0:0:
192,192,44483,1,0,0:0:0:0:
192,192,44883,1,8,0:0:0:0:
320,192,45083,1,0,0:0:0:0:
192,192,45183,1,0,0:0:0:0:
320,192,45283,1,0,0:0:0:0:
448,192,45283,128,0,45683:0:0:0:0:
192,192,45683,1,0,0:0:0:0:
64,192,45883,1,0,0:0:0:0:
192,192,45983,1,0,0:0:0:0:
448,192,46083,128,0,46483:0:0:0:0:
64,192,46083,1,0,0:0:0:0:
192,192,46483,1,0,0:0:0:0:
320,192,46683,1,0,0:0:0:0:
448,192,46783,1,0,0:0:0:0:
320,192,46883,1,0,0:0:0:0:
64,192,46883,1,0,0:0:0:0:
192,192,47083,1,0,0:0:0:0:
320,192,47283,1,0,0:0:0:0:
64,192,47283,1,0,0:0:0:0:
192,192,47283,1,0,0:0:0:0:
320,192,47483,1,0,0:0:0:0:
448,192,47683,1,0,0:0:0:0:
64,192,47683,1,0,0:0:0:0:
192,192,47783,1,0,0:0:0:0:
320,192,47883,1,0,0:0:0:0:
320,192,48083,1,0,0:0:0:0:
192,192,48083,1,0,0:0:0:0:
448,192,48083,1,0,0:0:0:0:
64,192,48283,1,0,0:0:0:0:
320,192,48483,1,0,0:0:0:0:
448,192,48483,128,0,49283:0:0:0:0:
320,192,48783,1,0,0:0:0:0:
320,192,49083,1,0,0:0:0:0:
64,192,49283,128,0,50083:0:0:0:0:
192,192,49283,1,0,0:0:0:0:
192,192,49583,1,0,0:0:0:0:
192,192,49783,1,0,0:0:0:0:
448,192,50083,1,0,0:0:0:0:
448,192,50483,1,0,0:0:0:0:
448,192,50783,1,0,0:0:0:0:
320,192,51083,1,0,0:0:0:0:
64,192,51183,1,0,0:0:0:0:
320,192,51283,1,0,0:0:0:0:
448,192,51283,1,0,0:0:0:0:
64,192,51483,1,0,0:0:0:0:
192,192,51583,1,0,0:0:0:0:
320,192,51683,1,4,0:0:0:0:
448,192,51683,1,4,0:0:0:0:
64,192,51683,128,4,52083:0:0:0:0:
320,192,51883,1,0,0:0:0:0:
448,192,52083,1,0,0:0:0:0:
320,192,52083,1,0,0:0:0:0:
192,192,52283,1,0,0:0:0:0:
320,192,52383,1,0,0:0:0:0:
448,192,52483,1,0,0:0:0:0:
192,192,52483,128,0,52883:0:0:0:0:
320,192,52683,1,0,0:0:0:0:
320,192,52883,1,0,0:0:0:0:
448,192,52883,1,0,0:0:0:0:
320,192,53083,1,0,0:0:0:0:
192,192,53183,1,0,0:0:0:0:
64,192,53283,1,0,0:0:0:0:
448,192,53283,128,0,53483:0:0:0:0:
192,192,53483,1,0,0:0:0:0:
320,192,53483,1,0,0:0:0:0:
192,192,53683,1,0,0:0:0:0:
320,192,53683,1,0,0:0:0:0:
448,192,53683,128,0,53883:0:0:0:0:
64,192,53883,1,0,0:0:0:0:
192,192,53883,1,0,0:0:0:0:
192,192,54083,1,0,0:0:0:0:
64,192,54083,1,0,0:0:0:0:
448,192,54083,128,0,54283:0:0:0:0:
192,192,54283,1,0,0:0:0:0:
448,192,54483,1,0,0:0:0:0:
64,192,54483,1,0,0:0:0:0:
192,192,54683,1,0,0:0:0:0:
64,192,54783,1,0,0:0:0:0:
320,192,54883,128,4,55283:0:0:0:0:
448,192,54883,128,0,55283:0:0:0:0:
192,192,55083,1,0,0:0:0:0:
64,192,55283,1,0,0:0:0:0:
320,192,55483,1,0,0:0:0:0:
448,192,55583,1,0,0:0:0:0:
192,192,55683,128,0,56083:0:0:0:0:
64,192,55683,128,0,56083:0:0:0:0:
320,192,55883,1,0,0:0:0:0:
448,192,56083,1,0,0:0:0:0:
192,192,56283,1,0,0:0:0:0:
448,192,56483,1,0,0:0:0:0:
192,192,56483,1,0,0:0:0:0:
448,192,56683,1,0,0:0:0:0:
64,192,56683,1,0,0:0:0:0:
64,192,56883,1,0,0:0:0:0:
320,192,56883,1,0,0:0:0:0:
448,192,57083,1,0,0:0:0:0:
64,192,57083,1,0,0:0:0:0:
192,192,57283,128,0,57683:0:0:0:0:
320,192,57283,128,0,57683:0:0:0:0:
64,192,57483,1,0,0:0:0:0:
448,192,57483,1,0,0:0:0:0:
64,192,57683,1,0,0:0:0:0:
448,192,57683,1,0,0:0:0:0:
192,192,57883,1,0,0:0:0:0:
64,192,57983,1,0,0:0:0:0:
448,192,58083,1,4,0:0:0:0:
192,192,58083,1,4,0:0:0:0:
320,192,58283,1,0,0:0:0:0:
64,192,58283,1,0,0:0:0:0:
448,192,58483,1,0,0:0:0:0:
192,192,58483,1,0,0:0:0:0:
448,192,58683,1,0,0:0:0:0:
192,192,58783,1,0,0:0:0:0:
320,192,58883,1,0,0:0:0:0:
64,192,58883,1,0,0:0:0:0:
448,192,59083,1,0,0:0:0:0:
192,192,59083,1,0,0:0:0:0:
64,192,59283,1,0,0:0:0:0:
320,192,59283,1,0,0:0:0:0:
448,192,59483,1,0,0:0:0:0:
64,192,59483,1,0,0:0:0:0:
192,192,59583,1,0,0:0:0:0:
320,192,59583,1,0,0:0:0:0:
448,192,59683,1,0,0:0:0:0:
64,192,59683,1,0,0:0:0:0:
320,192,59883,1,0,0:0:0:0:
448,192,60083,1,0,0:0:0:0:
192,192,60083,1,0,0:0:0:0:
64,192,60283,1,0,0:0:0:0:
320,192,60283,1,0,0:0:0:0:
448,192,60483,128,0,60883:0:0:0:0:
192,192,60483,128,0,60883:0:0:0:0:
64,192,60683,1,4,0:0:0:0:
320,192,60683,1,4,0:0:0:0:
64,192,60883,1,4,0:0:0:0:
320,192,60883,1,4,0:0:0:0:
192,192,61083,1,0,0:0:0:0:
448,192,61083,1,0,0:0:0:0:
64,192,61183,1,0,0:0:0:0:
320,192,61183,1,0,0:0:0:0:
192,192,61283,128,0,61683:0:0:0:0:
448,192,61283,128,0,61683:0:0:0:0:
64,192,61883,1,0,0:0:0:0:
320,192,61883,1,0,0:0:0:0:
448,192,61983,1,0,0:0:0:0:
192,192,61983,1,0,0:0:0:0:
64,192,62083,128,0,62483:0:0:0:0:
320,192,62083,128,0,62483:0:0:0:0:
448,192,62883,128,0,63183:0:0:0:0:
192,192,62883,128,0,63183:0:0:0:0:
64,192,63283,128,0,63483:0:0:0:0:
320,192,63283,128,0,63483:0:0:0:0:
64,192,63583,128,0,63783:0:0:0:0:
448,192,63583,128,0,63783:0:0:0:0:
448,192,63883,1,0,0:0:0:0:
192,192,63883,1,0,0:0:0:0:
192,192,64083,1,0,0:0:0:0:
448,192,64083,1,0,0:0:0:0:
320,192,64183,1,0,0:0:0:0:
448,192,64283,1,0,0:0:0:0:
320,192,64383,1,0,0:0:0:0:
192,192,64483,128,4,65283:0:0:0:0:
448,192,64483,128,4,65283:0:0:0:0:
320,192,65283,1,0,0:0:0:0:
448,192,65383,1,0,0:0:0:0:
320,192,65483,1,0,0:0:0:0:
192,192,65583,1,0,0:0:0:0:
64,192,65683,1,0,0:0:0:0:
192,192,66083,1,0,0:0:0:0:
448,192,66083,1,0,0:0:0:0:
64,192,66183,1,0,0:0:0:0:
192,192,66283,1,0,0:0:0:0:
448,192,66283,1,0,0:0:0:0:
320,192,66383,1,0,0:0:0:0:
448,192,66483,1,0,0:0:0:0:
192,192,66483,1,0,0:0:0:0:
192,192,66883,1,0,0:0:0:0:
320,192,66983,1,0,0:0:0:0:
192,192,67083,1,0,0:0:0:0:
320,192,67183,1,0,0:0:0:0:
448,192,67283,1,0,0:0:0:0:
192,192,67283,1,0,0:0:0:0:
448,192,67683,1,0,0:0:0:0:
64,192,67683,128,0,68083:0:0:0:0:
320,192,67783,1,0,0:0:0:0:
192,192,67883,1,0,0:0:0:0:
320,192,67983,1,0,0:0:0:0:
448,192,68083,1,0,0:0:0:0:
448,192,68483,128,0,68883:0:0:0:0:
64,192,68483,1,0,0:0:0:0:
192,192,68583,1,0,0:0:0:0:
320,192,68683,1,0,0:0:0:0:
192,192,68783,1,0,0:0:0:0:
64,192,68883,1,0,0:0:0:0:
448,192,69283,1,0,0:0:0:0:
192,192,69283,1,0,0:0:0:0:
64,192,69283,1,0,0:0:0:0:
64,192,69583,1,0,0:0:0:0:
448,192,69583,1,0,0:0:0:0:
320,192,69583,1,0,0:0:0:0:
320,192,69883,1,0,0:0:0:0:
448,192,69883,1,0,0:0:0:0:
192,192,69883,1,0,0:0:0:0:
64,192,70083,1,0,0:0:0:0:
192,192,70083,1,0,0:0:0:0:
320,192,70083,1,0,0:0:0:0:
448,192,70883,1,0,0:0:0:0:
64,192,70883,1,0,0:0:0:0:
320,192,70983,1,0,0:0:0:0:
448,192,71083,1,0,0:0:0:0:
320,192,71183,1,0,0:0:0:0:
448,192,71283,1,0,0:0:0:0:
192,192,71283,1,0,0:0:0:0:
192,192,71483,1,0,0:0:0:0:
320,192,71483,1,0,0:0:0:0:
320,192,71683,1,0,0:0:0:0:
448,192,71683,1,0,0:0:0:0:
192,192,71683,1,0,0:0:0:0:
448,192,72083,1,0,0:0:0:0:
64,192,72083,1,0,0:0:0:0:
192,192,72283,1,0,0:0:0:0:
320,192,72283,1,0,0:0:0:0:
192,192,72483,128,0,73683:0:0:0:0:
320,192,72483,128,0,73683:0:0:0:0:
192,192,74083,128,0,74383:0:0:0:0:
64,192,74383,1,0,0:0:0:0:
448,192,74483,1,0,0:0:0:0:
192,192,74683,1,0,0:0:0:0:
448,192,74683,1,0,0:0:0:0:
64,192,74883,128,0,75183:0:0:0:0:
192,192,74883,128,0,75183:0:0:0:0:
448,192,75183,1,0,0:0:0:0:
320,192,75283,1,0,0:0:0:0:
448,192,75483,1,0,0:0:0:0:
320,192,75483,1,0,0:0:0:0:
320,192,75683,128,0,75983:0:0:0:0:
192,192,75683,128,0,75983:0:0:0:0:
64,192,75983,1,0,0:0:0:0:
192,192,76083,1,0,0:0:0:0:
320,192,76283,1,0,0:0:0:0:
448,192,76283,1,0,0:0:0:0:
448,192,76483,1,0,0:0:0:0:
64,192,76483,1,0,0:0:0:0:
320,192,76483,1,0,0:0:0:0:
64,192,76883,1,0,0:0:0:0:
320,192,76883,1,0,0:0:0:0:
192,192,77083,1,0,0:0:0:0:
448,192,77083,1,0,0:0:0:0:
448,192,77283,128,0,77683:0:0:0:0:
64,192,77283,1,0,0:0:0:0:
192,192,77283,1,0,0:0:0:0:
64,192,77683,1,0,0:0:0:0:
320,192,77683,1,0,0:0:0:0:
448,192,77883,1,0,0:0:0:0:
192,192,78083,1,0,0:0:0:0:
320,192,78083,1,0,0:0:0:0:
64,192,78083,1,0,0:0:0:0:
320,192,78283,1,0,0:0:0:0:
64,192,78483,1,0,0:0:0:0:
448,192,78483,1,0,0:0:0:0:
192,192,78483,1,0,0:0:0:0:
448,192,78683,1,0,0:0:0:0:
320,192,78883,128,0,79483:0:0:0:0:
64,192,78883,1,0,0:0:0:0:
192,192,79283,1,0,0:0:0:0:
64,192,79483,1,0,0:0:0:0:
448,192,79483,1,0,0:0:0:0:
448,192,79683,1,0,0:0:0:0:
320,192,79783,1,0,0:0:0:0:
64,192,79883,1,0,0:0:0:0:
192,192,79983,1,0,0:0:0:0:
448,192,80083,1,0,0:0:0:0:
320,192,80183,1,0,0:0:0:0:
192,192,80283,1,0,0:0:0:0:
64,192,80383,1,0,0:0:0:0:
192,192,80483,1,0,0:0:0:0:
448,192,80483,1,0,0:0:0:0:
448,192,80783,1,0,0:0:0:0:
64,192,80883,1,0,0:0:0:0:
320,192,80883,1,0,0:0:0:0:
192,192,81083,1,0,0:0:0:0:
448,192,81283,1,0,0:0:0:0:
192,192,81283,1,0,0:0:0:0:
320,192,81483,1,0,0:0:0:0:
192,192,81583,1,0,0:0:0:0:
64,192,81683,1,0,0:0:0:0:
320,192,81683,1,0,0:0:0:0:
320,192,81883,1,0,0:0:0:0:
320,192,82083,1,0,0:0:0:0:
192,192,82083,128,0,82383:0:0:0:0:
448,192,82383,1,0,0:0:0:0:
320,192,82483,1,0,0:0:0:0:
64,192,82483,1,0,0:0:0:0:
192,192,82683,1,0,0:0:0:0:
448,192,82683,1,0,0:0:0:0:
64,192,82883,128,0,83283:0:0:0:0:
320,192,82883,128,0,83283:0:0:0:0:
192,192,83083,1,0,0:0:0:0:
192,192,83283,1,0,0:0:0:0:
448,192,83283,1,0,0:0:0:0:
320,192,83483,1,0,0:0:0:0:
192,192,83683,128,0,84083:0:0:0:0:
64,192,83683,1,0,0:0:0:0:
448,192,83683,1,0,0:0:0:0:
64,192,84083,1,0,0:0:0:0:
320,192,84083,1,0,0:0:0:0:
320,192,84283,1,0,0:0:0:0:
448,192,84483,1,0,0:0:0:0:
320,192,84483,128,0,84883:0:0:0:0:
64,192,84483,1,0,0:0:0:0:
192,192,84883,1,0,0:0:0:0:
448,192,84883,1,0,0:0:0:0:
320,192,85083,1,0,0:0:0:0:
64,192,85283,128,0,85483:0:0:0:0:
192,192,85483,128,0,85683:0:0:0:0:
320,192,85683,128,0,85883:0:0:0:0:
64,192,85683,1,0,0:0:0:0:
192,192,85883,128,0,86083:0:0:0:0:
448,192,86083,128,0,86483:0:0:0:0:
320,192,86083,1,0,0:0:0:0:
64,192,86483,1,0,0:0:0:0:
192,192,86483,1,0,0:0:0:0:
448,192,86883,128,0,87183:0:0:0:0:
320,192,86883,1,0,0:0:0:0:
64,192,86883,1,0,0:0:0:0:
320,192,87183,1,0,0:0:0:0:
64,192,87283,1,0,0:0:0:0:
192,192,87483,1,0,0:0:0:0:
448,192,87483,1,0,0:0:0:0:
320,192,87683,1,0,0:0:0:0:
192,192,87783,1,0,0:0:0:0:
320,192,87883,1,0,0:0:0:0:
192,192,87983,1,0,0:0:0:0:
448,192,88083,1,0,0:0:0:0:
64,192,88083,1,0,0:0:0:0:
448,192,88283,1,0,0:0:0:0:
64,192,88283,1,0,0:0:0:0:
320,192,88483,128,0,88783:0:0:0:0:
192,192,88783,1,0,0:0:0:0:
64,192,88883,1,0,0:0:0:0:
448,192,88883,1,0,0:0:0:0:
192,192,89083,1,0,0:0:0:0:
448,192,89083,1,0,0:0:0:0:
192,192,89283,128,0,89483:0:0:0:0:
320,192,89283,1,0,0:0:0:0:
448,192,89483,1,0,0:0:0:0:
448,192,89683,1,0,0:0:0:0:
192,192,89683,128,0,89883:0:0:0:0:
320,192,89883,1,0,0:0:0:0:
64,192,90083,1,0,0:0:0:0:
448,192,90083,1,0,0:0:0:0:
320,192,90083,1,0,0:0:0:0:
192,192,90383,1,0,0:0:0:0:
448,192,90483,128,0,90683:0:0:0:0:
320,192,90483,128,0,90683:0:0:0:0:
192,192,90683,1,0,0:0:0:0:
192,192,90883,1,0,0:0:0:0:
448,192,90883,1,0,0:0:0:0:
64,192,90883,1,0,0:0:0:0:
192,192,91083,1,0,0:0:0:0:
448,192,91083,1,0,0:0:0:0:
320,192,91283,1,0,0:0:0:0:
64,192,91383,1,0,0:0:0:0:
448,192,91483,1,0,0:0:0:0:
192,192,91583,1,0,0:0:0:0:
448,192,91683,128,0,91983:0:0:0:0:
320,192,91983,1,0,0:0:0:0:
192,192,92083,128,0,92483:0:0:0:0:
64,192,92083,1,0,0:0:0:0:
448,192,92483,1,0,0:0:0:0:
192,192,92883,1,0,0:0:0:0:
320,192,93083,1,0,0:0:0:0:
192,192,93183,1,0,0:0:0:0:
448,192,93283,128,0,93683:0:0:0:0:
320,192,93283,128,0,93683:0:0:0:0:
64,192,93883,1,0,0:0:0:0:
448,192,93983,1,0,0:0:0:0:
192,192,94083,128,0,94483:0:0:0:0:
64,192,94083,128,0,94483:0:0:0:0:
448,192,94683,1,0,0:0:0:0:
320,192,94783,1,0,0:0:0:0:
192,192,94883,128,0,95083:0:0:0:0:
448,192,95283,1,0,0:0:0:0:
192,192,95283,1,0,0:0:0:0:
64,192,95283,1,0,0:0:0:0:
192,192,95483,1,0,0:0:0:0:
448,192,95683,1,0,0:0:0:0:
320,192,95683,1,0,0:0:0:0:
64,192,95683,1,0,0:0:0:0:
320,192,95883,1,0,0:0:0:0:
64,192,95883,1,0,0:0:0:0:
192,192,96083,1,0,0:0:0:0:
448,192,96083,1,0,0:0:0:0:
192,192,96283,1,0,0:0:0:0:
448,192,96283,1,0,0:0:0:0:
64,192,96483,128,0,96683:0:0:0:0:
320,192,96483,128,0,96683:0:0:0:0:
192,192,97083,128,0,97283:0:0:0:0:
64,192,97283,128,0,97483:0:0:0:0:
320,192,97483,1,0,0:0:0:0:
448,192,97483,1,0,0:0:0:0:
64,192,98283,1,0,0:0:0:0:
192,192,98283,1,0,0:0:0:0:
448,192,98283,1,0,0:0:0:0:
448,192,98583,1,0,0:0:0:0:
320,192,98583,1,0,0:0:0:0:
64,192,98583,1,0,0:0:0:0:
192,192,98883,128,0,99283:0:0:0:0:
448,192,98883,128,0,99283:0:0:0:0:
320,192,99283,1,0,0:0:0:0:
64,192,99383,1,0,0:0:0:0:
192,192,99483,1,0,0:0:0:0:
320,192,99583,1,0,0:0:0:0:
64,192,99683,128,4,100083:0:0:0:0:
448,192,99683,1,4,0:0:0:0:
320,192,99883,1,0,0:0:0:0:
192,192,99883,1,0,0:0:0:0:
192,192,100083,1,0,0:0:0:0:
320,192,100083,1,0,0:0:0:0:
192,192,100283,1,0,0:0:0:0:
320,192,100383,1,0,0:0:0:0:
192,192,100483,128,0,100883:0:0:0:0:
448,192,100483,1,0,0:0:0:0:
320,192,100683,1,0,0:0:0:0:
64,192,100683,1,0,0:0:0:0:
320,192,100883,1,0,0:0:0:0:
64,192,100883,1,0,0:0:0:0:
320,192,101083,1,0,0:0:0:0:
192,192,101183,1,0,0:0:0:0:
64,192,101283,1,0,0:0:0:0:
448,192,101283,1,0,0:0:0:0:
192,192,101483,1,0,0:0:0:0:
320,192,101483,1,0,0:0:0:0:
448,192,101683,1,0,0:0:0:0:
320,192,101683,1,0,0:0:0:0:
64,192,101683,1,0,0:0:0:0:
64,192,101883,1,0,0:0:0:0:
192,192,101883,1,0,0:0:0:0:
448,192,101883,1,0,0:0:0:0:
448,192,102083,1,0,0:0:0:0:
192,192,102083,1,0,0:0:0:0:
320,192,102083,128,0,102283:0:0:0:0:
64,192,102283,1,0,0:0:0:0:
64,192,102483,1,0,0:0:0:0:
448,192,102483,1,0,0:0:0:0:
192,192,102683,1,0,0:0:0:0:
64,192,102783,1,0,0:0:0:0:
192,192,102883,1,4,0:0:0:0:
448,192,102883,128,0,103283:0:0:0:0:
320,192,102883,128,4,103283:0:0:0:0:
192,192,103083,1,0,0:0:0:0:
64,192,103283,1,0,0:0:0:0:
320,192,103483,1,0,0:0:0:0:
448,192,103583,1,0,0:0:0:0:
320,192,103683,1,0,0:0:0:0:
64,192,103683,128,0,104083:0:0:0:0:
192,192,103683,128,0,104083:0:0:0:0:
320,192,103883,1,0,0:0:0:0:
448,192,104083,1,0,0:0:0:0:
192,192,104283,1,0,0:0:0:0:
192,192,104483,1,0,0:0:0:0:
448,192,104483,1,0,0:0:0:0:
64,192,104683,1,0,0:0:0:0:
448,192,104683,1,0,0:0:0:0:
320,192,104883,1,0,0:0:0:0:
64,192,104883,1,0,0:0:0:0:
64,192,105083,1,0,0:0:0:0:
448,192,105083,1,0,0:0:0:0:
320,192,105283,128,0,105683:0:0:0:0:
192,192,105283,128,0,105683:0:0:0:0:
64,192,105483,1,0,0:0:0:0:
448,192,105483,1,0,0:0:0:0:
64,192,105683,1,0,0:0:0:0:
448,192,105683,1,0,0:0:0:0:
64,192,105883,1,0,0:0:0:0:
192,192,105983,1,0,0:0:0:0:
448,192,106083,128,0,106283:0:0:0:0:
320,192,106083,128,0,106283:0:0:0:0:
320,192,106483,1,0,0:0:0:0:
448,192,106483,1,0,0:0:0:0:
192,192,106483,1,0,0:0:0:0:
64,192,106683,1,0,0:0:0:0:
192,192,106783,1,0,0:0:0:0:
320,192,106883,1,0,0:0:0:0:
64,192,106983,1,0,0:0:0:0:
448,192,107083,1,0,0:0:0:0:
192,192,107283,1,0,0:0:0:0:
448,192,107283,1,0,0:0:0:0:
64,192,107283,1,0,0:0:0:0:
448,192,107483,1,0,0:0:0:0:
320,192,107583,1,0,0:0:0:0:
192,192,107683,1,0,0:0:0:0:
448,192,107683,1,0,0:0:0:0:
64,192,107883,1,0,0:0:0:0:
320,192,107883,1,0,0:0:0:0:
64,192,108083,1,0,0:0:0:0:
448,192,108083,1,0,0:0:0:0:
192,192,108283,1,0,0:0:0:0:
320,192,108283,1,0,0:0:0:0:
448,192,108483,128,0,108883:0:0:0:0:
64,192,108483,128,0,108883:0:0:0:0:
320,192,108683,1,4,0:0:0:0:
192,192,108683,1,0,0:0:0:0:
320,192,108883,1,4,0:0:0:0:
192,192,108883,1,0,0:0:0:0:
320,192,109083,1,0,0:0:0:0:
448,192,109183,1,0,0:0:0:0:
320,192,109283,128,0,109683:0:0:0:0:
192,192,109283,128,0,109683:0:0:0:0:
64,192,109683,1,0,0:0:0:0:
448,192,109683,1,0,0:0:0:0:
64,192,109883,1,0,0:0:0:0:
192,192,109983,1,0,0:0:0:0:
448,192,110083,128,0,110483:0:0:0:0:
64,192,110083,128,0,110483:0:0:0:0:
320,192,110483,1,0,0:0:0:0:
192,192,110483,1,0,0:0:0:0:
192,192,110883,128,0,111183:0:0:0:0:
320,192,110883,128,0,111183:0:0:0:0:
64,192,111283,128,0,111483:0:0:0:0:
448,192,111283,128,0,111483:0:0:0:0:
192,192,111583,128,0,111783:0:0:0:0:
320,192,111583,128,0,111783:0:0:0:0:
448,192,111883,1,0,0:0:0:0:
64,192,111883,1,0,0:0:0:0:
64,192,112083,1,0,0:0:0:0:
448,192,112183,1,0,0:0:0:0:
320,192,112283,1,0,0:0:0:0:
192,192,112383,1,0,0:0:0:0:
64,192,112483,128,0,113683:0:0:0:0:
320,192,112483,128,0,112883:0:0:0:0:
448,192,112883,128,0,113283:0:0:0:0:
192,192,113283,128,0,113683:0:0:0:0:
320,192,113683,1,0,0:0:0:0:
448,192,113683,1,0,0:0:0:0:
64,192,113883,1,0,0:0:0:0:
192,192,113883,1,0,0:0:0:0:
192,192,114083,1,0,0:0:0:0:
448,192,114083,1,0,0:0:0:0:
64,192,114083,1,0,0:0:0:0:
64,192,114383,1,0,0:0:0:0:
320,192,114383,1,0,0:0:0:0:
448,192,114383,1,0,0:0:0:0:
192,192,114683,1,0,0:0:0:0:
448,192,114683,1,0,0:0:0:0:
64,192,114883,1,0,0:0:0:0:
320,192,114883,1,0,0:0:0:0:
320,192,115083,1,0,0:0:0:0:
192,192,115183,1,0,0:0:0:0:
64,192,115283,1,0,0:0:0:0:
320,192,115283,1,0,0:0:0:0:
448,192,115383,1,0,0:0:0:0:
320,192,115683,1,0,0:0:0:0:
64,192,115683,128,0,115983:0:0:0:0:
320,192,115983,1,0,0:0:0:0:
448,192,116283,1,0,0:0:0:0:
192,192,116483,1,0,0:0:0:0:
320,192,116483,128,0,116883:0:0:0:0:
64,192,116683,1,0,0:0:0:0:
192,192,116883,1,0,0:0:0:0:
64,192,117083,1,0,0:0:0:0:
320,192,117083,1,0,0:0:0:0:
192,192,117283,1,0,0:0:0:0:
64,192,117283,1,0,0:0:0:0:
448,192,117383,1,0,0:0:0:0:
320,192,117483,1,0,0:0:0:0:
64,192,117583,1,0,0:0:0:0:
320,192,117783,1,0,0:0:0:0:
448,192,117883,1,0,0:0:0:0:
320,192,118083,1,0,0:0:0:0:
64,192,118083,1,0,0:0:0:0:
448,192,118183,1,0,0:0:0:0:
320,192,118283,1,0,0:0:0:0:
192,192,118383,1,0,0:0:0:0:
448,192,118583,1,0,0:0:0:0:
192,192,118583,1,0,0:0:0:0:
320,192,118683,1,0,0:0:0:0:
64,192,118683,1,0,0:0:0:0:
448,192,118883,1,0,0:0:0:0:
64,192,118883,128,0,119483:0:0:0:0:
448,192,119183,1,0,0:0:0:0:
448,192,119483,1,0,0:0:0:0:
320,192,119683,1,0,0:0:0:0:
448,192,119683,128,0,120283:0:0:0:0:
320,192,119983,1,0,0:0:0:0:
320,192,120283,1,0,0:0:0:0:
192,192,120483,1,0,0:0:0:0:
64,192,120483,1,0,0:0:0:0:
320,192,120583,1,0,0:0:0:0:
448,192,120683,1,0,0:0:0:0:
192,192,120783,1,0,0:0:0:0:
64,192,120783,1,0,0:0:0:0:
320,192,120983,1,0,0:0:0:0:
192,192,121083,1,0,0:0:0:0:
64,192,121083,1,0,0:0:0:0:
64,192,121283,1,0,0:0:0:0:
320,192,121283,1,0,0:0:0:0:
192,192,121383,1,0,0:0:0:0:
320,192,121483,1,0,0:0:0:0:
64,192,121583,1,0,0:0:0:0:
192,192,121583,1,0,0:0:0:0:
448,192,121783,1,0,0:0:0:0:
448,192,122083,128,0,123283:0:0:0:0:
192,192,122483,128,0,123283:0:0:0:0:
320,192,122883,128,0,123283:0:0:0:0:
64,192,123283,1,0,0:0:0:0:
64,192,123683,128,0,124883:0:0:0:0:
192,192,124083,1,0,0:0:0:0:
448,192,124083,1,0,0:0:0:0:
320,192,124483,1,0,0:0:0:0:
448,192,124483,1,0,0:0:0:0:
448,192,124883,1,0,0:0:0:0:
64,192,125283,128,0,125583:0:0:0:0:
320,192,125583,1,0,0:0:0:0:
192,192,125683,1,0,0:0:0:0:
320,192,125783,1,0,0:0:0:0:
448,192,125883,1,0,0:0:0:0:
448,192,126083,1,0,0:0:0:0:
192,192,126083,1,0,0:0:0:0:
192,192,126283,1,0,0:0:0:0:
448,192,126283,1,0,0:0:0:0:
64,192,126383,1,0,0:0:0:0:
320,192,126383,1,0,0:0:0:0:
192,192,126683,128,0,126883:0:0:0:0:
448,192,126683,128,0,126883:0:0:0:0:
320,192,126883,1,0,0:0:0:0:
64,192,126883,1,0,0:0:0:0:
192,192,127083,128,0,127283:0:0:0:0:
448,192,127083,128,0,127283:0:0:0:0:
320,192,127283,1,0,0:0:0:0:
64,192,127483,1,0,0:0:0:0:
448,192,127483,1,0,0:0:0:0:
192,192,127483,128,0,127683:0:0:0:0:
320,192,127683,1,0,0:0:0:0:
64,192,127683,1,0,0:0:0:0:
448,192,127783,1,0,0:0:0:0:
320,192,127883,1,0,0:0:0:0:
192,192,127983,1,0,0:0:0:0:
448,192,128083,1,0,0:0:0:0:
192,192,128183,1,0,0:0:0:0:
320,192,128283,1,0,0:0:0:0:
192,192,128483,1,0,0:0:0:0:
448,192,128483,1,0,0:0:0:0:
320,192,128583,1,0,0:0:0:0:
192,192,128683,1,0,0:0:0:0:
320,192,128783,1,0,0:0:0:0:
192,192,128883,128,0,129083:0:0:0:0:
448,192,129083,1,0,0:0:0:0:
64,192,129283,1,0,0:0:0:0:
192,192,129283,128,0,129483:0:0:0:0:
448,192,129483,1,0,0:0:0:0:
448,192,129683,1,0,0:0:0:0:
192,192,129683,1,0,0:0:0:0:
320,192,129883,128,0,130083:0:0:0:0:
64,192,129883,1,0,0:0:0:0:
448,192,130083,1,0,0:0:0:0:
192,192,130083,128,0,130483:0:0:0:0:
64,192,130483,1,0,0:0:0:0:
320,192,130683,128,0,130883:0:0:0:0:
192,192,130883,1,0,0:0:0:0:
64,192,130983,1,0,0:0:0:0:
320,192,131183,1,0,0:0:0:0:
192,192,131183,1,0,0:0:0:0:
192,192,131383,1,0,0:0:0:0:
320,192,131483,1,0,0:0:0:0:
320,192,131683,1,0,0:0:0:0:
64,192,131683,1,0,0:0:0:0:
192,192,131783,1,0,0:0:0:0:
64,192,131983,1,0,0:0:0:0:
320,192,132283,1,0,0:0:0:0:
320,192,132483,1,0,0:0:0:0:
64,192,132483,1,0,0:0:0:0:
192,192,132583,1,0,0:0:0:0:
448,192,132883,1,0,0:0:0:0:
320,192,132983,1,0,0:0:0:0:
192,192,133083,1,0,0:0:0:0:
64,192,133183,1,0,0:0:0:0:
448,192,133283,128,0,133983:0:0:0:0:
192,192,133283,128,0,133983:0:0:0:0:
320,192,133983,1,0,0:0:0:0:
64,192,133983,1,0,0:0:0:0:
320,192,134183,1,0,0:0:0:0:
64,192,134183,1,0,0:0:0:0:
448,192,134483,1,0,0:0:0:0:
64,192,134583,1,0,0:0:0:0:
192,192,134683,1,0,0:0:0:0:
448,192,134783,1,0,0:0:0:0:
192,192,134883,1,0,0:0:0:0:
64,192,134883,1,0,0:0:0:0:
320,192,134983,1,0,0:0:0:0:
64,192,135083,1,0,0:0:0:0:
192,192,135183,1,0,0:0:0:0:
448,192,135283,1,0,0:0:0:0:
320,192,135383,1,0,0:0:0:0:
192,192,135483,1,0,0:0:0:0:
64,192,135583,1,0,0:0:0:0:
192,192,135683,1,0,0:0:0:0:
320,192,135783,1,0,0:0:0:0:
448,192,135883,1,0,0:0:0:0:
320,192,135983,1,0,0:0:0:0:
64,192,136083,1,0,0:0:0:0:
192,192,136183,1,0,0:0:0:0:
448,192,136283,1,0,0:0:0:0:
320,192,136383,1,0,0:0:0:0:
64,192,136483,128,0,136883:0:0:0:0:
448,192,136483,128,0,136883:0:0:0:0:
448,192,137083,1,0,0:0:0:0:
192,192,137083,1,0,0:0:0:0:
192,192,137283,1,0,0:0:0:0:
320,192,137283,1,0,0:0:0:0:
64,192,137483,1,0,0:0:0:0:
320,192,137483,1,0,0:0:0:0:
320,192,137683,1,0,0:0:0:0:
192,192,137783,1,0,0:0:0:0:
320,192,137883,1,0,0:0:0:0:
192,192,137983,1,0,0:0:0:0:
192,192,138883,1,0,0:0:0:0:
448,192,138883,1,0,0:0:0:0:
320,192,138983,1,0,0:0:0:0:
448,192,139083,1,0,0:0:0:0:
64,192,139183,1,0,0:0:0:0:
320,192,139283,1,0,0:0:0:0:
448,192,139283,1,0,0:0:0:0:
320,192,139483,1,0,0:0:0:0:
64,192,139583,1,0,0:0:0:0:
192,192,139683,1,0,0:0:0:0:
448,192,139683,128,0,139883:0:0:0:0:
320,192,139883,128,0,140083:0:0:0:0:
448,192,140083,128,0,140283:0:0:0:0:
192,192,140283,1,0,0:0:0:0:
320,192,140383,1,0,0:0:0:0:
448,192,140483,128,0,140683:0:0:0:0:
64,192,140483,128,0,140683:0:0:0:0:
192,192,140883,128,0,141083:0:0:0:0:
448,192,140883,128,0,141083:0:0:0:0:
320,192,141283,128,0,141483:0:0:0:0:
448,192,141283,128,0,141483:0:0:0:0:
448,192,141683,128,0,141883:0:0:0:0:
192,192,142083,1,0,0:0:0:0:
448,192,142183,1,0,0:0:0:0:
64,192,142283,1,0,0:0:0:0:
320,192,142383,1,0,0:0:0:0:
192,192,142483,1,0,0:0:0:0:
448,192,142583,1,0,0:0:0:0:
192,192,142683,1,0,0:0:0:0:
320,192,142783,1,0,0:0:0:0:
64,192,142883,1,0,0:0:0:0:
192,192,142983,1,0,0:0:0:0:
320,192,143083,1,0,0:0:0:0:
448,192,143183,128,0,143483:0:0:0:0:
448,192,143683,1,0,0:0:0:0:
64,192,143683,1,0,0:0:0:0:
64,192,143883,1,0,0:0:0:0:
320,192,143883,1,0,0:0:0:0:
64,192,144083,1,0,0:0:0:0:
192,192,144083,1,0,0:0:0:0:
64,192,144283,1,0,0:0:0:0:
64,192,144483,1,0,0:0:0:0:
448,192,144483,1,0,0:0:0:0:
320,192,144683,1,0,0:0:0:0:
448,192,144783,128,0,145083:0:0:0:0:
192,192,145283,1,0,0:0:0:0:
64,192,145383,1,0,0:0:0:0:
192,192,145483,1,0,0:0:0:0:
320,192,145583,1,0,0:0:0:0:
192,192,145683,1,0,0:0:0:0:
320,192,145783,128,0,145983:0:0:0:0:
64,192,145983,1,0,0:0:0:0:
192,192,146083,1,0,0:0:0:0:
448,192,146183,1,0,0:0:0:0:
320,192,146283,1,0,0:0:0:0:
64,192,146483,1,0,0:0:0:0:
192,192,146483,1,0,0:0:0:0:
64,192,146883,128,0,147083:0:0:0:0:
64,192,147283,128,0,147483:0:0:0:0:
192,192,147283,128,0,147483:0:0:0:0:
64,192,147683,128,0,147883:0:0:0:0:
320,192,147683,128,0,147883:0:0:0:0:
64,192,148083,128,0,148283:0:0:0:0:
448,192,148083,128,0,148283:0:0:0:0:
192,192,148483,128,0,149083:0:0:0:0:
64,192,148483,1,0,0:0:0:0:
448,192,148883,1,0,0:0:0:0:
64,192,148883,1,0,0:0:0:0:
448,192,149083,1,0,0:0:0:0:
64,192,149283,128,0,149583:0:0:0:0:
64,192,149883,128,0,150283:0:0:0:0:
320,192,150283,1,0,0:0:0:0:
192,192,150283,1,0,0:0:0:0:
320,192,150483,128,0,150683:0:0:0:0:
448,192,150483,1,0,0:0:0:0:
448,192,150683,1,0,0:0:0:0:
192,192,150683,1,0,0:0:0:0:
448,192,150883,1,0,0:0:0:0:
64,192,150883,1,0,0:0:0:0:
320,192,150983,1,0,0:0:0:0:
192,192,151083,1,0,0:0:0:0:
64,192,151283,1,0,0:0:0:0:
192,192,151283,1,0,0:0:0:0:
448,192,151283,1,0,0:0:0:0:
320,192,151483,1,0,0:0:0:0:
448,192,151683,1,0,0:0:0:0:
192,192,151883,1,0,0:0:0:0:
64,192,152083,1,0,0:0:0:0:
192,192,152083,1,0,0:0:0:0:
448,192,152083,1,0,0:0:0:0:
448,192,152483,5,0,0:0:0:0:
192,192,152683,1,0,0:0:0:0:
448,192,152883,1,0,0:0:0:0:
320,192,152883,1,0,0:0:0:0:
64,192,152883,1,0,0:0:0:0:
448,192,153283,5,0,0:0:0:0:
64,192,153383,1,0,0:0:0:0:
320,192,153483,1,0,0:0:0:0:
192,192,153583,1,0,0:0:0:0:
448,192,153683,1,0,0:0:0:0:
448,192,153883,1,0,0:0:0:0:
320,192,153983,1,0,0:0:0:0:
64,192,154083,1,0,0:0:0:0:
192,192,154183,1,0,0:0:0:0:
448,192,154283,1,0,0:0:0:0:
448,192,154483,1,0,0:0:0:0:
320,192,154583,1,0,0:0:0:0:
448,192,154683,1,0,0:0:0:0:
320,192,154783,1,0,0:0:0:0:
64,192,154883,1,0,0:0:0:0:
448,192,154883,1,0,0:0:0:0:
64,192,156283,128,0,157283:0:0:0:0:
192,192,156283,128,0,157283:0:0:0:0:
320,192,156283,128,0,157283:0:0:0:0:
320,192,157483,1,0,0:0:0:0:
448,192,157483,1,0,0:0:0:0:
64,192,157683,1,0,0:0:0:0:
192,192,157683,1,0,0:0:0:0:
320,192,157883,1,0,0:0:0:0:
448,192,157983,1,0,0:0:0:0:
64,192,158083,1,0,0:0:0:0:
192,192,158283,1,0,0:0:0:0:
448,192,158483,128,0,158683:0:0:0:0:
192,192,158483,128,0,158683:0:0:0:0:
64,192,158683,1,0,0:0:0:0:
64,192,158883,128,0,159083:0:0:0:0:
320,192,159083,1,0,0:0:0:0:
448,192,159283,1,0,0:0:0:0:
192,192,159283,1,0,0:0:0:0:
192,192,159483,1,0,0:0:0:0:
320,192,159483,1,0,0:0:0:0:
64,192,159683,1,0,0:0:0:0:
448,192,159683,1,0,0:0:0:0:
192,192,159683,1,0,0:0:0:0:
448,192,159883,1,0,0:0:0:0:
320,192,159883,1,0,0:0:0:0:
192,192,160083,1,0,0:0:0:0:
448,192,160083,1,0,0:0:0:0:
320,192,160083,1,0,0:0:0:0:
192,192,160283,1,0,0:0:0:0:
448,192,160283,1,0,0:0:0:0:
448,192,160483,128,0,160883:0:0:0:0:
64,192,160683,1,0,0:0:0:0:
320,192,160683,1,0,0:0:0:0:
192,192,160883,1,0,0:0:0:0:
320,192,160883,1,0,0:0:0:0:
64,192,161083,1,0,0:0:0:0:
192,192,161183,1,0,0:0:0:0:
320,192,161283,1,0,0:0:0:0:
448,192,161283,1,0,0:0:0:0:
64,192,161483,1,0,0:0:0:0:
192,192,161483,1,0,0:0:0:0:
448,192,161483,1,0,0:0:0:0:
320,192,161683,1,0,0:0:0:0:
448,192,161683,1,0,0:0:0:0:
64,192,161683,1,0,0:0:0:0:
448,192,161883,1,0,0:0:0:0:
320,192,161983,1,0,0:0:0:0:
448,192,162083,1,0,0:0:0:0:
320,192,162183,1,0,0:0:0:0:
192,192,162283,1,0,0:0:0:0:
64,192,162283,1,0,0:0:0:0:
448,192,162283,1,0,0:0:0:0:
64,192,162483,1,0,0:0:0:0:
192,192,162483,1,0,0:0:0:0:
320,192,162483,1,0,0:0:0:0:
448,192,162683,1,0,0:0:0:0:
320,192,162783,1,0,0:0:0:0:
64,192,162883,1,0,0:0:0:0:
192,192,162883,128,0,163083:0:0:0:0:
320,192,163083,128,0,163283:0:0:0:0:
448,192,163283,128,0,163483:0:0:0:0:
64,192,163283,1,0,0:0:0:0:
320,192,163483,128,0,163683:0:0:0:0:
64,192,163683,128,0,164083:0:0:0:0:
192,192,163883,1,4,0:0:0:0:
448,192,163883,1,4,0:0:0:0:
320,192,164083,1,4,0:0:0:0:
448,192,164083,1,4,0:0:0:0:
64,192,164283,1,0,0:0:0:0:
192,192,164383,1,0,0:0:0:0:
64,192,164483,128,0,164883:0:0:0:0:
320,192,164483,128,0,164883:0:0:0:0:
192,192,164883,1,0,0:0:0:0:
448,192,164883,1,0,0:0:0:0:
448,192,165083,1,0,0:0:0:0:
320,192,165183,1,0,0:0:0:0:
448,192,165283,128,0,165683:0:0:0:0:
192,192,165283,128,0,165683:0:0:0:0:
64,192,165683,1,0,0:0:0:0:
320,192,165683,1,0,0:0:0:0:
192,192,165883,1,0,0:0:0:0:
448,192,165883,1,0,0:0:0:0:
64,192,165983,1,0,0:0:0:0:
320,192,165983,1,0,0:0:0:0:
448,192,166083,1,0,0:0:0:0:
192,192,166083,1,0,0:0:0:0:
320,192,166283,1,0,0:0:0:0:
64,192,166283,1,0,0:0:0:0:
192,192,166383,1,0,0:0:0:0:
448,192,166383,1,0,0:0:0:0:
64,192,166483,1,0,0:0:0:0:
320,192,166483,1,0,0:0:0:0:
448,192,166683,1,0,0:0:0:0:
64,192,166683,1,0,0:0:0:0:
192,192,166783,1,0,0:0:0:0:
320,192,166783,1,0,0:0:0:0:
448,192,166883,128,0,167283:0:0:0:0:
64,192,166883,128,0,167283:0:0:0:0:
192,192,167283,1,0,0:0:0:0:
320,192,167283,1,0,0:0:0:0:
320,192,167483,1,0,0:0:0:0:
192,192,167583,1,0,0:0:0:0:
448,192,167683,1,0,0:0:0:0:
64,192,167683,1,0,0:0:0:0:
320,192,167783,1,0,0:0:0:0:
192,192,167883,1,0,0:0:0:0:
64,192,167983,1,0,0:0:0:0:
448,192,168083,1,0,0:0:0:0:
192,192,168083,1,0,0:0:0:0:
320,192,168183,1,0,0:0:0:0:
192,192,168283,1,0,0:0:0:0:
320,192,168383,1,0,0:0:0:0:
64,192,168483,1,0,0:0:0:0:
448,192,168483,1,0,0:0:0:0:
192,192,168583,1,0,0:0:0:0:
320,192,168683,1,0,0:0:0:0:
448,192,168783,1,0,0:0:0:0:
64,192,168883,1,0,0:0:0:0:
320,192,168883,1,0,0:0:0:0:
192,192,168983,1,0,0:0:0:0:
448,192,169083,1,0,0:0:0:0:
192,192,169183,1,0,0:0:0:0:
448,192,169283,1,0,0:0:0:0:
64,192,169283,1,0,0:0:0:0:
320,192,169383,1,0,0:0:0:0:
64,192,169483,1,0,0:0:0:0:
320,192,169583,1,0,0:0:0:0:
64,192,169683,1,0,0:0:0:0:
320,192,169783,1,0,0:0:0:0:
64,192,169883,1,0,0:0:0:0:
192,192,169983,1,0,0:0:0:0:
64,192,170083,1,0,0:0:0:0:
192,192,170183,1,0,0:0:0:0:
320,192,170283,1,0,0:0:0:0:
448,192,170383,1,0,0:0:0:0:
64,192,170483,1,0,0:0:0:0:
192,192,170583,1,0,0:0:0:0:
320,192,170683,1,0,0:0:0:0:
448,192,170783,1,0,0:0:0:0:
320,192,170883,1,0,0:0:0:0:
64,192,170883,1,0,0:0:0:0:
192,192,170983,1,0,0:0:0:0:
448,192,171083,1,0,0:0:0:0:
320,192,171183,1,0,0:0:0:0:
192,192,171283,1,0,0:0:0:0:
320,192,171383,1,0,0:0:0:0:
448,192,171483,1,0,0:0:0:0:
320,192,171583,1,0,0:0:0:0:
192,192,171683,1,0,0:0:0:0:
320,192,171783,1,0,0:0:0:0:
448,192,171883,1,0,0:0:0:0:
320,192,171983,1,0,0:0:0:0:
192,192,172083,1,0,0:0:0:0:
64,192,172183,1,0,0:0:0:0:
192,192,172283,1,0,0:0:0:0:
320,192,172383,1,0,0:0:0:0:
448,192,172483,128,0,172683:0:0:0:0:
320,192,172683,128,0,172883:0:0:0:0:
64,192,172883,128,0,173283:0:0:0:0:
320,192,173083,1,0,0:0:0:0:
448,192,173283,128,0,173683:0:0:0:0:
320,192,173283,128,0,173683:0:0:0:0:
64,192,173483,1,0,0:0:0:0:
192,192,173483,1,0,0:0:0:0:
192,192,173683,1,0,0:0:0:0:
64,192,173683,1,0,0:0:0:0:
320,192,173883,1,0,0:0:0:0:
192,192,174083,1,4,0:0:0:0:
448,192,174083,1,4,0:0:0:0:
320,192,174283,1,0,0:0:0:0:
64,192,174283,1,0,0:0:0:0:
192,192,174483,1,0,0:0:0:0:
448,192,174483,1,0,0:0:0:0:
64,192,174683,1,0,0:0:0:0:
192,192,174783,1,0,0:0:0:0:
64,192,174883,1,0,0:0:0:0:
320,192,174883,1,0,0:0:0:0:
192,192,175083,1,0,0:0:0:0:
320,192,175083,1,0,0:0:0:0:
320,192,175283,1,0,0:0:0:0:
448,192,175283,1,0,0:0:0:0:
320,192,175483,1,0,0:0:0:0:
64,192,175483,1,0,0:0:0:0:
448,192,175583,1,0,0:0:0:0:
192,192,175583,1,0,0:0:0:0:
64,192,175683,1,0,0:0:0:0:
320,192,175683,1,0,0:0:0:0:
64,192,175883,1,0,0:0:0:0:
192,192,175883,1,0,0:0:0:0:
192,192,176083,1,0,0:0:0:0:
448,192,176083,1,0,0:0:0:0:
320,192,176283,1,0,0:0:0:0:
448,192,176283,1,0,0:0:0:0:
64,192,176483,128,0,176883:0:0:0:0:
192,192,176483,128,0,176883:0:0:0:0:
448,192,176683,1,4,0:0:0:0:
320,192,176883,1,0,0:0:0:0:
448,192,176883,1,4,0:0:0:0:
64,192,177083,1,0,0:0:0:0:
320,192,177083,1,0,0:0:0:0:
192,192,177183,1,0,0:0:0:0:
448,192,177183,1,0,0:0:0:0:
64,192,177283,128,0,177683:0:0:0:0:
320,192,177283,128,0,177683:0:0:0:0:
192,192,177683,1,0,0:0:0:0:
448,192,177683,1,0,0:0:0:0:
448,192,177883,1,0,0:0:0:0:
192,192,177883,1,0,0:0:0:0:
64,192,177983,1,0,0:0:0:0:
320,192,177983,1,0,0:0:0:0:
192,192,178083,128,0,178483:0:0:0:0:
448,192,178083,128,0,178483:0:0:0:0:
320,192,178483,1,0,0:0:0:0:
64,192,178483,1,0,0:0:0:0:
320,192,178883,1,0,0:0:0:0:
64,192,178883,1,0,0:0:0:0:
448,192,178883,128,0,179683:0:0:0:0:
192,192,179083,1,0,0:0:0:0:
320,192,179283,1,0,0:0:0:0:
192,192,179283,1,0,0:0:0:0:
64,192,179483,1,0,0:0:0:0:
192,192,179483,1,0,0:0:0:0:
320,192,179683,128,0,179883:0:0:0:0:
192,192,179883,128,0,180083:0:0:0:0:
64,192,180083,128,0,180283:0:0:0:0:
448,192,180283,128,0,180483:0:0:0:0:
320,192,180483,128,0,181283:0:0:0:0:
192,192,180483,128,0,182883:0:0:0:0:
448,192,181283,1,4,0:0:0:0:
448,192,181483,1,0,0:0:0:0:
448,192,181683,1,0,0:0:0:0:
64,192,181883,1,0,0:0:0:0:
448,192,182083,128,0,182483:0:0:0:0:
320,192,182483,1,0,0:0:0:0:
320,192,182683,1,0,0:0:0:0:
448,192,182683,1,0,0:0:0:0:
64,192,182883,1,0,0:0:0:0:
320,192,183083,1,0,0:0:0:0:
192,192,183183,1,0,0:0:0:0:
64,192,183283,1,0,0:0:0:0:
320,192,183283,1,0,0:0:0:0:
448,192,183283,128,0,183483:0:0:0:0:
192,192,183483,1,0,0:0:0:0:
320,192,183683,1,0,0:0:0:0:
64,192,183683,1,0,0:0:0:0:
448,192,183783,1,0,0:0:0:0:
320,192,183883,1,0,0:0:0:0:
192,192,183983,1,0,0:0:0:0:
64,192,184083,1,0,0:0:0:0:
192,192,184183,1,0,0:0:0:0:
320,192,184283,128,0,184483:0:0:0:0:
64,192,184483,1,0,0:0:0:0:
448,192,184483,1,0,0:0:0:0:
192,192,184583,1,0,0:0:0:0:
320,192,184683,1,0,0:0:0:0:
192,192,184783,1,0,0:0:0:0:
320,192,184883,1,0,0:0:0:0:
448,192,185083,1,0,0:0:0:0:
64,192,185283,1,0,0:0:0:0:
320,192,185283,1,0,0:0:0:0:
320,192,185483,1,0,0:0:0:0:
64,192,185583,1,0,0:0:0:0:
192,192,185683,1,0,0:0:0:0:
448,192,185683,1,0,0:0:0:0:
320,192,185783,1,0,0:0:0:0:
192,192,185883,1,0,0:0:0:0:
64,192,185983,1,0,0:0:0:0:
448,192,186083,1,0,0:0:0:0:
320,192,186083,1,0,0:0:0:0:
192,192,186183,1,0,0:0:0:0:
64,192,186383,1,0,0:0:0:0:
448,192,186483,1,0,0:0:0:0:
192,192,186483,1,0,0:0:0:0:
64,192,186683,1,0,0:0:0:0:
320,192,186683,1,0,0:0:0:0:
192,192,186883,128,0,187283:0:0:0:0:
448,192,186883,1,0,0:0:0:0:
64,192,187083,1,0,0:0:0:0:
448,192,187283,1,0,0:0:0:0:
320,192,187383,1,0,0:0:0:0:
192,192,187483,1,0,0:0:0:0:
64,192,187583,1,0,0:0:0:0:
448,192,187683,1,4,0:0:0:0:
192,192,187683,1,0,0:0:0:0:
320,192,187783,1,0,0:0:0:0:
448,192,187883,1,0,0:0:0:0:
320,192,187983,1,0,0:0:0:0:
64,192,188083,1,0,0:0:0:0:
192,192,188083,1,0,0:0:0:0:
64,192,188283,1,0,0:0:0:0:
192,192,188283,1,0,0:0:0:0:
448,192,188283,1,0,0:0:0:0:
64,192,188483,1,0,0:0:0:0:
192,192,188483,1,0,0:0:0:0:
320,192,188683,128,0,189283:0:0:0:0:
448,192,188883,128,0,189283:0:0:0:0:
64,192,189283,1,0,0:0:0:0:
192,192,189383,1,0,0:0:0:0:
320,192,189483,1,0,0:0:0:0:
448,192,189583,1,0,0:0:0:0:
64,192,189683,1,0,0:0:0:0:
192,192,189683,1,0,0:0:0:0:
64,192,189883,1,0,0:0:0:0:
192,192,189883,1,0,0:0:0:0:
448,192,189883,1,0,0:0:0:0:
64,192,190083,1,0,0:0:0:0:
192,192,190083,1,0,0:0:0:0:
320,192,190283,1,0,0:0:0:0:
448,192,190483,1,0,0:0:0:0:
320,192,190583,1,0,0:0:0:0:
64,192,190683,1,0,0:0:0:0:
192,192,190783,1,0,0:0:0:0:
448,192,190883,1,0,0:0:0:0:
320,192,190883,1,0,0:0:0:0:
192,192,190983,1,0,0:0:0:0:
64,192,191083,1,0,0:0:0:0:
448,192,191183,1,0,0:0:0:0:
320,192,191283,1,0,0:0:0:0:
192,192,191283,1,0,0:0:0:0:
448,192,191483,1,0,0:0:0:0:
64,192,191483,1,0,0:0:0:0:
448,192,191683,1,0,0:0:0:0:
320,192,191783,1,0,0:0:0:0:
64,192,191983,1,0,0:0:0:0:
448,192,192083,1,0,0:0:0:0:
320,192,192183,1,0,0:0:0:0:
64,192,192283,1,0,0:0:0:0:
448,192,192383,1,0,0:0:0:0:
64,192,192483,1,0,0:0:0:0:
192,192,192483,1,0,0:0:0:0:
320,192,192483,1,0,0:0:0:0:
192,192,192783,1,0,0:0:0:0:
320,192,192783,1,0,0:0:0:0:
448,192,192783,1,0,0:0:0:0:
64,192,193083,1,0,0:0:0:0:
192,192,193083,1,0,0:0:0:0:
448,192,193083,1,0,0:0:0:0:
448,192,193383,1,0,0:0:0:0:
320,192,193383,1,0,0:0:0:0:
64,192,193383,1,0,0:0:0:0:
192,192,193683,1,0,0:0:0:0:
320,192,193683,1,0,0:0:0:0:
192,192,193883,1,0,0:0:0:0:
320,192,193883,1,0,0:0:0:0:
64,192,193883,128,0,194483:0:0:0:0:
448,192,193883,1,0,0:0:0:0:
448,192,194483,128,0,198983:0:0:0:0:
64,192,198983,1,0,0:0:0:0:
192,192,198983,1,0,0:0:0:0:
64,192,199149,1,0,0:0:0:0:
192,192,199149,1,0,0:0:0:0:
