osu file format v14

[General]
AudioFilename: 01. .mp3
AudioLeadIn: 0
PreviewTime: -1
Countdown: 0
SampleSet: None
StackLeniency: 0.7
Mode: 3
LetterboxInBreaks: 0
SpecialStyle: 1
WidescreenStoryboard: 0

[Editor]
DistanceSpacing: 1
BeatDivisor: 8
GridSize: 4
TimelineZoom: 1

[Metadata]
Title:weekly_shonen_bye_bye
TitleUnicode:週刊少年バイバイ
Artist:Pinocchio P
ArtistUnicode:ピノキオP
Creator:therevenant
Version:Normal
Source:exit tunes
Tags:vocaloid
BeatmapID:1042022
BeatmapSetID:488812

[Difficulty]
HPDrainRate:5
CircleSize:4
OverallDifficulty:5
ApproachRate:5
SliderMultiplier:1.4
SliderTickRate:1

[Events]
//Background and Video events
0,0,"Weekly_Shounen_Bye_Bye.jpg",0,0
//Break Periods
//Storyboard Layer 0 (Background)
//Storyboard Layer 1 (Fail)
//Storyboard Layer 2 (Pass)
//Storyboard Layer 3 (Foreground)
//Storyboard Sound Samples

[TimingPoints]
6312.92533974245,357.142857142857,4,3,0,100,1,0

[HitObjects]
448,192,3455,128,0,4705:0:0:0:0:
64,192,3455,128,0,4705:0:0:0:0:
192,192,4705,1,0,0:0:0:0:
320,192,4884,1,0,0:0:0:0:
192,192,5241,1,0,0:0:0:0:
320,192,5420,1,0,0:0:0:0:
448,192,5598,1,0,0:0:0:0:
320,192,6045,1,0,0:0:0:0:
448,192,6134,1,0,0:0:0:0:
64,192,6312,1,0,0:0:0:0:
192,192,6312,1,0,0:0:0:0:
448,192,6491,1,0,0:0:0:0:
192,192,6670,1,0,0:0:0:0:
320,192,6848,1,0,0:0:0:0:
64,192,7027,1,0,0:0:0:0:
320,192,7205,1,0,0:0:0:0:
192,192,7295,1,0,0:0:0:0:
320,192,7562,1,0,0:0:0:0:
64,192,7741,1,0,0:0:0:0:
448,192,7920,1,0,0:0:0:0:
320,192,8098,1,0,0:0:0:0:
448,192,8277,1,0,0:0:0:0:
64,192,8455,1,0,0:0:0:0:
192,192,8455,1,0,0:0:0:0:
64,192,8723,1,0,0:0:0:0:
320,192,8723,1,0,0:0:0:0:
64,192,8991,1,0,0:0:0:0:
448,192,8991,1,0,0:0:0:0:
192,192,9170,1,0,0:0:0:0:
320,192,9170,1,0,0:0:0:0:
448,192,9348,1,0,0:0:0:0:
64,192,9437,1,0,0:0:0:0:
192,192,9705,1,0,0:0:0:0:
64,192,9884,1,0,0:0:0:0:
448,192,10062,1,0,0:0:0:0:
320,192,10152,1,0,0:0:0:0:
64,192,10420,1,0,0:0:0:0:
192,192,10598,128,0,10955:0:0:0:0:
64,192,10955,1,0,0:0:0:0:
320,192,11134,1,0,0:0:0:0:
192,192,11312,1,0,0:0:0:0:
64,192,11312,1,0,0:0:0:0:
320,192,11402,1,0,0:0:0:0:
448,192,11402,1,0,0:0:0:0:
64,192,11580,128,0,11848:0:0:0:0:
192,192,11580,128,0,11848:0:0:0:0:
448,192,11848,1,0,0:0:0:0:
320,192,12027,1,0,0:0:0:0:
448,192,12205,1,0,0:0:0:0:
192,192,12384,1,0,0:0:0:0:
320,192,12562,1,0,0:0:0:0:
64,192,12741,1,0,0:0:0:0:
448,192,12920,1,0,0:0:0:0:
320,192,13009,1,0,0:0:0:0:
192,192,13277,1,0,0:0:0:0:
64,192,13455,1,0,0:0:0:0:
320,192,13455,1,0,0:0:0:0:
64,192,13634,1,0,0:0:0:0:
320,192,13634,1,0,0:0:0:0:
192,192,13902,1,0,0:0:0:0:
320,192,13991,1,0,0:0:0:0:
64,192,14170,1,0,0:0:0:0:
448,192,14259,128,0,14884:0:0:0:0:
64,192,14884,128,0,15241:0:0:0:0:
192,192,14884,128,0,15241:0:0:0:0:
320,192,15241,1,0,0:0:0:0:
64,192,15598,128,0,15955:0:0:0:0:
192,192,15598,128,0,15955:0:0:0:0:
320,192,15955,1,0,0:0:0:0:
448,192,15955,1,0,0:0:0:0:
64,192,16312,128,0,16670:0:0:0:0:
192,192,16312,128,0,16670:0:0:0:0:
448,192,16670,1,0,0:0:0:0:
320,192,17116,1,0,0:0:0:0:
192,192,17205,1,0,0:0:0:0:
320,192,17295,1,0,0:0:0:0:
192,192,17384,1,0,0:0:0:0:
192,192,17741,128,0,18098:0:0:0:0:
320,192,17741,128,0,18098:0:0:0:0:
64,192,18098,1,0,0:0:0:0:
64,192,18455,1,0,0:0:0:0:
64,192,18812,1,0,0:0:0:0:
192,192,18902,1,0,0:0:0:0:
64,192,18991,1,0,0:0:0:0:
192,192,19170,128,0,19527:0:0:0:0:
320,192,19170,128,0,19527:0:0:0:0:
64,192,19527,1,0,0:0:0:0:
192,192,19884,128,0,20152:0:0:0:0:
320,192,19884,128,0,20152:0:0:0:0:
448,192,20152,128,0,20420:0:0:0:0:
320,192,20420,128,0,20598:0:0:0:0:
64,192,20598,128,0,20955:0:0:0:0:
192,192,20598,128,0,20955:0:0:0:0:
448,192,20955,1,0,0:0:0:0:
320,192,21045,1,0,0:0:0:0:
64,192,21312,1,0,0:0:0:0:
64,192,21580,1,0,0:0:0:0:
64,192,21759,1,0,0:0:0:0:
192,192,22027,128,0,22741:0:0:0:0:
320,192,22027,128,0,22741:0:0:0:0:
64,192,22741,1,0,0:0:0:0:
448,192,22830,1,0,0:0:0:0:
64,192,23009,1,0,0:0:0:0:
320,192,23009,1,0,0:0:0:0:
448,192,23277,1,0,0:0:0:0:
64,192,23455,1,0,0:0:0:0:
192,192,23455,1,0,0:0:0:0:
320,192,23634,1,0,0:0:0:0:
64,192,23812,1,0,0:0:0:0:
448,192,23991,1,0,0:0:0:0:
64,192,24170,1,0,0:0:0:0:
448,192,24348,1,0,0:0:0:0:
64,192,24616,1,0,0:0:0:0:
320,192,24705,1,0,0:0:0:0:
64,192,24884,1,0,0:0:0:0:
192,192,24884,1,0,0:0:0:0:
320,192,25062,1,0,0:0:0:0:
192,192,25241,1,0,0:0:0:0:
320,192,25330,1,0,0:0:0:0:
448,192,25420,1,0,0:0:0:0:
64,192,25598,128,0,25866:0:0:0:0:
192,192,25598,128,0,25866:0:0:0:0:
448,192,25866,128,0,26134:0:0:0:0:
320,192,26134,128,0,26312:0:0:0:0:
64,192,26312,1,0,0:0:0:0:
192,192,26491,1,0,0:0:0:0:
64,192,26670,1,0,0:0:0:0:
448,192,26848,1,0,0:0:0:0:
64,192,27027,1,0,0:0:0:0:
320,192,27205,1,0,0:0:0:0:
192,192,27295,1,0,0:0:0:0:
64,192,27473,1,0,0:0:0:0:
448,192,27562,1,0,0:0:0:0:
64,192,27741,1,0,0:0:0:0:
64,192,28009,1,0,0:0:0:0:
64,192,28277,1,0,0:0:0:0:
192,192,28455,1,0,0:0:0:0:
320,192,28455,1,0,0:0:0:0:
448,192,28455,1,0,0:0:0:0:
448,192,28812,1,0,0:0:0:0:
320,192,28902,1,0,0:0:0:0:
192,192,29170,1,0,0:0:0:0:
448,192,29170,1,0,0:0:0:0:
64,192,29259,128,0,30598:0:0:0:0:
192,192,30598,1,0,0:0:0:0:
320,192,30598,1,0,0:0:0:0:
192,192,30777,1,0,0:0:0:0:
320,192,30777,1,0,0:0:0:0:
64,192,31045,1,0,0:0:0:0:
448,192,31134,1,0,0:0:0:0:
320,192,31312,128,0,32027:0:0:0:0:
192,192,31312,128,0,32027:0:0:0:0:
448,192,32027,128,0,32741:0:0:0:0:
192,192,32741,1,0,0:0:0:0:
320,192,32830,1,0,0:0:0:0:
192,192,32920,1,0,0:0:0:0:
320,192,33009,1,0,0:0:0:0:
64,192,33277,1,0,0:0:0:0:
192,192,33277,1,0,0:0:0:0:
320,192,33455,1,0,0:0:0:0:
448,192,33455,1,0,0:0:0:0:
192,192,33634,1,0,0:0:0:0:
64,192,33812,1,0,0:0:0:0:
448,192,33991,1,0,0:0:0:0:
320,192,34170,1,0,0:0:0:0:
64,192,34348,1,0,0:0:0:0:
192,192,34437,1,0,0:0:0:0:
320,192,34705,1,0,0:0:0:0:
448,192,34884,1,0,0:0:0:0:
192,192,34884,1,0,0:0:0:0:
64,192,35241,1,0,0:0:0:0:
320,192,35241,1,0,0:0:0:0:
320,192,35598,1,0,0:0:0:0:
448,192,35598,1,0,0:0:0:0:
320,192,35866,1,0,0:0:0:0:
448,192,35866,1,0,0:0:0:0:
320,192,36134,1,0,0:0:0:0:
448,192,36134,1,0,0:0:0:0:
64,192,36312,1,0,0:0:0:0:
320,192,36491,1,0,0:0:0:0:
192,192,36670,1,0,0:0:0:0:
448,192,36848,1,0,0:0:0:0:
64,192,37027,1,0,0:0:0:0:
192,192,37205,1,0,0:0:0:0:
320,192,37295,1,0,0:0:0:0:
448,192,37562,1,0,0:0:0:0:
320,192,37741,128,0,38455:0:0:0:0:
64,192,37741,1,0,0:0:0:0:
192,192,38455,128,0,38812:0:0:0:0:
64,192,38902,1,0,0:0:0:0:
192,192,38991,1,0,0:0:0:0:
320,192,39170,1,0,0:0:0:0:
448,192,39170,1,0,0:0:0:0:
64,192,39259,1,0,0:0:0:0:
192,192,39259,1,0,0:0:0:0:
192,192,39884,1,0,0:0:0:0:
320,192,39884,1,0,0:0:0:0:
192,192,40152,1,0,0:0:0:0:
320,192,40152,1,0,0:0:0:0:
192,192,40420,1,0,0:0:0:0:
320,192,40420,1,0,0:0:0:0:
64,192,40598,1,0,0:0:0:0:
448,192,40598,1,0,0:0:0:0:
192,192,40687,1,0,0:0:0:0:
320,192,40687,1,0,0:0:0:0:
320,192,41312,1,0,0:0:0:0:
448,192,41402,128,0,41848:0:0:0:0:
320,192,41848,1,0,0:0:0:0:
192,192,41937,1,0,0:0:0:0:
64,192,42027,1,0,0:0:0:0:
320,192,42384,1,0,0:0:0:0:
192,192,42562,1,0,0:0:0:0:
64,192,42741,1,0,0:0:0:0:
448,192,43098,1,0,0:0:0:0:
192,192,43455,1,0,0:0:0:0:
320,192,43812,1,0,0:0:0:0:
192,192,43991,1,0,0:0:0:0:
64,192,44170,1,0,0:0:0:0:
448,192,44348,1,0,0:0:0:0:
320,192,44527,1,0,0:0:0:0:
192,192,44705,1,0,0:0:0:0:
448,192,44884,128,0,45241:0:0:0:0:
64,192,44884,1,0,0:0:0:0:
64,192,45420,128,0,45777:0:0:0:0:
320,192,45420,1,0,0:0:0:0:
192,192,45955,128,0,46312:0:0:0:0:
448,192,45955,1,0,0:0:0:0:
64,192,46312,1,0,0:0:0:0:
320,192,46312,1,0,0:0:0:0:
64,192,46491,1,0,0:0:0:0:
320,192,46491,1,0,0:0:0:0:
192,192,46848,1,0,0:0:0:0:
448,192,46848,1,0,0:0:0:0:
192,192,47027,1,0,0:0:0:0:
448,192,47027,1,0,0:0:0:0:
320,192,47741,1,0,0:0:0:0:
448,192,47741,1,0,0:0:0:0:
64,192,47920,1,0,0:0:0:0:
320,192,48098,1,0,0:0:0:0:
192,192,48187,1,0,0:0:0:0:
64,192,48277,1,0,0:0:0:0:
448,192,48366,1,0,0:0:0:0:
320,192,48634,1,0,0:0:0:0:
192,192,48812,1,0,0:0:0:0:
64,192,48902,1,0,0:0:0:0:
192,192,48991,1,0,0:0:0:0:
64,192,49170,1,0,0:0:0:0:
448,192,49348,1,0,0:0:0:0:
192,192,49527,1,0,0:0:0:0:
448,192,49705,1,0,0:0:0:0:
320,192,49795,1,0,0:0:0:0:
320,192,50062,1,0,0:0:0:0:
64,192,50241,1,0,0:0:0:0:
448,192,50420,1,0,0:0:0:0:
192,192,50598,1,0,0:0:0:0:
320,192,50777,1,0,0:0:0:0:
64,192,50955,1,0,0:0:0:0:
192,192,51134,1,0,0:0:0:0:
64,192,51312,1,0,0:0:0:0:
448,192,51491,1,0,0:0:0:0:
320,192,51580,1,0,0:0:0:0:
320,192,51848,1,0,0:0:0:0:
64,192,52027,1,0,0:0:0:0:
448,192,52205,1,0,0:0:0:0:
320,192,52384,1,0,0:0:0:0:
192,192,52473,1,0,0:0:0:0:
320,192,52562,1,0,0:0:0:0:
64,192,52741,1,0,0:0:0:0:
192,192,53098,1,0,0:0:0:0:
320,192,53187,1,0,0:0:0:0:
192,192,53277,1,0,0:0:0:0:
320,192,53366,1,0,0:0:0:0:
448,192,53455,1,0,0:0:0:0:
64,192,53455,1,0,0:0:0:0:
192,192,53634,1,0,0:0:0:0:
64,192,53812,1,0,0:0:0:0:
448,192,53902,1,0,0:0:0:0:
320,192,53991,1,0,0:0:0:0:
192,192,54080,1,0,0:0:0:0:
320,192,54348,1,0,0:0:0:0:
192,192,54527,1,0,0:0:0:0:
64,192,54616,1,0,0:0:0:0:
448,192,54705,1,0,0:0:0:0:
192,192,54884,1,0,0:0:0:0:
320,192,55062,1,0,0:0:0:0:
192,192,55241,1,0,0:0:0:0:
448,192,55420,1,0,0:0:0:0:
320,192,55509,1,0,0:0:0:0:
448,192,55777,1,0,0:0:0:0:
64,192,55955,1,0,0:0:0:0:
448,192,56134,1,0,0:0:0:0:
192,192,56312,1,0,0:0:0:0:
320,192,56491,1,0,0:0:0:0:
192,192,56670,1,0,0:0:0:0:
448,192,56848,1,0,0:0:0:0:
192,192,57027,1,0,0:0:0:0:
320,192,57205,1,0,0:0:0:0:
64,192,57295,1,0,0:0:0:0:
448,192,57562,1,0,0:0:0:0:
64,192,57741,1,0,0:0:0:0:
448,192,57920,1,0,0:0:0:0:
320,192,58098,1,0,0:0:0:0:
64,192,58277,1,0,0:0:0:0:
192,192,58455,1,0,0:0:0:0:
320,192,58455,1,0,0:0:0:0:
192,192,58723,1,0,0:0:0:0:
320,192,58723,1,0,0:0:0:0:
192,192,58991,1,0,0:0:0:0:
320,192,58991,1,0,0:0:0:0:
64,192,59170,128,0,59705:0:0:0:0:
448,192,59705,1,0,0:0:0:0:
320,192,59884,1,0,0:0:0:0:
192,192,60241,128,0,60687:0:0:0:0:
192,192,60777,128,0,61134:0:0:0:0:
320,192,61134,1,0,0:0:0:0:
64,192,61312,1,0,0:0:0:0:
448,192,61491,1,0,0:0:0:0:
448,192,61670,1,0,0:0:0:0:
64,192,62027,128,0,62562:0:0:0:0:
320,192,62562,1,0,0:0:0:0:
192,192,62741,1,0,0:0:0:0:
64,192,63098,128,0,63455:0:0:0:0:
320,192,63634,1,0,0:0:0:0:
320,192,63812,1,0,0:0:0:0:
192,192,63902,1,0,0:0:0:0:
320,192,64080,1,0,0:0:0:0:
320,192,64259,1,0,0:0:0:0:
448,192,64437,1,0,0:0:0:0:
320,192,64527,1,0,0:0:0:0:
448,192,64705,1,0,0:0:0:0:
320,192,64884,128,0,65062:0:0:0:0:
192,192,64884,128,0,65062:0:0:0:0:
64,192,64884,128,0,65062:0:0:0:0:
192,192,66045,1,0,0:0:0:0:
64,192,66134,1,0,0:0:0:0:
320,192,66312,128,0,66670:0:0:0:0:
192,192,66312,128,0,66670:0:0:0:0:
448,192,66312,128,0,66670:0:0:0:0:
64,192,66848,128,0,67295:0:0:0:0:
320,192,67295,128,0,67562:0:0:0:0:
448,192,67562,128,0,67741:0:0:0:0:
192,192,67741,128,0,68098:0:0:0:0:
64,192,67741,128,0,68098:0:0:0:0:
192,192,68634,1,0,0:0:0:0:
320,192,68723,1,0,0:0:0:0:
320,192,68991,1,0,0:0:0:0:
192,192,69170,128,0,69884:0:0:0:0:
448,192,69170,128,0,69884:0:0:0:0:
64,192,69884,1,0,0:0:0:0:
320,192,69973,1,0,0:0:0:0:
192,192,70152,1,0,0:0:0:0:
448,192,70241,1,0,0:0:0:0:
64,192,70420,1,0,0:0:0:0:
64,192,70598,1,0,0:0:0:0:
192,192,70866,1,0,0:0:0:0:
320,192,70955,1,0,0:0:0:0:
64,192,71134,1,0,0:0:0:0:
320,192,71402,1,0,0:0:0:0:
448,192,71491,1,0,0:0:0:0:
64,192,71670,1,0,0:0:0:0:
192,192,71848,1,0,0:0:0:0:
64,192,72027,1,0,0:0:0:0:
320,192,72384,1,0,0:0:0:0:
192,192,72562,1,0,0:0:0:0:
448,192,72920,1,0,0:0:0:0:
64,192,73098,1,0,0:0:0:0:
448,192,73277,1,0,0:0:0:0:
192,192,73455,1,0,0:0:0:0:
320,192,73812,1,0,0:0:0:0:
64,192,73991,1,0,0:0:0:0:
320,192,74348,1,0,0:0:0:0:
192,192,74527,1,0,0:0:0:0:
448,192,74705,1,0,0:0:0:0:
448,192,74884,1,0,0:0:0:0:
192,192,75777,1,0,0:0:0:0:
320,192,75777,1,0,0:0:0:0:
192,192,75955,1,0,0:0:0:0:
320,192,75955,1,0,0:0:0:0:
320,192,76134,1,0,0:0:0:0:
192,192,76134,1,0,0:0:0:0:
64,192,76312,1,0,0:0:0:0:
320,192,76402,1,0,0:0:0:0:
192,192,76402,1,0,0:0:0:0:
448,192,77027,1,0,0:0:0:0:
64,192,77027,1,0,0:0:0:0:
448,192,77295,1,0,0:0:0:0:
64,192,77295,1,0,0:0:0:0:
64,192,77562,1,0,0:0:0:0:
448,192,77562,1,0,0:0:0:0:
320,192,77741,1,0,0:0:0:0:
448,192,77830,1,0,0:0:0:0:
64,192,77830,1,0,0:0:0:0:
320,192,78098,128,0,79170:0:0:0:0:
64,192,78812,128,0,79170:0:0:0:0:
192,192,79170,1,0,0:0:0:0:
448,192,79527,1,0,0:0:0:0:
320,192,79705,1,0,0:0:0:0:
192,192,79884,1,0,0:0:0:0:
320,192,80241,1,0,0:0:0:0:
64,192,80598,1,0,0:0:0:0:
448,192,80955,1,0,0:0:0:0:
320,192,81134,1,0,0:0:0:0:
192,192,81312,1,0,0:0:0:0:
448,192,81491,1,0,0:0:0:0:
64,192,81848,1,0,0:0:0:0:
64,192,82027,1,0,0:0:0:0:
448,192,82027,128,0,82384:0:0:0:0:
192,192,82384,1,0,0:0:0:0:
320,192,82562,1,0,0:0:0:0:
64,192,82562,128,0,82920:0:0:0:0:
192,192,83098,128,0,83455:0:0:0:0:
320,192,83098,1,0,0:0:0:0:
64,192,83455,1,0,0:0:0:0:
448,192,83455,1,0,0:0:0:0:
64,192,83634,1,0,0:0:0:0:
448,192,83634,1,0,0:0:0:0:
64,192,83991,1,0,0:0:0:0:
448,192,83991,1,0,0:0:0:0:
64,192,84170,1,0,0:0:0:0:
448,192,84170,1,0,0:0:0:0:
64,192,84884,128,0,85241:0:0:0:0:
192,192,84884,128,0,85241:0:0:0:0:
320,192,84884,128,0,85241:0:0:0:0:
320,192,85509,1,0,0:0:0:0:
448,192,85598,1,0,0:0:0:0:
64,192,85777,1,0,0:0:0:0:
192,192,85955,1,0,0:0:0:0:
320,192,86045,1,0,0:0:0:0:
64,192,86312,1,0,0:0:0:0:
448,192,86491,1,0,0:0:0:0:
192,192,86670,1,0,0:0:0:0:
448,192,86848,1,0,0:0:0:0:
320,192,86937,1,0,0:0:0:0:
320,192,87205,1,0,0:0:0:0:
64,192,87384,1,0,0:0:0:0:
448,192,87562,1,0,0:0:0:0:
192,192,87741,1,0,0:0:0:0:
448,192,87920,1,0,0:0:0:0:
64,192,88098,1,0,0:0:0:0:
320,192,88277,1,0,0:0:0:0:
64,192,88455,1,0,0:0:0:0:
320,192,88634,1,0,0:0:0:0:
192,192,88723,1,0,0:0:0:0:
448,192,88991,1,0,0:0:0:0:
64,192,89170,1,0,0:0:0:0:
192,192,89348,1,0,0:0:0:0:
448,192,89527,1,0,0:0:0:0:
320,192,89616,1,0,0:0:0:0:
192,192,89705,1,0,0:0:0:0:
64,192,89884,1,0,0:0:0:0:
64,192,90241,1,0,0:0:0:0:
448,192,90330,1,0,0:0:0:0:
64,192,90420,1,0,0:0:0:0:
448,192,90509,1,0,0:0:0:0:
320,192,90598,1,0,0:0:0:0:
192,192,90598,1,0,0:0:0:0:
64,192,90777,1,0,0:0:0:0:
448,192,90955,1,0,0:0:0:0:
320,192,91045,1,0,0:0:0:0:
192,192,91134,1,0,0:0:0:0:
64,192,91223,1,0,0:0:0:0:
320,192,91491,1,0,0:0:0:0:
192,192,91670,1,0,0:0:0:0:
64,192,91759,1,0,0:0:0:0:
448,192,91848,1,0,0:0:0:0:
192,192,92027,1,0,0:0:0:0:
448,192,92205,1,0,0:0:0:0:
192,192,92384,1,0,0:0:0:0:
320,192,92562,1,0,0:0:0:0:
64,192,92652,1,0,0:0:0:0:
448,192,92920,1,0,0:0:0:0:
192,192,93098,1,0,0:0:0:0:
448,192,93277,1,0,0:0:0:0:
64,192,93455,1,0,0:0:0:0:
320,192,93634,1,0,0:0:0:0:
64,192,93812,1,0,0:0:0:0:
448,192,93991,1,0,0:0:0:0:
192,192,94170,1,0,0:0:0:0:
448,192,94348,1,0,0:0:0:0:
64,192,94437,1,0,0:0:0:0:
320,192,94705,1,0,0:0:0:0:
448,192,94884,1,0,0:0:0:0:
192,192,95062,1,0,0:0:0:0:
448,192,95241,1,0,0:0:0:0:
64,192,95420,1,0,0:0:0:0:
192,192,95598,1,0,0:0:0:0:
320,192,95598,1,0,0:0:0:0:
320,192,95866,1,0,0:0:0:0:
192,192,95866,1,0,0:0:0:0:
320,192,96134,1,0,0:0:0:0:
192,192,96134,1,0,0:0:0:0:
448,192,96312,1,0,0:0:0:0:
64,192,96491,1,0,0:0:0:0:
448,192,96580,1,0,0:0:0:0:
320,192,96670,1,0,0:0:0:0:
192,192,96848,128,0,97205:0:0:0:0:
64,192,97384,1,0,0:0:0:0:
320,192,97562,1,0,0:0:0:0:
448,192,97741,1,0,0:0:0:0:
320,192,97920,1,0,0:0:0:0:
448,192,98277,1,0,0:0:0:0:
192,192,98277,1,0,0:0:0:0:
320,192,98455,1,0,0:0:0:0:
64,192,98455,128,0,99884:0:0:0:0:
448,192,98812,128,0,99170:0:0:0:0:
320,192,99170,1,0,0:0:0:0:
192,192,99259,1,0,0:0:0:0:
448,192,99437,1,0,0:0:0:0:
320,192,99527,128,0,99884:0:0:0:0:
448,192,99884,1,0,0:0:0:0:
192,192,99884,1,0,0:0:0:0:
320,192,100062,1,0,0:0:0:0:
192,192,100152,1,0,0:0:0:0:
64,192,100241,1,0,0:0:0:0:
320,192,100420,128,0,100598:0:0:0:0:
192,192,100777,1,0,0:0:0:0:
448,192,100866,1,0,0:0:0:0:
320,192,101134,1,0,0:0:0:0:
320,192,101312,1,0,0:0:0:0:
64,192,101312,1,0,0:0:0:0:
64,192,101580,1,0,0:0:0:0:
448,192,101670,1,0,0:0:0:0:
192,192,101670,1,0,0:0:0:0:
64,192,101848,1,0,0:0:0:0:
192,192,102027,1,0,0:0:0:0:
320,192,102027,1,0,0:0:0:0:
448,192,102384,128,0,102741:0:0:0:0:
64,192,102741,1,0,0:0:0:0:
320,192,102741,1,0,0:0:0:0:
64,192,102920,1,0,0:0:0:0:
320,192,102920,1,0,0:0:0:0:
448,192,103098,128,0,103455:0:0:0:0:
320,192,103455,1,0,0:0:0:0:
64,192,103634,1,0,0:0:0:0:
64,192,103812,1,0,0:0:0:0:
192,192,103991,128,0,104527:0:0:0:0:
448,192,104527,128,0,104884:0:0:0:0:
64,192,104884,128,0,105062:0:0:0:0:
320,192,105062,128,0,105420:0:0:0:0:
192,192,105420,1,0,0:0:0:0:
192,192,105598,1,0,0:0:0:0:
64,192,105777,1,0,0:0:0:0:
192,192,105955,1,0,0:0:0:0:
64,192,106134,1,0,0:0:0:0:
320,192,106312,1,0,0:0:0:0:
192,192,106491,1,0,0:0:0:0:
448,192,106670,1,0,0:0:0:0:
320,192,106848,1,0,0:0:0:0:
448,192,107027,1,0,0:0:0:0:
64,192,107027,1,0,0:0:0:0:
320,192,107205,1,0,0:0:0:0:
320,192,107384,1,0,0:0:0:0:
64,192,107562,1,0,0:0:0:0:
192,192,107741,1,0,0:0:0:0:
320,192,107920,1,0,0:0:0:0:
448,192,108009,1,0,0:0:0:0:
320,192,108098,1,0,0:0:0:0:
192,192,108277,1,0,0:0:0:0:
192,192,108455,1,0,0:0:0:0:
320,192,108634,1,0,0:0:0:0:
320,192,108812,1,0,0:0:0:0:
448,192,108902,1,0,0:0:0:0:
320,192,109080,1,0,0:0:0:0:
192,192,109170,1,0,0:0:0:0:
64,192,109170,128,0,110241:0:0:0:0:
448,192,109437,1,0,0:0:0:0:
192,192,109616,1,0,0:0:0:0:
448,192,109705,1,0,0:0:0:0:
320,192,109973,1,0,0:0:0:0:
192,192,110062,1,0,0:0:0:0:
320,192,110241,128,0,110598:0:0:0:0:
448,192,110241,128,0,110598:0:0:0:0:
192,192,110598,128,0,110777:0:0:0:0:
64,192,110598,128,0,110777:0:0:0:0:
320,192,111312,1,0,0:0:0:0:
448,192,111491,1,0,0:0:0:0:
448,192,111670,1,0,0:0:0:0:
320,192,111848,1,0,0:0:0:0:
64,192,112027,1,0,0:0:0:0:
192,192,112295,1,0,0:0:0:0:
320,192,112562,1,0,0:0:0:0:
448,192,112741,1,0,0:0:0:0:
448,192,113098,1,0,0:0:0:0:
192,192,113277,1,0,0:0:0:0:
320,192,113455,128,0,113991:0:0:0:0:
192,192,113991,1,0,0:0:0:0:
64,192,114170,1,0,0:0:0:0:
448,192,114348,1,0,0:0:0:0:
320,192,114527,128,0,115062:0:0:0:0:
320,192,115598,1,0,0:0:0:0:
192,192,115777,1,0,0:0:0:0:
320,192,115955,1,0,0:0:0:0:
448,192,116134,1,0,0:0:0:0:
320,192,116312,1,0,0:0:0:0:
192,192,116670,1,0,0:0:0:0:
64,192,116848,1,0,0:0:0:0:
192,192,117027,128,0,117384:0:0:0:0:
320,192,117384,128,0,117741:0:0:0:0:
192,192,117741,128,0,118098:0:0:0:0:
448,192,118277,1,0,0:0:0:0:
320,192,118455,1,0,0:0:0:0:
192,192,118634,1,0,0:0:0:0:
64,192,118812,128,0,119527:0:0:0:0:
192,192,119170,128,0,119884:0:0:0:0:
64,192,119884,1,0,0:0:0:0:
448,192,120062,1,0,0:0:0:0:
320,192,120152,1,0,0:0:0:0:
192,192,120241,1,0,0:0:0:0:
64,192,120420,1,0,0:0:0:0:
320,192,120598,1,0,0:0:0:0:
192,192,120777,1,0,0:0:0:0:
448,192,120866,1,0,0:0:0:0:
192,192,120955,1,0,0:0:0:0:
320,192,121134,1,0,0:0:0:0:
320,192,121312,1,0,0:0:0:0:
64,192,121491,1,0,0:0:0:0:
448,192,121670,128,0,121848:0:0:0:0:
192,192,121848,1,0,0:0:0:0:
192,192,122027,1,0,0:0:0:0:
64,192,122205,1,0,0:0:0:0:
192,192,122295,1,0,0:0:0:0:
320,192,122384,1,0,0:0:0:0:
64,192,122562,1,0,0:0:0:0:
448,192,122741,1,0,0:0:0:0:
192,192,122920,1,0,0:0:0:0:
320,192,123009,1,0,0:0:0:0:
192,192,123098,1,0,0:0:0:0:
448,192,123277,1,0,0:0:0:0:
448,192,123455,1,0,0:0:0:0:
64,192,123634,1,0,0:0:0:0:
320,192,123812,1,0,0:0:0:0:
192,192,123902,1,0,0:0:0:0:
320,192,124080,1,0,0:0:0:0:
192,192,124170,1,0,0:0:0:0:
448,192,124348,1,0,0:0:0:0:
320,192,124437,1,0,0:0:0:0:
192,192,124527,1,0,0:0:0:0:
64,192,124705,1,0,0:0:0:0:
448,192,124884,1,0,0:0:0:0:
320,192,125062,1,0,0:0:0:0:
192,192,125152,1,0,0:0:0:0:
64,192,125241,1,0,0:0:0:0:
448,192,125420,1,0,0:0:0:0:
448,192,125598,1,0,0:0:0:0:
320,192,125777,1,0,0:0:0:0:
64,192,125955,128,0,126134:0:0:0:0:
192,192,126134,1,0,0:0:0:0:
320,192,126223,1,0,0:0:0:0:
448,192,126312,1,0,0:0:0:0:
320,192,127384,1,0,0:0:0:0:
192,192,127384,1,0,0:0:0:0:
448,192,128812,128,0,129170:0:0:0:0:
64,192,129170,1,0,0:0:0:0:
320,192,129348,1,0,0:0:0:0:
192,192,129527,1,0,0:0:0:0:
448,192,129705,1,0,0:0:0:0:
64,192,129884,1,0,0:0:0:0:
320,192,130062,1,0,0:0:0:0:
192,192,130152,1,0,0:0:0:0:
448,192,130420,1,0,0:0:0:0:
64,192,130598,1,0,0:0:0:0:
448,192,130777,1,0,0:0:0:0:
192,192,130955,1,0,0:0:0:0:
448,192,131134,1,0,0:0:0:0:
320,192,131312,1,0,0:0:0:0:
192,192,131312,1,0,0:0:0:0:
64,192,131580,1,0,0:0:0:0:
320,192,131580,1,0,0:0:0:0:
64,192,131848,1,0,0:0:0:0:
192,192,131848,1,0,0:0:0:0:
320,192,132027,1,0,0:0:0:0:
448,192,132205,1,0,0:0:0:0:
192,192,132384,1,0,0:0:0:0:
320,192,132562,1,0,0:0:0:0:
64,192,132741,1,0,0:0:0:0:
320,192,132920,1,0,0:0:0:0:
192,192,133009,1,0,0:0:0:0:
320,192,133277,1,0,0:0:0:0:
64,192,133455,128,0,133812:0:0:0:0:
320,192,133812,1,0,0:0:0:0:
192,192,133991,1,0,0:0:0:0:
448,192,134170,1,0,0:0:0:0:
320,192,134170,1,0,0:0:0:0:
192,192,134259,1,0,0:0:0:0:
64,192,134259,1,0,0:0:0:0:
320,192,134437,128,0,134705:0:0:0:0:
448,192,134437,128,0,134705:0:0:0:0:
192,192,134705,1,0,0:0:0:0:
64,192,134884,1,0,0:0:0:0:
448,192,135062,1,0,0:0:0:0:
192,192,135241,1,0,0:0:0:0:
320,192,135420,1,0,0:0:0:0:
64,192,135598,1,0,0:0:0:0:
448,192,135777,1,0,0:0:0:0:
192,192,135866,1,0,0:0:0:0:
320,192,136134,1,0,0:0:0:0:
64,192,136312,1,0,0:0:0:0:
448,192,136312,1,0,0:0:0:0:
64,192,136491,1,0,0:0:0:0:
448,192,136491,1,0,0:0:0:0:
192,192,136759,1,0,0:0:0:0:
320,192,136848,1,0,0:0:0:0:
64,192,137027,1,0,0:0:0:0:
448,192,137116,1,0,0:0:0:0:
192,192,137295,1,0,0:0:0:0:
192,192,137473,1,0,0:0:0:0:
320,192,137562,1,0,0:0:0:0:
448,192,137741,128,0,138098:0:0:0:0:
64,192,137741,128,0,138098:0:0:0:0:
448,192,138277,128,0,138634:0:0:0:0:
64,192,138277,128,0,138634:0:0:0:0:
448,192,138812,128,0,138991:0:0:0:0:
64,192,138812,128,0,138991:0:0:0:0:
192,192,138991,128,0,139348:0:0:0:0:
320,192,138991,128,0,139348:0:0:0:0:
64,192,141670,1,0,0:0:0:0:
192,192,141670,1,0,0:0:0:0:
320,192,142027,128,0,142741:0:0:0:0:
448,192,142027,128,0,142741:0:0:0:0:
64,192,142741,128,0,143455:0:0:0:0:
192,192,142741,128,0,143455:0:0:0:0:
448,192,143455,128,0,143812:0:0:0:0:
320,192,143812,128,0,144170:0:0:0:0:
64,192,144170,1,0,0:0:0:0:
448,192,144348,1,0,0:0:0:0:
192,192,144437,1,0,0:0:0:0:
64,192,144616,1,0,0:0:0:0:
320,192,144705,1,0,0:0:0:0:
448,192,144884,1,0,0:0:0:0:
64,192,144884,128,0,145241:0:0:0:0:
192,192,145241,1,0,0:0:0:0:
448,192,145420,128,0,145777:0:0:0:0:
320,192,145420,1,0,0:0:0:0:
64,192,145777,1,0,0:0:0:0:
320,192,145955,1,0,0:0:0:0:
192,192,145955,128,0,146312:0:0:0:0:
448,192,146312,1,0,0:0:0:0:
64,192,146312,1,0,0:0:0:0:
64,192,146491,1,0,0:0:0:0:
448,192,146491,1,0,0:0:0:0:
64,192,146848,1,0,0:0:0:0:
448,192,146848,1,0,0:0:0:0:
64,192,147027,1,0,0:0:0:0:
448,192,147027,1,0,0:0:0:0:
192,192,147741,1,0,0:0:0:0:
320,192,147741,1,0,0:0:0:0:
192,192,147920,1,0,0:0:0:0:
320,192,147920,1,0,0:0:0:0:
192,192,148277,1,0,0:0:0:0:
320,192,148277,1,0,0:0:0:0:
320,192,148455,1,0,0:0:0:0:
192,192,148455,128,0,149170:0:0:0:0:
320,192,149170,1,0,0:0:0:0:
448,192,149259,1,0,0:0:0:0:
64,192,149437,1,0,0:0:0:0:
320,192,149616,1,0,0:0:0:0:
192,192,149705,1,0,0:0:0:0:
64,192,149884,1,0,0:0:0:0:
192,192,149973,1,0,0:0:0:0:
320,192,150062,1,0,0:0:0:0:
64,192,150241,1,0,0:0:0:0:
448,192,150420,1,0,0:0:0:0:
64,192,150598,1,0,0:0:0:0:
192,192,150687,1,0,0:0:0:0:
320,192,150777,1,0,0:0:0:0:
448,192,150866,1,0,0:0:0:0:
64,192,150955,1,0,0:0:0:0:
192,192,151045,1,0,0:0:0:0:
320,192,151134,1,0,0:0:0:0:
448,192,151223,1,0,0:0:0:0:
64,192,151312,1,0,0:0:0:0:
192,192,151312,1,0,0:0:0:0:
192,192,153098,1,0,0:0:0:0:
320,192,153098,1,0,0:0:0:0:
64,192,153455,1,0,0:0:0:0:
448,192,153723,1,0,0:0:0:0:
320,192,153991,1,0,0:0:0:0:
192,192,154170,128,0,154527:0:0:0:0:
64,192,154170,128,0,154527:0:0:0:0:
320,192,154884,1,0,0:0:0:0:
448,192,154884,1,0,0:0:0:0:
64,192,154973,1,0,0:0:0:0:
192,192,155062,1,0,0:0:0:0:
320,192,155152,1,0,0:0:0:0:
448,192,155241,1,0,0:0:0:0:
64,192,155420,1,0,0:0:0:0:
192,192,155509,1,0,0:0:0:0:
320,192,155598,1,0,0:0:0:0:
448,192,155777,1,0,0:0:0:0:
64,192,155955,1,0,0:0:0:0:
320,192,156134,1,0,0:0:0:0:
64,192,156312,1,0,0:0:0:0:
192,192,156402,1,0,0:0:0:0:
448,192,156580,1,0,0:0:0:0:
320,192,156670,1,0,0:0:0:0:
64,192,156848,1,0,0:0:0:0:
192,192,156937,1,0,0:0:0:0:
320,192,157027,128,0,157295:0:0:0:0:
448,192,157027,128,0,157205:0:0:0:0:
192,192,157741,128,0,157920:0:0:0:0:
64,192,157741,128,0,157920:0:0:0:0:
320,192,158098,1,0,0:0:0:0:
448,192,158187,1,0,0:0:0:0:
192,192,158277,128,0,158634:0:0:0:0:
64,192,158634,1,0,0:0:0:0:
448,192,158812,1,0,0:0:0:0:
320,192,158902,1,0,0:0:0:0:
64,192,159080,1,0,0:0:0:0:
192,192,159170,1,0,0:0:0:0:
448,192,159348,1,0,0:0:0:0:
320,192,159348,1,0,0:0:0:0:
64,192,159527,1,0,0:0:0:0:
448,192,159705,1,0,0:0:0:0:
192,192,159795,1,0,0:0:0:0:
64,192,159884,1,0,0:0:0:0:
448,192,159973,1,0,0:0:0:0:
320,192,160062,1,0,0:0:0:0:
192,192,160152,1,0,0:0:0:0:
64,192,160241,1,0,0:0:0:0:
448,192,160330,1,0,0:0:0:0:
320,192,160420,1,0,0:0:0:0:
192,192,160509,1,0,0:0:0:0:
64,192,160598,1,0,0:0:0:0:
448,192,160777,1,0,0:0:0:0:
192,192,160955,1,0,0:0:0:0:
320,192,161134,1,0,0:0:0:0:
64,192,161312,1,0,0:0:0:0:
448,192,161491,1,0,0:0:0:0:
192,192,161580,1,0,0:0:0:0:
64,192,161759,1,0,0:0:0:0:
320,192,161848,1,0,0:0:0:0:
192,192,162027,1,0,0:0:0:0:
448,192,162205,1,0,0:0:0:0:
320,192,162384,1,0,0:0:0:0:
448,192,162562,1,0,0:0:0:0:
192,192,162741,1,0,0:0:0:0:
64,192,162741,1,0,0:0:0:0:
320,192,163098,1,0,0:0:0:0:
448,192,163098,1,0,0:0:0:0:
192,192,163098,128,0,163455:0:0:0:0:
64,192,163455,1,0,0:0:0:0:
320,192,163455,1,0,0:0:0:0:
320,192,163634,1,0,0:0:0:0:
448,192,163634,1,0,0:0:0:0:
192,192,163812,1,0,0:0:0:0:
448,192,163812,1,0,0:0:0:0:
64,192,163991,1,0,0:0:0:0:
192,192,163991,1,0,0:0:0:0:
64,192,164170,1,0,0:0:0:0:
320,192,164170,1,0,0:0:0:0:
320,192,164348,1,0,0:0:0:0:
448,192,164348,1,0,0:0:0:0:
448,192,164527,1,0,0:0:0:0:
192,192,164527,1,0,0:0:0:0:
192,192,164705,1,0,0:0:0:0:
64,192,164705,1,0,0:0:0:0:
64,192,164884,1,0,0:0:0:0:
320,192,164884,1,0,0:0:0:0:
320,192,165062,1,0,0:0:0:0:
192,192,165062,1,0,0:0:0:0:
192,192,165241,1,0,0:0:0:0:
448,192,165241,1,0,0:0:0:0:
448,192,165420,1,0,0:0:0:0:
64,192,165420,1,0,0:0:0:0:
64,192,165598,1,0,0:0:0:0:
192,192,165598,1,0,0:0:0:0:
192,192,165777,1,0,0:0:0:0:
448,192,165777,1,0,0:0:0:0:
448,192,165955,1,0,0:0:0:0:
320,192,165955,1,0,0:0:0:0:
192,192,166134,1,0,0:0:0:0:
320,192,166223,1,0,0:0:0:0:
64,192,166312,1,0,0:0:0:0:
448,192,166312,1,0,0:0:0:0:
192,192,166491,1,0,0:0:0:0:
64,192,166670,1,0,0:0:0:0:
320,192,166848,1,0,0:0:0:0:
192,192,167027,1,0,0:0:0:0:
448,192,167205,1,0,0:0:0:0:
64,192,167295,1,0,0:0:0:0:
320,192,167562,1,0,0:0:0:0:
64,192,167741,1,0,0:0:0:0:
448,192,167920,1,0,0:0:0:0:
192,192,168098,1,0,0:0:0:0:
320,192,168187,1,0,0:0:0:0:
448,192,168277,1,0,0:0:0:0:
64,192,168455,1,0,0:0:0:0:
192,192,168455,1,0,0:0:0:0:
448,192,168545,1,0,0:0:0:0:
320,192,168634,1,0,0:0:0:0:
192,192,168723,1,0,0:0:0:0:
64,192,168812,1,0,0:0:0:0:
448,192,168902,1,0,0:0:0:0:
320,192,168991,1,0,0:0:0:0:
192,192,169080,1,0,0:0:0:0:
64,192,169170,1,0,0:0:0:0:
64,192,169348,1,0,0:0:0:0:
448,192,169527,1,0,0:0:0:0:
320,192,169527,1,0,0:0:0:0:
320,192,169705,1,0,0:0:0:0:
192,192,169705,1,0,0:0:0:0:
64,192,169884,1,0,0:0:0:0:
192,192,170062,1,0,0:0:0:0:
192,192,170241,1,0,0:0:0:0:
320,192,170241,1,0,0:0:0:0:
64,192,170420,1,0,0:0:0:0:
192,192,170598,1,0,0:0:0:0:
320,192,170777,1,0,0:0:0:0:
192,192,170955,1,0,0:0:0:0:
64,192,170955,1,0,0:0:0:0:
320,192,171134,1,0,0:0:0:0:
448,192,171134,1,0,0:0:0:0:
64,192,171312,1,0,0:0:0:0:
192,192,171491,1,0,0:0:0:0:
320,192,171670,1,0,0:0:0:0:
448,192,171670,1,0,0:0:0:0:
64,192,171759,1,0,0:0:0:0:
192,192,171759,1,0,0:0:0:0:
320,192,172027,1,0,0:0:0:0:
64,192,172205,1,0,0:0:0:0:
192,192,172384,1,0,0:0:0:0:
448,192,172384,1,0,0:0:0:0:
64,192,172562,1,0,0:0:0:0:
320,192,172562,1,0,0:0:0:0:
64,192,172741,1,0,0:0:0:0:
192,192,172741,1,0,0:0:0:0:
320,192,172920,1,0,0:0:0:0:
192,192,173098,1,0,0:0:0:0:
448,192,173098,1,0,0:0:0:0:
320,192,173277,1,0,0:0:0:0:
192,192,173455,1,0,0:0:0:0:
64,192,173634,1,0,0:0:0:0:
192,192,173812,1,0,0:0:0:0:
320,192,173812,1,0,0:0:0:0:
64,192,173991,1,0,0:0:0:0:
448,192,173991,1,0,0:0:0:0:
320,192,174170,1,0,0:0:0:0:
192,192,174348,1,0,0:0:0:0:
64,192,174527,128,0,174884:0:0:0:0:
192,192,174884,1,0,0:0:0:0:
320,192,175062,1,0,0:0:0:0:
192,192,175241,1,0,0:0:0:0:
448,192,175241,1,0,0:0:0:0:
320,192,175420,1,0,0:0:0:0:
64,192,175420,1,0,0:0:0:0:
192,192,175598,1,0,0:0:0:0:
64,192,175777,1,0,0:0:0:0:
320,192,175955,1,0,0:0:0:0:
448,192,175955,1,0,0:0:0:0:
192,192,176134,1,0,0:0:0:0:
64,192,176312,1,0,0:0:0:0:
192,192,176491,1,0,0:0:0:0:
320,192,176670,1,0,0:0:0:0:
448,192,176670,1,0,0:0:0:0:
192,192,176848,1,0,0:0:0:0:
320,192,176848,1,0,0:0:0:0:
64,192,177027,1,0,0:0:0:0:
192,192,177205,1,0,0:0:0:0:
320,192,177384,1,0,0:0:0:0:
192,192,177562,1,0,0:0:0:0:
64,192,178902,1,0,0:0:0:0:
448,192,178991,1,0,0:0:0:0:
192,192,179170,1,0,0:0:0:0:
320,192,179170,1,0,0:0:0:0:
448,192,179348,1,0,0:0:0:0:
64,192,179527,1,0,0:0:0:0:
320,192,179705,1,0,0:0:0:0:
192,192,179884,1,0,0:0:0:0:
320,192,180062,1,0,0:0:0:0:
64,192,180152,1,0,0:0:0:0:
448,192,180420,1,0,0:0:0:0:
64,192,180598,1,0,0:0:0:0:
448,192,180777,1,0,0:0:0:0:
320,192,180955,1,0,0:0:0:0:
448,192,181134,1,0,0:0:0:0:
64,192,181312,1,0,0:0:0:0:
192,192,181312,1,0,0:0:0:0:
192,192,181580,1,0,0:0:0:0:
320,192,181580,1,0,0:0:0:0:
448,192,181848,1,0,0:0:0:0:
192,192,181848,1,0,0:0:0:0:
64,192,182027,1,0,0:0:0:0:
320,192,182027,1,0,0:0:0:0:
448,192,182205,1,0,0:0:0:0:
192,192,182295,1,0,0:0:0:0:
320,192,182562,1,0,0:0:0:0:
64,192,182741,1,0,0:0:0:0:
448,192,182920,1,0,0:0:0:0:
192,192,183009,1,0,0:0:0:0:
64,192,183277,1,0,0:0:0:0:
448,192,183455,1,0,0:0:0:0:
64,192,183545,1,0,0:0:0:0:
320,192,183634,1,0,0:0:0:0:
192,192,183723,1,0,0:0:0:0:
64,192,183812,1,0,0:0:0:0:
320,192,183991,1,0,0:0:0:0:
64,192,184170,1,0,0:0:0:0:
192,192,184170,1,0,0:0:0:0:
448,192,184259,1,0,0:0:0:0:
320,192,184259,1,0,0:0:0:0:
64,192,184437,128,0,184705:0:0:0:0:
192,192,184437,128,0,184705:0:0:0:0:
448,192,184705,1,0,0:0:0:0:
320,192,184884,1,0,0:0:0:0:
448,192,185062,1,0,0:0:0:0:
192,192,185241,1,0,0:0:0:0:
320,192,185420,1,0,0:0:0:0:
64,192,185598,1,0,0:0:0:0:
448,192,185777,1,0,0:0:0:0:
192,192,185866,1,0,0:0:0:0:
320,192,186134,1,0,0:0:0:0:
64,192,186312,1,0,0:0:0:0:
448,192,186312,1,0,0:0:0:0:
64,192,186491,1,0,0:0:0:0:
448,192,186491,1,0,0:0:0:0:
192,192,186670,1,0,0:0:0:0:
320,192,186759,1,0,0:0:0:0:
64,192,186937,1,0,0:0:0:0:
192,192,187116,1,0,0:0:0:0:
320,192,187205,1,0,0:0:0:0:
64,192,187384,1,0,0:0:0:0:
192,192,187473,1,0,0:0:0:0:
320,192,187652,1,0,0:0:0:0:
192,192,187741,1,0,0:0:0:0:
64,192,187830,1,0,0:0:0:0:
448,192,187920,1,0,0:0:0:0:
192,192,188455,1,0,0:0:0:0:
64,192,188545,1,0,0:0:0:0:
448,192,188634,1,0,0:0:0:0:
192,192,188991,1,0,0:0:0:0:
64,192,188991,1,0,0:0:0:0:
64,192,189229,1,0,0:0:0:0:
192,192,189229,1,0,0:0:0:0:
320,192,189348,1,0,0:0:0:0:
448,192,189467,1,0,0:0:0:0:
320,192,189586,1,0,0:0:0:0:
192,192,189646,1,0,0:0:0:0:
64,192,189646,1,0,0:0:0:0:
320,192,189765,1,0,0:0:0:0:
448,192,189943,1,0,0:0:0:0:
192,192,190062,1,0,0:0:0:0:
64,192,190062,1,0,0:0:0:0:
448,192,190181,1,0,0:0:0:0:
320,192,190301,1,0,0:0:0:0:
64,192,190420,1,0,0:0:0:0:
192,192,190420,1,0,0:0:0:0:
320,192,190539,1,0,0:0:0:0:
448,192,190658,1,0,0:0:0:0:
320,192,190777,1,0,0:0:0:0:
64,192,190896,1,0,0:0:0:0:
192,192,190896,1,0,0:0:0:0:
64,192,191134,1,0,0:0:0:0:
192,192,191134,1,0,0:0:0:0:
320,192,191372,1,0,0:0:0:0:
192,192,191372,1,0,0:0:0:0:
448,192,191551,1,0,0:0:0:0:
192,192,191610,1,0,0:0:0:0:
64,192,191670,1,0,0:0:0:0:
320,192,191848,1,0,0:0:0:0:
192,192,191848,1,0,0:0:0:0:
320,192,192086,1,0,0:0:0:0:
192,192,192146,1,0,0:0:0:0:
448,192,192265,1,0,0:0:0:0:
320,192,192473,1,0,0:0:0:0:
64,192,192473,1,0,0:0:0:0:
448,192,192652,1,0,0:0:0:0:
64,192,192741,1,0,0:0:0:0:
320,192,192830,1,0,0:0:0:0:
64,192,193009,1,0,0:0:0:0:
192,192,193009,1,0,0:0:0:0:
