osu file format v14

[General]
AudioFilename: 01. .mp3
AudioLeadIn: 0
PreviewTime: -1
Countdown: 0
SampleSet: None
StackLeniency: 0.7
Mode: 3
LetterboxInBreaks: 0
SpecialStyle: 1
WidescreenStoryboard: 1

[Editor]
DistanceSpacing: 1
BeatDivisor: 6
GridSize: 4
TimelineZoom: 1

[Metadata]
Title:weekly_shonen_bye_bye
TitleUnicode:週刊少年バイバイ
Artist:Pinocchio P
ArtistUnicode:ピノキオP
Creator:therevenant
Version:Hard
Source:exit tunes
Tags:vocaloid
BeatmapID:1044614
BeatmapSetID:488812

[Difficulty]
HPDrainRate:7
CircleSize:4
OverallDifficulty:7
ApproachRate:5
SliderMultiplier:1.4
SliderTickRate:1

[Events]
//Background and Video events
0,0,"Weekly_Shounen_Bye_Bye.jpg",0,0
//Break Periods
//Storyboard Layer 0 (Background)
//Storyboard Layer 1 (Fail)
//Storyboard Layer 2 (Pass)
//Storyboard Layer 3 (Foreground)
//Storyboard Sound Samples

[TimingPoints]
6312.92533974245,357.142857142857,4,3,0,100,1,0

[HitObjects]
192,192,3455,128,0,3812:0:0:0:0:
448,192,3455,1,0,0:0:0:0:
320,192,3545,1,0,0:0:0:0:
64,192,3634,1,0,0:0:0:0:
448,192,3723,1,0,0:0:0:0:
320,192,3812,128,0,4170:0:0:0:0:
64,192,3902,1,0,0:0:0:0:
448,192,3991,1,0,0:0:0:0:
64,192,4080,1,0,0:0:0:0:
192,192,4170,128,0,4705:0:0:0:0:
448,192,4214,1,0,0:0:0:0:
320,192,4348,1,0,0:0:0:0:
64,192,4437,1,0,0:0:0:0:
320,192,4527,1,0,0:0:0:0:
64,192,4616,1,0,0:0:0:0:
320,192,4705,128,0,4884:0:0:0:0:
192,192,4795,1,0,0:0:0:0:
448,192,4884,128,0,5241:0:0:0:0:
64,192,4884,1,0,0:0:0:0:
192,192,4973,1,0,0:0:0:0:
320,192,5062,1,0,0:0:0:0:
192,192,5152,1,0,0:0:0:0:
64,192,5241,128,0,5420:0:0:0:0:
192,192,5420,128,0,5598:0:0:0:0:
320,192,5598,128,0,6134:0:0:0:0:
64,192,5598,1,0,0:0:0:0:
448,192,5866,1,0,0:0:0:0:
64,192,6045,1,0,0:0:0:0:
448,192,6134,1,0,0:0:0:0:
192,192,6134,128,0,8098:0:0:0:0:
64,192,6312,1,0,0:0:0:0:
320,192,6312,1,0,0:0:0:0:
448,192,6491,1,0,0:0:0:0:
64,192,6670,1,0,0:0:0:0:
320,192,6848,1,0,0:0:0:0:
64,192,7027,1,0,0:0:0:0:
448,192,7205,1,0,0:0:0:0:
320,192,7295,1,0,0:0:0:0:
320,192,7473,1,0,0:0:0:0:
448,192,7562,1,0,0:0:0:0:
64,192,7741,1,0,0:0:0:0:
320,192,7741,1,0,0:0:0:0:
448,192,7920,1,0,0:0:0:0:
64,192,8098,1,0,0:0:0:0:
320,192,8277,1,0,0:0:0:0:
64,192,8455,1,0,0:0:0:0:
192,192,8455,1,0,0:0:0:0:
448,192,8455,1,0,0:0:0:0:
64,192,8723,1,0,0:0:0:0:
192,192,8723,1,0,0:0:0:0:
320,192,8723,1,0,0:0:0:0:
64,192,8991,1,0,0:0:0:0:
320,192,8991,1,0,0:0:0:0:
448,192,8991,1,0,0:0:0:0:
192,192,9170,1,0,0:0:0:0:
320,192,9170,1,0,0:0:0:0:
64,192,9348,1,0,0:0:0:0:
320,192,9437,1,0,0:0:0:0:
64,192,9527,1,0,0:0:0:0:
192,192,9705,1,0,0:0:0:0:
64,192,9884,1,0,0:0:0:0:
320,192,9884,1,0,0:0:0:0:
448,192,10062,1,0,0:0:0:0:
320,192,10152,1,0,0:0:0:0:
192,192,10241,1,0,0:0:0:0:
448,192,10420,1,0,0:0:0:0:
64,192,10598,1,0,0:0:0:0:
192,192,10598,1,0,0:0:0:0:
320,192,10717,1,0,0:0:0:0:
448,192,10717,1,0,0:0:0:0:
64,192,10836,1,0,0:0:0:0:
192,192,10836,1,0,0:0:0:0:
320,192,10955,1,0,0:0:0:0:
448,192,10955,1,0,0:0:0:0:
192,192,11134,1,0,0:0:0:0:
320,192,11134,1,0,0:0:0:0:
64,192,11312,1,0,0:0:0:0:
320,192,11312,1,0,0:0:0:0:
192,192,11402,1,0,0:0:0:0:
448,192,11402,1,0,0:0:0:0:
320,192,11580,128,0,11848:0:0:0:0:
64,192,11580,128,0,11848:0:0:0:0:
448,192,11848,128,0,12027:0:0:0:0:
64,192,12027,1,0,0:0:0:0:
192,192,12027,1,0,0:0:0:0:
320,192,12205,1,0,0:0:0:0:
64,192,12384,1,0,0:0:0:0:
192,192,12562,1,0,0:0:0:0:
448,192,12562,1,0,0:0:0:0:
64,192,12741,1,0,0:0:0:0:
320,192,12741,1,0,0:0:0:0:
448,192,12920,1,0,0:0:0:0:
320,192,13009,1,0,0:0:0:0:
192,192,13098,1,0,0:0:0:0:
320,192,13277,1,0,0:0:0:0:
64,192,13455,1,0,0:0:0:0:
192,192,13455,1,0,0:0:0:0:
448,192,13455,1,0,0:0:0:0:
64,192,13634,1,0,0:0:0:0:
192,192,13634,1,0,0:0:0:0:
448,192,13634,1,0,0:0:0:0:
320,192,13812,1,0,0:0:0:0:
192,192,13902,1,0,0:0:0:0:
320,192,13991,1,0,0:0:0:0:
448,192,14170,128,0,14884:0:0:0:0:
64,192,14170,1,0,0:0:0:0:
192,192,14259,1,0,0:0:0:0:
64,192,14527,1,0,0:0:0:0:
192,192,14646,1,0,0:0:0:0:
320,192,14705,1,0,0:0:0:0:
64,192,14884,128,0,15241:0:0:0:0:
192,192,14884,128,0,15241:0:0:0:0:
448,192,15241,1,0,0:0:0:0:
320,192,15301,1,0,0:0:0:0:
192,192,15360,1,0,0:0:0:0:
64,192,15420,1,0,0:0:0:0:
448,192,15479,1,0,0:0:0:0:
320,192,15539,1,0,0:0:0:0:
64,192,15598,128,0,15955:0:0:0:0:
192,192,15598,128,0,15955:0:0:0:0:
320,192,15955,1,0,0:0:0:0:
448,192,16015,1,0,0:0:0:0:
64,192,16074,1,0,0:0:0:0:
192,192,16134,1,0,0:0:0:0:
320,192,16193,1,0,0:0:0:0:
448,192,16253,1,0,0:0:0:0:
64,192,16312,128,0,16670:0:0:0:0:
192,192,16312,128,0,16670:0:0:0:0:
448,192,16670,1,0,0:0:0:0:
320,192,16729,1,0,0:0:0:0:
192,192,16789,1,0,0:0:0:0:
64,192,16848,1,0,0:0:0:0:
448,192,16908,1,0,0:0:0:0:
320,192,16967,1,0,0:0:0:0:
192,192,17027,1,0,0:0:0:0:
64,192,17116,1,0,0:0:0:0:
320,192,17116,1,0,0:0:0:0:
192,192,17205,1,0,0:0:0:0:
448,192,17205,1,0,0:0:0:0:
64,192,17295,1,0,0:0:0:0:
320,192,17295,1,0,0:0:0:0:
448,192,17384,128,0,17741:0:0:0:0:
192,192,17384,1,0,0:0:0:0:
64,192,17562,1,0,0:0:0:0:
320,192,17652,1,0,0:0:0:0:
192,192,17741,128,0,17920:0:0:0:0:
64,192,17741,128,0,17920:0:0:0:0:
320,192,17920,1,0,0:0:0:0:
448,192,18009,1,0,0:0:0:0:
320,192,18098,1,0,0:0:0:0:
64,192,18098,1,0,0:0:0:0:
448,192,18187,1,0,0:0:0:0:
320,192,18277,1,0,0:0:0:0:
192,192,18366,1,0,0:0:0:0:
64,192,18455,1,0,0:0:0:0:
448,192,18455,1,0,0:0:0:0:
320,192,18545,1,0,0:0:0:0:
448,192,18634,1,0,0:0:0:0:
320,192,18723,1,0,0:0:0:0:
64,192,18812,1,0,0:0:0:0:
192,192,18812,1,0,0:0:0:0:
320,192,18902,1,0,0:0:0:0:
448,192,18902,1,0,0:0:0:0:
192,192,18991,1,0,0:0:0:0:
64,192,18991,128,0,19170:0:0:0:0:
192,192,19170,128,0,19527:0:0:0:0:
448,192,19170,1,0,0:0:0:0:
320,192,19259,1,0,0:0:0:0:
64,192,19348,1,0,0:0:0:0:
448,192,19437,1,0,0:0:0:0:
64,192,19527,1,0,0:0:0:0:
320,192,19527,1,0,0:0:0:0:
448,192,19616,1,0,0:0:0:0:
320,192,19705,1,0,0:0:0:0:
192,192,19795,128,0,20152:0:0:0:0:
320,192,19884,128,0,20152:0:0:0:0:
448,192,20152,128,0,20420:0:0:0:0:
64,192,20420,128,0,20598:0:0:0:0:
320,192,20598,128,0,20777:0:0:0:0:
192,192,20598,128,0,20777:0:0:0:0:
448,192,20732,128,0,20955:0:0:0:0:
192,192,20955,1,0,0:0:0:0:
64,192,21045,1,0,0:0:0:0:
192,192,21134,1,0,0:0:0:0:
320,192,21223,1,0,0:0:0:0:
64,192,21312,1,0,0:0:0:0:
448,192,21312,1,0,0:0:0:0:
192,192,21402,1,0,0:0:0:0:
320,192,21491,1,0,0:0:0:0:
64,192,21580,1,0,0:0:0:0:
192,192,21580,128,0,21759:0:0:0:0:
64,192,21759,1,0,0:0:0:0:
192,192,22027,128,0,22741:0:0:0:0:
448,192,22027,1,0,0:0:0:0:
320,192,22161,1,0,0:0:0:0:
64,192,22205,1,0,0:0:0:0:
448,192,22295,1,0,0:0:0:0:
320,192,22384,1,0,0:0:0:0:
64,192,22473,1,0,0:0:0:0:
448,192,22562,1,0,0:0:0:0:
64,192,22741,1,0,0:0:0:0:
320,192,22830,1,0,0:0:0:0:
448,192,22920,1,0,0:0:0:0:
64,192,23009,128,0,23277:0:0:0:0:
192,192,23009,128,0,23277:0:0:0:0:
320,192,23277,1,0,0:0:0:0:
448,192,23277,128,0,23455:0:0:0:0:
192,192,23455,1,0,0:0:0:0:
64,192,23455,128,0,23634:0:0:0:0:
320,192,23634,1,0,0:0:0:0:
192,192,23723,1,0,0:0:0:0:
448,192,23812,1,0,0:0:0:0:
64,192,23812,1,0,0:0:0:0:
320,192,23902,1,0,0:0:0:0:
192,192,23991,1,0,0:0:0:0:
448,192,23991,1,0,0:0:0:0:
320,192,24080,1,0,0:0:0:0:
192,192,24170,1,0,0:0:0:0:
64,192,24170,1,0,0:0:0:0:
320,192,24259,1,0,0:0:0:0:
448,192,24348,1,0,0:0:0:0:
192,192,24348,1,0,0:0:0:0:
320,192,24437,1,0,0:0:0:0:
448,192,24527,1,0,0:0:0:0:
320,192,24616,1,0,0:0:0:0:
64,192,24616,1,0,0:0:0:0:
192,192,24705,1,0,0:0:0:0:
448,192,24705,1,0,0:0:0:0:
64,192,24795,1,0,0:0:0:0:
192,192,24884,128,0,25062:0:0:0:0:
448,192,24884,1,0,0:0:0:0:
320,192,24973,1,0,0:0:0:0:
64,192,25062,1,0,0:0:0:0:
320,192,25241,1,0,0:0:0:0:
448,192,25241,1,0,0:0:0:0:
64,192,25330,1,0,0:0:0:0:
192,192,25330,1,0,0:0:0:0:
320,192,25420,1,0,0:0:0:0:
448,192,25420,1,0,0:0:0:0:
64,192,25509,128,0,25955:0:0:0:0:
448,192,25598,128,0,25866:0:0:0:0:
192,192,25598,1,0,0:0:0:0:
320,192,25777,1,0,0:0:0:0:
192,192,25866,128,0,26134:0:0:0:0:
320,192,25955,1,0,0:0:0:0:
448,192,26045,1,0,0:0:0:0:
64,192,26134,128,0,26312:0:0:0:0:
320,192,26134,1,0,0:0:0:0:
192,192,26312,1,0,0:0:0:0:
320,192,26402,1,0,0:0:0:0:
448,192,26491,1,0,0:0:0:0:
192,192,26580,1,0,0:0:0:0:
64,192,26670,1,0,0:0:0:0:
320,192,26670,1,0,0:0:0:0:
192,192,26759,1,0,0:0:0:0:
320,192,26848,1,0,0:0:0:0:
448,192,26848,1,0,0:0:0:0:
64,192,27027,1,0,0:0:0:0:
320,192,27027,1,0,0:0:0:0:
192,192,27071,128,0,27205:0:0:0:0:
448,192,27205,1,0,0:0:0:0:
320,192,27295,1,0,0:0:0:0:
64,192,27384,1,0,0:0:0:0:
192,192,27384,1,0,0:0:0:0:
320,192,27473,1,0,0:0:0:0:
192,192,27562,1,0,0:0:0:0:
448,192,27562,1,0,0:0:0:0:
320,192,27652,1,0,0:0:0:0:
64,192,27741,1,0,0:0:0:0:
192,192,27741,128,0,28009:0:0:0:0:
64,192,28009,1,0,0:0:0:0:
448,192,28098,1,0,0:0:0:0:
320,192,28187,1,0,0:0:0:0:
64,192,28277,1,0,0:0:0:0:
192,192,28455,1,0,0:0:0:0:
320,192,28455,1,0,0:0:0:0:
448,192,28455,1,0,0:0:0:0:
64,192,28545,1,0,0:0:0:0:
192,192,28634,1,0,0:0:0:0:
320,192,28723,1,0,0:0:0:0:
448,192,28812,1,0,0:0:0:0:
192,192,28812,1,0,0:0:0:0:
64,192,28902,1,0,0:0:0:0:
320,192,28902,1,0,0:0:0:0:
192,192,28991,1,0,0:0:0:0:
320,192,29080,1,0,0:0:0:0:
192,192,29170,1,0,0:0:0:0:
448,192,29170,1,0,0:0:0:0:
64,192,29259,128,0,30598:0:0:0:0:
320,192,29348,1,0,0:0:0:0:
448,192,29527,1,0,0:0:0:0:
192,192,29527,1,0,0:0:0:0:
320,192,29705,1,0,0:0:0:0:
192,192,29884,1,0,0:0:0:0:
448,192,30062,1,0,0:0:0:0:
320,192,30152,1,0,0:0:0:0:
192,192,30241,1,0,0:0:0:0:
448,192,30420,1,0,0:0:0:0:
192,192,30598,1,0,0:0:0:0:
320,192,30598,1,0,0:0:0:0:
448,192,30687,1,0,0:0:0:0:
192,192,30777,1,0,0:0:0:0:
320,192,30777,1,0,0:0:0:0:
64,192,30866,1,0,0:0:0:0:
64,192,31045,1,0,0:0:0:0:
448,192,31134,1,0,0:0:0:0:
192,192,31312,128,0,32027:0:0:0:0:
64,192,31312,1,0,0:0:0:0:
448,192,31402,1,0,0:0:0:0:
320,192,31491,1,0,0:0:0:0:
64,192,31670,1,0,0:0:0:0:
320,192,31848,1,0,0:0:0:0:
448,192,31848,1,0,0:0:0:0:
448,192,32027,1,0,0:0:0:0:
320,192,32116,1,0,0:0:0:0:
192,192,32205,1,0,0:0:0:0:
64,192,32295,1,0,0:0:0:0:
448,192,32384,1,0,0:0:0:0:
320,192,32473,1,0,0:0:0:0:
192,192,32562,1,0,0:0:0:0:
64,192,32652,1,0,0:0:0:0:
320,192,32741,1,0,0:0:0:0:
192,192,32830,1,0,0:0:0:0:
64,192,32920,1,0,0:0:0:0:
320,192,33009,1,0,0:0:0:0:
64,192,33277,1,0,0:0:0:0:
320,192,33277,1,0,0:0:0:0:
448,192,33277,1,0,0:0:0:0:
192,192,33455,1,0,0:0:0:0:
448,192,33455,1,0,0:0:0:0:
64,192,33545,1,0,0:0:0:0:
320,192,33634,1,0,0:0:0:0:
192,192,33723,1,0,0:0:0:0:
64,192,33812,1,0,0:0:0:0:
320,192,33812,1,0,0:0:0:0:
448,192,33902,1,0,0:0:0:0:
320,192,33991,1,0,0:0:0:0:
448,192,34080,1,0,0:0:0:0:
64,192,34170,1,0,0:0:0:0:
192,192,34170,1,0,0:0:0:0:
320,192,34259,1,0,0:0:0:0:
192,192,34348,1,0,0:0:0:0:
448,192,34348,1,0,0:0:0:0:
64,192,34437,1,0,0:0:0:0:
320,192,34437,1,0,0:0:0:0:
192,192,34527,1,0,0:0:0:0:
448,192,34616,1,0,0:0:0:0:
320,192,34705,1,0,0:0:0:0:
192,192,34795,1,0,0:0:0:0:
320,192,34884,1,0,0:0:0:0:
448,192,34884,1,0,0:0:0:0:
192,192,34973,1,0,0:0:0:0:
64,192,35062,1,0,0:0:0:0:
192,192,35152,1,0,0:0:0:0:
320,192,35196,1,0,0:0:0:0:
448,192,35241,1,0,0:0:0:0:
192,192,35330,1,0,0:0:0:0:
64,192,35420,1,0,0:0:0:0:
320,192,35509,128,0,36134:0:0:0:0:
192,192,35598,1,0,0:0:0:0:
448,192,35598,1,0,0:0:0:0:
192,192,35866,1,0,0:0:0:0:
448,192,35866,1,0,0:0:0:0:
192,192,36134,1,0,0:0:0:0:
448,192,36134,1,0,0:0:0:0:
64,192,36312,1,0,0:0:0:0:
192,192,36312,1,0,0:0:0:0:
320,192,36402,1,0,0:0:0:0:
448,192,36491,1,0,0:0:0:0:
64,192,36580,1,0,0:0:0:0:
192,192,36670,1,0,0:0:0:0:
448,192,36848,1,0,0:0:0:0:
192,192,36848,1,0,0:0:0:0:
64,192,36937,1,0,0:0:0:0:
192,192,37027,1,0,0:0:0:0:
448,192,37027,1,0,0:0:0:0:
320,192,37116,1,0,0:0:0:0:
192,192,37205,1,0,0:0:0:0:
320,192,37295,1,0,0:0:0:0:
64,192,37384,1,0,0:0:0:0:
320,192,37473,1,0,0:0:0:0:
448,192,37562,1,0,0:0:0:0:
64,192,37562,1,0,0:0:0:0:
192,192,37652,1,0,0:0:0:0:
64,192,37741,1,0,0:0:0:0:
320,192,37741,1,0,0:0:0:0:
192,192,37830,1,0,0:0:0:0:
64,192,37920,1,0,0:0:0:0:
192,192,38009,1,0,0:0:0:0:
320,192,38098,1,0,0:0:0:0:
448,192,38187,1,0,0:0:0:0:
64,192,38277,1,0,0:0:0:0:
320,192,38366,1,0,0:0:0:0:
192,192,38455,1,0,0:0:0:0:
448,192,38455,1,0,0:0:0:0:
64,192,38545,1,0,0:0:0:0:
320,192,38545,1,0,0:0:0:0:
192,192,38634,1,0,0:0:0:0:
448,192,38634,1,0,0:0:0:0:
64,192,38723,1,0,0:0:0:0:
320,192,38723,128,0,38902:0:0:0:0:
192,192,38902,1,0,0:0:0:0:
448,192,38991,128,0,39170:0:0:0:0:
192,192,39170,1,0,0:0:0:0:
320,192,39170,1,0,0:0:0:0:
64,192,39259,1,0,0:0:0:0:
448,192,39259,1,0,0:0:0:0:
192,192,39437,1,0,0:0:0:0:
320,192,39527,1,0,0:0:0:0:
64,192,39616,1,0,0:0:0:0:
192,192,39705,1,0,0:0:0:0:
320,192,39795,1,0,0:0:0:0:
448,192,39884,1,0,0:0:0:0:
64,192,39884,1,0,0:0:0:0:
192,192,39884,1,0,0:0:0:0:
320,192,39973,1,0,0:0:0:0:
448,192,40152,128,0,40330:0:0:0:0:
64,192,40152,1,0,0:0:0:0:
192,192,40152,1,0,0:0:0:0:
64,192,40420,1,0,0:0:0:0:
192,192,40420,1,0,0:0:0:0:
320,192,40598,1,0,0:0:0:0:
64,192,40598,1,0,0:0:0:0:
192,192,40687,1,0,0:0:0:0:
448,192,40687,1,0,0:0:0:0:
320,192,40777,1,0,0:0:0:0:
192,192,40866,1,0,0:0:0:0:
448,192,40955,1,0,0:0:0:0:
320,192,41045,1,0,0:0:0:0:
64,192,41134,1,0,0:0:0:0:
192,192,41223,1,0,0:0:0:0:
448,192,41312,1,0,0:0:0:0:
320,192,41402,128,0,41848:0:0:0:0:
64,192,41491,1,0,0:0:0:0:
192,192,41580,128,0,41848:0:0:0:0:
448,192,41848,1,0,0:0:0:0:
64,192,41937,1,0,0:0:0:0:
192,192,42027,1,0,0:0:0:0:
320,192,42027,1,0,0:0:0:0:
64,192,42116,1,0,0:0:0:0:
192,192,42205,1,0,0:0:0:0:
448,192,42295,1,0,0:0:0:0:
64,192,42384,1,0,0:0:0:0:
192,192,42473,128,0,42741:0:0:0:0:
448,192,42562,1,0,0:0:0:0:
320,192,42741,1,0,0:0:0:0:
64,192,42741,1,0,0:0:0:0:
448,192,42830,1,0,0:0:0:0:
320,192,42920,1,0,0:0:0:0:
192,192,43009,1,0,0:0:0:0:
448,192,43098,1,0,0:0:0:0:
64,192,43187,128,0,43455:0:0:0:0:
320,192,43277,1,0,0:0:0:0:
192,192,43455,1,0,0:0:0:0:
320,192,43545,1,0,0:0:0:0:
64,192,43634,1,0,0:0:0:0:
192,192,43723,1,0,0:0:0:0:
320,192,43812,1,0,0:0:0:0:
448,192,43812,1,0,0:0:0:0:
192,192,43902,1,0,0:0:0:0:
320,192,43991,1,0,0:0:0:0:
448,192,43991,1,0,0:0:0:0:
64,192,44080,1,0,0:0:0:0:
192,192,44170,1,0,0:0:0:0:
320,192,44170,128,0,44705:0:0:0:0:
448,192,44348,1,0,0:0:0:0:
64,192,44527,1,0,0:0:0:0:
64,192,44705,1,0,0:0:0:0:
448,192,44884,1,0,0:0:0:0:
320,192,44884,1,0,0:0:0:0:
192,192,44973,1,0,0:0:0:0:
64,192,45062,1,0,0:0:0:0:
448,192,45152,1,0,0:0:0:0:
320,192,45420,1,0,0:0:0:0:
448,192,45420,1,0,0:0:0:0:
64,192,45509,1,0,0:0:0:0:
192,192,45598,1,0,0:0:0:0:
320,192,45687,1,0,0:0:0:0:
192,192,45777,1,0,0:0:0:0:
320,192,45866,1,0,0:0:0:0:
448,192,45955,1,0,0:0:0:0:
192,192,45955,1,0,0:0:0:0:
64,192,46045,1,0,0:0:0:0:
448,192,46134,1,0,0:0:0:0:
64,192,46223,1,0,0:0:0:0:
192,192,46312,1,0,0:0:0:0:
448,192,46312,1,0,0:0:0:0:
320,192,46402,1,0,0:0:0:0:
192,192,46491,1,0,0:0:0:0:
448,192,46491,1,0,0:0:0:0:
320,192,46580,1,0,0:0:0:0:
64,192,46670,128,0,46848:0:0:0:0:
192,192,46848,1,0,0:0:0:0:
448,192,46848,1,0,0:0:0:0:
448,192,47027,1,0,0:0:0:0:
192,192,47027,1,0,0:0:0:0:
192,192,47295,128,0,47473:0:0:0:0:
64,192,47473,1,0,0:0:0:0:
320,192,47562,1,0,0:0:0:0:
448,192,47652,1,0,0:0:0:0:
192,192,47741,1,0,0:0:0:0:
320,192,47741,1,0,0:0:0:0:
64,192,47830,1,0,0:0:0:0:
192,192,47920,1,0,0:0:0:0:
448,192,48009,1,0,0:0:0:0:
320,192,48098,1,0,0:0:0:0:
192,192,48187,1,0,0:0:0:0:
64,192,48277,1,0,0:0:0:0:
448,192,48366,128,0,48634:0:0:0:0:
320,192,48634,1,0,0:0:0:0:
192,192,48634,1,0,0:0:0:0:
64,192,48723,1,0,0:0:0:0:
448,192,48812,1,0,0:0:0:0:
320,192,48902,1,0,0:0:0:0:
192,192,48991,1,0,0:0:0:0:
320,192,49080,1,0,0:0:0:0:
448,192,49170,1,0,0:0:0:0:
64,192,49170,1,0,0:0:0:0:
192,192,49259,1,0,0:0:0:0:
320,192,49348,1,0,0:0:0:0:
192,192,49437,1,0,0:0:0:0:
64,192,49527,1,0,0:0:0:0:
320,192,49527,1,0,0:0:0:0:
448,192,49616,1,0,0:0:0:0:
320,192,49705,1,0,0:0:0:0:
64,192,49795,128,0,50062:0:0:0:0:
192,192,49795,1,0,0:0:0:0:
320,192,50062,1,0,0:0:0:0:
448,192,50241,1,0,0:0:0:0:
192,192,50241,1,0,0:0:0:0:
320,192,50330,1,0,0:0:0:0:
64,192,50330,1,0,0:0:0:0:
192,192,50420,1,0,0:0:0:0:
448,192,50509,1,0,0:0:0:0:
320,192,50509,1,0,0:0:0:0:
64,192,50598,1,0,0:0:0:0:
192,192,50598,1,0,0:0:0:0:
448,192,50777,1,0,0:0:0:0:
320,192,50777,1,0,0:0:0:0:
192,192,50866,1,0,0:0:0:0:
64,192,50866,1,0,0:0:0:0:
448,192,51045,1,0,0:0:0:0:
192,192,51045,1,0,0:0:0:0:
64,192,51134,1,0,0:0:0:0:
320,192,51134,1,0,0:0:0:0:
448,192,51312,1,0,0:0:0:0:
192,192,51312,1,0,0:0:0:0:
320,192,51402,1,0,0:0:0:0:
64,192,51402,1,0,0:0:0:0:
448,192,51491,1,0,0:0:0:0:
320,192,51580,1,0,0:0:0:0:
192,192,51580,1,0,0:0:0:0:
64,192,51670,1,0,0:0:0:0:
448,192,51670,1,0,0:0:0:0:
320,192,51848,1,0,0:0:0:0:
192,192,51848,1,0,0:0:0:0:
448,192,51937,1,0,0:0:0:0:
64,192,51937,128,0,52562:0:0:0:0:
192,192,52027,1,0,0:0:0:0:
448,192,52205,1,0,0:0:0:0:
320,192,52384,1,0,0:0:0:0:
192,192,52473,1,0,0:0:0:0:
448,192,52562,1,0,0:0:0:0:
192,192,52741,128,0,53098:0:0:0:0:
320,192,52741,128,0,52920:0:0:0:0:
448,192,52741,128,0,52920:0:0:0:0:
64,192,52920,128,0,53098:0:0:0:0:
320,192,53098,1,0,0:0:0:0:
448,192,53187,1,0,0:0:0:0:
320,192,53277,1,0,0:0:0:0:
448,192,53366,1,0,0:0:0:0:
192,192,53455,1,0,0:0:0:0:
64,192,53455,1,0,0:0:0:0:
320,192,53545,1,0,0:0:0:0:
192,192,53634,1,0,0:0:0:0:
320,192,53723,1,0,0:0:0:0:
192,192,53812,1,0,0:0:0:0:
64,192,53902,1,0,0:0:0:0:
320,192,53991,1,0,0:0:0:0:
448,192,54080,128,0,54348:0:0:0:0:
320,192,54348,1,0,0:0:0:0:
64,192,54348,1,0,0:0:0:0:
192,192,54437,1,0,0:0:0:0:
64,192,54527,1,0,0:0:0:0:
448,192,54616,128,0,54884:0:0:0:0:
192,192,54705,1,0,0:0:0:0:
64,192,54884,1,0,0:0:0:0:
320,192,54884,1,0,0:0:0:0:
192,192,54973,1,0,0:0:0:0:
448,192,55062,1,0,0:0:0:0:
320,192,55062,1,0,0:0:0:0:
192,192,55152,1,0,0:0:0:0:
64,192,55241,1,0,0:0:0:0:
320,192,55330,1,0,0:0:0:0:
64,192,55420,1,0,0:0:0:0:
448,192,55420,1,0,0:0:0:0:
192,192,55509,1,0,0:0:0:0:
320,192,55509,128,0,55777:0:0:0:0:
64,192,55777,1,0,0:0:0:0:
192,192,55777,1,0,0:0:0:0:
448,192,55955,1,0,0:0:0:0:
320,192,55955,1,0,0:0:0:0:
64,192,56045,1,0,0:0:0:0:
192,192,56045,1,0,0:0:0:0:
320,192,56134,1,0,0:0:0:0:
448,192,56223,1,0,0:0:0:0:
192,192,56223,1,0,0:0:0:0:
64,192,56312,1,0,0:0:0:0:
320,192,56312,1,0,0:0:0:0:
448,192,56491,1,0,0:0:0:0:
320,192,56491,1,0,0:0:0:0:
64,192,56580,1,0,0:0:0:0:
192,192,56580,1,0,0:0:0:0:
320,192,56670,1,0,0:0:0:0:
448,192,56759,1,0,0:0:0:0:
192,192,56759,1,0,0:0:0:0:
64,192,56848,1,0,0:0:0:0:
320,192,56848,1,0,0:0:0:0:
448,192,57027,1,0,0:0:0:0:
320,192,57027,1,0,0:0:0:0:
64,192,57116,1,0,0:0:0:0:
192,192,57116,1,0,0:0:0:0:
320,192,57205,1,0,0:0:0:0:
192,192,57295,1,0,0:0:0:0:
448,192,57295,1,0,0:0:0:0:
64,192,57384,1,0,0:0:0:0:
320,192,57384,1,0,0:0:0:0:
192,192,57562,1,0,0:0:0:0:
320,192,57562,1,0,0:0:0:0:
64,192,57652,1,0,0:0:0:0:
448,192,57652,1,0,0:0:0:0:
192,192,57741,1,0,0:0:0:0:
320,192,57830,1,0,0:0:0:0:
448,192,57830,1,0,0:0:0:0:
192,192,57920,1,0,0:0:0:0:
64,192,57920,1,0,0:0:0:0:
192,192,58098,1,0,0:0:0:0:
448,192,58098,1,0,0:0:0:0:
320,192,58187,1,0,0:0:0:0:
64,192,58187,1,0,0:0:0:0:
448,192,58366,1,0,0:0:0:0:
64,192,58455,1,0,0:0:0:0:
192,192,58455,1,0,0:0:0:0:
320,192,58455,1,0,0:0:0:0:
448,192,58634,1,0,0:0:0:0:
64,192,58723,1,0,0:0:0:0:
192,192,58723,1,0,0:0:0:0:
320,192,58723,1,0,0:0:0:0:
448,192,58902,1,0,0:0:0:0:
192,192,58991,128,0,60241:0:0:0:0:
64,192,58991,1,0,0:0:0:0:
320,192,58991,1,0,0:0:0:0:
64,192,59170,1,0,0:0:0:0:
320,192,59259,1,0,0:0:0:0:
64,192,59348,1,0,0:0:0:0:
320,192,59437,1,0,0:0:0:0:
64,192,59527,1,0,0:0:0:0:
448,192,59705,1,0,0:0:0:0:
320,192,59884,1,0,0:0:0:0:
64,192,59973,1,0,0:0:0:0:
320,192,60241,128,0,60598:0:0:0:0:
64,192,60241,1,0,0:0:0:0:
448,192,60330,1,0,0:0:0:0:
64,192,60420,1,0,0:0:0:0:
448,192,60509,1,0,0:0:0:0:
64,192,60598,1,0,0:0:0:0:
192,192,60777,1,0,0:0:0:0:
320,192,60866,1,0,0:0:0:0:
192,192,60955,1,0,0:0:0:0:
320,192,61045,1,0,0:0:0:0:
448,192,61134,1,0,0:0:0:0:
192,192,61134,1,0,0:0:0:0:
320,192,61312,1,0,0:0:0:0:
64,192,61312,1,0,0:0:0:0:
192,192,61491,1,0,0:0:0:0:
448,192,61491,1,0,0:0:0:0:
192,192,61670,1,0,0:0:0:0:
448,192,61670,1,0,0:0:0:0:
64,192,62027,1,0,0:0:0:0:
192,192,62027,1,0,0:0:0:0:
320,192,62116,1,0,0:0:0:0:
64,192,62205,1,0,0:0:0:0:
320,192,62295,1,0,0:0:0:0:
64,192,62384,1,0,0:0:0:0:
448,192,62562,1,0,0:0:0:0:
192,192,62562,1,0,0:0:0:0:
320,192,62741,1,0,0:0:0:0:
448,192,62741,1,0,0:0:0:0:
64,192,62830,1,0,0:0:0:0:
192,192,62830,1,0,0:0:0:0:
64,192,63098,1,0,0:0:0:0:
192,192,63187,1,0,0:0:0:0:
64,192,63277,1,0,0:0:0:0:
192,192,63366,1,0,0:0:0:0:
64,192,63455,1,0,0:0:0:0:
448,192,63634,1,0,0:0:0:0:
448,192,63812,1,0,0:0:0:0:
320,192,63902,1,0,0:0:0:0:
448,192,64080,1,0,0:0:0:0:
448,192,64259,1,0,0:0:0:0:
448,192,64437,1,0,0:0:0:0:
320,192,64527,1,0,0:0:0:0:
448,192,64705,1,0,0:0:0:0:
64,192,64884,128,0,65062:0:0:0:0:
192,192,64884,128,0,65062:0:0:0:0:
320,192,64884,1,0,0:0:0:0:
448,192,65062,1,0,0:0:0:0:
320,192,65107,1,0,0:0:0:0:
192,192,65152,1,0,0:0:0:0:
448,192,65241,1,0,0:0:0:0:
64,192,65330,1,0,0:0:0:0:
192,192,65375,1,0,0:0:0:0:
320,192,65509,1,0,0:0:0:0:
448,192,65598,1,0,0:0:0:0:
320,192,65732,1,0,0:0:0:0:
192,192,65866,1,0,0:0:0:0:
320,192,66045,1,0,0:0:0:0:
64,192,66134,1,0,0:0:0:0:
192,192,66312,128,0,66670:0:0:0:0:
320,192,66312,1,0,0:0:0:0:
448,192,66402,1,0,0:0:0:0:
64,192,66491,1,0,0:0:0:0:
320,192,66580,1,0,0:0:0:0:
448,192,66670,1,0,0:0:0:0:
320,192,66759,1,0,0:0:0:0:
192,192,66848,1,0,0:0:0:0:
320,192,66937,1,0,0:0:0:0:
192,192,67027,1,0,0:0:0:0:
448,192,67116,1,0,0:0:0:0:
192,192,67205,1,0,0:0:0:0:
320,192,67295,128,0,67562:0:0:0:0:
64,192,67295,128,0,67562:0:0:0:0:
192,192,67562,128,0,67741:0:0:0:0:
64,192,67741,128,0,68098:0:0:0:0:
448,192,67741,1,0,0:0:0:0:
320,192,67830,1,0,0:0:0:0:
192,192,67920,1,0,0:0:0:0:
320,192,68009,1,0,0:0:0:0:
448,192,68098,128,0,68277:0:0:0:0:
448,192,68366,1,0,0:0:0:0:
320,192,68545,1,0,0:0:0:0:
64,192,68634,1,0,0:0:0:0:
192,192,68723,128,0,68991:0:0:0:0:
448,192,68723,1,0,0:0:0:0:
448,192,68991,1,0,0:0:0:0:
320,192,69170,128,0,69884:0:0:0:0:
64,192,69170,1,0,0:0:0:0:
192,192,69259,1,0,0:0:0:0:
64,192,69348,1,0,0:0:0:0:
448,192,69437,1,0,0:0:0:0:
192,192,69527,1,0,0:0:0:0:
64,192,69616,1,0,0:0:0:0:
192,192,69705,1,0,0:0:0:0:
448,192,69795,1,0,0:0:0:0:
64,192,69884,1,0,0:0:0:0:
192,192,69884,1,0,0:0:0:0:
448,192,69973,1,0,0:0:0:0:
320,192,69973,1,0,0:0:0:0:
192,192,70062,1,0,0:0:0:0:
64,192,70152,1,0,0:0:0:0:
320,192,70152,1,0,0:0:0:0:
448,192,70241,1,0,0:0:0:0:
192,192,70241,128,0,70420:0:0:0:0:
448,192,70420,128,0,70598:0:0:0:0:
64,192,70420,1,0,0:0:0:0:
64,192,70598,1,0,0:0:0:0:
192,192,70598,1,0,0:0:0:0:
320,192,70777,1,0,0:0:0:0:
192,192,70866,1,0,0:0:0:0:
64,192,70866,1,0,0:0:0:0:
320,192,70955,1,0,0:0:0:0:
448,192,70955,1,0,0:0:0:0:
192,192,71134,1,0,0:0:0:0:
320,192,71223,1,0,0:0:0:0:
448,192,71312,1,0,0:0:0:0:
64,192,71402,1,0,0:0:0:0:
320,192,71402,1,0,0:0:0:0:
192,192,71491,1,0,0:0:0:0:
448,192,71491,1,0,0:0:0:0:
320,192,71580,128,0,71848:0:0:0:0:
64,192,71670,1,0,0:0:0:0:
448,192,71848,1,0,0:0:0:0:
64,192,72027,1,0,0:0:0:0:
320,192,72027,1,0,0:0:0:0:
192,192,72116,1,0,0:0:0:0:
320,192,72295,1,0,0:0:0:0:
192,192,72384,1,0,0:0:0:0:
448,192,72384,1,0,0:0:0:0:
320,192,72473,1,0,0:0:0:0:
64,192,72562,1,0,0:0:0:0:
192,192,72652,1,0,0:0:0:0:
320,192,72741,1,0,0:0:0:0:
192,192,72830,1,0,0:0:0:0:
448,192,72920,128,0,73277:0:0:0:0:
320,192,72920,1,0,0:0:0:0:
64,192,73098,1,0,0:0:0:0:
320,192,73277,1,0,0:0:0:0:
192,192,73366,1,0,0:0:0:0:
64,192,73455,1,0,0:0:0:0:
320,192,73455,1,0,0:0:0:0:
192,192,73545,1,0,0:0:0:0:
320,192,73634,1,0,0:0:0:0:
192,192,73723,1,0,0:0:0:0:
64,192,73812,1,0,0:0:0:0:
320,192,73812,1,0,0:0:0:0:
448,192,73902,1,0,0:0:0:0:
320,192,73991,1,0,0:0:0:0:
64,192,73991,1,0,0:0:0:0:
192,192,74080,1,0,0:0:0:0:
320,192,74170,1,0,0:0:0:0:
64,192,74259,1,0,0:0:0:0:
320,192,74348,128,0,74616:0:0:0:0:
448,192,74348,1,0,0:0:0:0:
64,192,74527,1,0,0:0:0:0:
192,192,74705,1,0,0:0:0:0:
448,192,74705,1,0,0:0:0:0:
192,192,74884,1,0,0:0:0:0:
448,192,74884,1,0,0:0:0:0:
320,192,74973,1,0,0:0:0:0:
64,192,75062,1,0,0:0:0:0:
192,192,75152,1,0,0:0:0:0:
320,192,75241,1,0,0:0:0:0:
192,192,75330,1,0,0:0:0:0:
448,192,75420,1,0,0:0:0:0:
320,192,75509,128,0,75777:0:0:0:0:
448,192,75777,1,0,0:0:0:0:
64,192,75777,1,0,0:0:0:0:
192,192,75866,1,0,0:0:0:0:
448,192,75955,1,0,0:0:0:0:
64,192,75955,1,0,0:0:0:0:
448,192,76134,1,0,0:0:0:0:
64,192,76134,1,0,0:0:0:0:
192,192,76312,1,0,0:0:0:0:
64,192,76402,1,0,0:0:0:0:
448,192,76402,1,0,0:0:0:0:
320,192,76491,1,0,0:0:0:0:
192,192,76580,1,0,0:0:0:0:
320,192,76670,1,0,0:0:0:0:
448,192,76848,1,0,0:0:0:0:
64,192,76937,1,0,0:0:0:0:
192,192,77027,1,0,0:0:0:0:
320,192,77027,1,0,0:0:0:0:
448,192,77116,128,0,77295:0:0:0:0:
64,192,77295,128,0,77562:0:0:0:0:
320,192,77295,1,0,0:0:0:0:
192,192,77295,1,0,0:0:0:0:
192,192,77562,1,0,0:0:0:0:
320,192,77562,1,0,0:0:0:0:
448,192,77741,1,0,0:0:0:0:
192,192,77830,1,0,0:0:0:0:
320,192,77830,1,0,0:0:0:0:
64,192,77920,1,0,0:0:0:0:
448,192,78009,1,0,0:0:0:0:
320,192,78098,1,0,0:0:0:0:
192,192,78187,1,0,0:0:0:0:
320,192,78277,1,0,0:0:0:0:
448,192,78366,1,0,0:0:0:0:
64,192,78455,1,0,0:0:0:0:
192,192,78500,1,0,0:0:0:0:
320,192,78545,128,0,79170:0:0:0:0:
448,192,78634,1,0,0:0:0:0:
192,192,78678,1,0,0:0:0:0:
64,192,78723,128,0,78991:0:0:0:0:
192,192,78902,1,0,0:0:0:0:
448,192,78991,1,0,0:0:0:0:
192,192,79080,1,0,0:0:0:0:
64,192,79170,1,0,0:0:0:0:
448,192,79170,1,0,0:0:0:0:
192,192,79259,1,0,0:0:0:0:
320,192,79348,1,0,0:0:0:0:
192,192,79437,1,0,0:0:0:0:
448,192,79527,1,0,0:0:0:0:
64,192,79527,1,0,0:0:0:0:
192,192,79616,128,0,79884:0:0:0:0:
320,192,79705,1,0,0:0:0:0:
64,192,79884,1,0,0:0:0:0:
320,192,79884,1,0,0:0:0:0:
448,192,80062,1,0,0:0:0:0:
192,192,80152,1,0,0:0:0:0:
320,192,80241,1,0,0:0:0:0:
64,192,80330,128,0,80598:0:0:0:0:
320,192,80420,1,0,0:0:0:0:
192,192,80598,1,0,0:0:0:0:
448,192,80598,1,0,0:0:0:0:
320,192,80687,1,0,0:0:0:0:
192,192,80777,1,0,0:0:0:0:
64,192,80866,1,0,0:0:0:0:
448,192,80955,1,0,0:0:0:0:
320,192,80955,1,0,0:0:0:0:
64,192,81045,1,0,0:0:0:0:
192,192,81134,1,0,0:0:0:0:
320,192,81223,1,0,0:0:0:0:
448,192,81268,128,0,81848:0:0:0:0:
192,192,81312,1,0,0:0:0:0:
64,192,81312,1,0,0:0:0:0:
192,192,81491,1,0,0:0:0:0:
320,192,81491,1,0,0:0:0:0:
64,192,81670,1,0,0:0:0:0:
192,192,81670,1,0,0:0:0:0:
64,192,81848,1,0,0:0:0:0:
192,192,81848,1,0,0:0:0:0:
64,192,82027,1,0,0:0:0:0:
320,192,82027,1,0,0:0:0:0:
448,192,82116,1,0,0:0:0:0:
320,192,82205,1,0,0:0:0:0:
192,192,82295,1,0,0:0:0:0:
320,192,82384,1,0,0:0:0:0:
448,192,82562,1,0,0:0:0:0:
320,192,82562,1,0,0:0:0:0:
192,192,82652,1,0,0:0:0:0:
64,192,82741,1,0,0:0:0:0:
448,192,82830,1,0,0:0:0:0:
320,192,83009,1,0,0:0:0:0:
64,192,83098,1,0,0:0:0:0:
448,192,83187,1,0,0:0:0:0:
192,192,83277,1,0,0:0:0:0:
320,192,83366,1,0,0:0:0:0:
192,192,83455,1,0,0:0:0:0:
64,192,83455,1,0,0:0:0:0:
320,192,83545,1,0,0:0:0:0:
192,192,83634,1,0,0:0:0:0:
448,192,83634,1,0,0:0:0:0:
448,192,83812,128,0,83991:0:0:0:0:
192,192,83991,1,0,0:0:0:0:
320,192,83991,1,0,0:0:0:0:
192,192,84170,1,0,0:0:0:0:
64,192,84170,1,0,0:0:0:0:
192,192,84527,1,0,0:0:0:0:
64,192,84616,1,0,0:0:0:0:
448,192,84705,1,0,0:0:0:0:
320,192,84795,1,0,0:0:0:0:
64,192,84884,128,0,85241:0:0:0:0:
192,192,84884,1,0,0:0:0:0:
448,192,84884,1,0,0:0:0:0:
320,192,84973,1,0,0:0:0:0:
448,192,85062,1,0,0:0:0:0:
320,192,85241,1,0,0:0:0:0:
192,192,85330,1,0,0:0:0:0:
320,192,85420,1,0,0:0:0:0:
448,192,85509,128,0,85732:0:0:0:0:
192,192,85598,1,0,0:0:0:0:
320,192,85598,1,0,0:0:0:0:
64,192,85777,1,0,0:0:0:0:
192,192,85866,1,0,0:0:0:0:
320,192,85866,1,0,0:0:0:0:
448,192,85955,1,0,0:0:0:0:
64,192,86045,1,0,0:0:0:0:
192,192,86045,1,0,0:0:0:0:
320,192,86134,1,0,0:0:0:0:
448,192,86134,1,0,0:0:0:0:
64,192,86312,1,0,0:0:0:0:
192,192,86402,1,0,0:0:0:0:
320,192,86491,1,0,0:0:0:0:
448,192,86491,1,0,0:0:0:0:
64,192,86580,1,0,0:0:0:0:
192,192,86670,1,0,0:0:0:0:
320,192,86759,1,0,0:0:0:0:
192,192,86848,1,0,0:0:0:0:
448,192,86848,1,0,0:0:0:0:
64,192,86937,1,0,0:0:0:0:
448,192,87027,128,0,87205:0:0:0:0:
192,192,87205,1,0,0:0:0:0:
320,192,87384,1,0,0:0:0:0:
64,192,87384,1,0,0:0:0:0:
192,192,87473,1,0,0:0:0:0:
448,192,87473,1,0,0:0:0:0:
64,192,87562,1,0,0:0:0:0:
320,192,87652,1,0,0:0:0:0:
448,192,87652,1,0,0:0:0:0:
192,192,87741,1,0,0:0:0:0:
64,192,87741,1,0,0:0:0:0:
320,192,87920,1,0,0:0:0:0:
192,192,87920,1,0,0:0:0:0:
64,192,88009,1,0,0:0:0:0:
448,192,88009,1,0,0:0:0:0:
192,192,88098,1,0,0:0:0:0:
320,192,88187,1,0,0:0:0:0:
64,192,88187,1,0,0:0:0:0:
192,192,88277,1,0,0:0:0:0:
448,192,88277,1,0,0:0:0:0:
448,192,88455,1,0,0:0:0:0:
192,192,88455,1,0,0:0:0:0:
320,192,88545,1,0,0:0:0:0:
64,192,88545,1,0,0:0:0:0:
192,192,88634,1,0,0:0:0:0:
320,192,88723,1,0,0:0:0:0:
448,192,88723,1,0,0:0:0:0:
192,192,88812,1,0,0:0:0:0:
64,192,88812,1,0,0:0:0:0:
192,192,88991,1,0,0:0:0:0:
448,192,88991,128,0,88991:0:0:0:0:
320,192,89080,1,0,0:0:0:0:
64,192,89080,128,0,89705:0:0:0:0:
192,192,89170,1,0,0:0:0:0:
320,192,89348,1,0,0:0:0:0:
448,192,89527,1,0,0:0:0:0:
320,192,89616,1,0,0:0:0:0:
192,192,89705,1,0,0:0:0:0:
192,192,89884,128,0,90241:0:0:0:0:
320,192,89884,128,0,90062:0:0:0:0:
448,192,89884,128,0,90062:0:0:0:0:
64,192,90062,128,0,90241:0:0:0:0:
448,192,90241,1,0,0:0:0:0:
320,192,90330,1,0,0:0:0:0:
192,192,90420,1,0,0:0:0:0:
64,192,90509,1,0,0:0:0:0:
192,192,90598,1,0,0:0:0:0:
448,192,90598,1,0,0:0:0:0:
320,192,90687,1,0,0:0:0:0:
192,192,90777,1,0,0:0:0:0:
320,192,90866,1,0,0:0:0:0:
192,192,90955,1,0,0:0:0:0:
64,192,91045,1,0,0:0:0:0:
320,192,91134,1,0,0:0:0:0:
448,192,91223,128,0,91491:0:0:0:0:
192,192,91312,1,0,0:0:0:0:
320,192,91491,1,0,0:0:0:0:
64,192,91491,1,0,0:0:0:0:
448,192,91670,1,0,0:0:0:0:
320,192,91759,1,0,0:0:0:0:
192,192,91848,1,0,0:0:0:0:
448,192,91937,1,0,0:0:0:0:
64,192,92027,1,0,0:0:0:0:
320,192,92027,1,0,0:0:0:0:
192,192,92116,1,0,0:0:0:0:
448,192,92205,1,0,0:0:0:0:
320,192,92295,1,0,0:0:0:0:
192,192,92384,1,0,0:0:0:0:
320,192,92473,1,0,0:0:0:0:
64,192,92562,1,0,0:0:0:0:
192,192,92652,1,0,0:0:0:0:
320,192,92741,128,0,92920:0:0:0:0:
448,192,92920,1,0,0:0:0:0:
192,192,92920,1,0,0:0:0:0:
192,192,93098,1,0,0:0:0:0:
64,192,93098,1,0,0:0:0:0:
320,192,93187,1,0,0:0:0:0:
448,192,93187,1,0,0:0:0:0:
64,192,93366,1,0,0:0:0:0:
320,192,93366,1,0,0:0:0:0:
192,192,93455,1,0,0:0:0:0:
448,192,93455,1,0,0:0:0:0:
64,192,93634,1,0,0:0:0:0:
448,192,93634,1,0,0:0:0:0:
320,192,93723,1,0,0:0:0:0:
192,192,93723,1,0,0:0:0:0:
320,192,93902,1,0,0:0:0:0:
192,192,93902,1,0,0:0:0:0:
448,192,93991,1,0,0:0:0:0:
64,192,93991,1,0,0:0:0:0:
64,192,94170,1,0,0:0:0:0:
192,192,94170,1,0,0:0:0:0:
448,192,94259,1,0,0:0:0:0:
320,192,94259,1,0,0:0:0:0:
64,192,94437,1,0,0:0:0:0:
192,192,94437,1,0,0:0:0:0:
448,192,94527,1,0,0:0:0:0:
320,192,94527,1,0,0:0:0:0:
64,192,94705,1,0,0:0:0:0:
320,192,94705,1,0,0:0:0:0:
448,192,94795,1,0,0:0:0:0:
192,192,94795,1,0,0:0:0:0:
320,192,94973,1,0,0:0:0:0:
64,192,94973,1,0,0:0:0:0:
448,192,95062,1,0,0:0:0:0:
192,192,95062,1,0,0:0:0:0:
320,192,95241,1,0,0:0:0:0:
64,192,95241,1,0,0:0:0:0:
448,192,95330,1,0,0:0:0:0:
192,192,95330,1,0,0:0:0:0:
320,192,95509,1,0,0:0:0:0:
448,192,95598,1,0,0:0:0:0:
192,192,95598,1,0,0:0:0:0:
192,192,95777,1,0,0:0:0:0:
320,192,95866,1,0,0:0:0:0:
64,192,95866,1,0,0:0:0:0:
64,192,96045,1,0,0:0:0:0:
320,192,96134,1,0,0:0:0:0:
192,192,96134,128,0,97384:0:0:0:0:
448,192,96312,1,0,0:0:0:0:
448,192,96491,1,0,0:0:0:0:
320,192,96580,1,0,0:0:0:0:
64,192,96670,1,0,0:0:0:0:
448,192,96759,1,0,0:0:0:0:
320,192,96848,1,0,0:0:0:0:
64,192,96937,1,0,0:0:0:0:
64,192,97205,1,0,0:0:0:0:
320,192,97295,1,0,0:0:0:0:
64,192,97384,1,0,0:0:0:0:
448,192,97562,1,0,0:0:0:0:
320,192,97562,1,0,0:0:0:0:
192,192,97741,1,0,0:0:0:0:
320,192,97741,1,0,0:0:0:0:
448,192,97920,1,0,0:0:0:0:
320,192,98098,1,0,0:0:0:0:
192,192,98098,1,0,0:0:0:0:
64,192,98187,1,0,0:0:0:0:
320,192,98277,1,0,0:0:0:0:
448,192,98366,1,0,0:0:0:0:
192,192,98455,1,0,0:0:0:0:
64,192,98455,128,0,99884:0:0:0:0:
448,192,98812,128,0,99170:0:0:0:0:
320,192,99170,1,0,0:0:0:0:
192,192,99259,1,0,0:0:0:0:
448,192,99437,1,0,0:0:0:0:
320,192,99527,1,0,0:0:0:0:
192,192,99571,1,0,0:0:0:0:
448,192,99616,1,0,0:0:0:0:
320,192,99661,1,0,0:0:0:0:
192,192,99705,1,0,0:0:0:0:
448,192,99750,1,0,0:0:0:0:
320,192,99795,1,0,0:0:0:0:
192,192,99839,1,0,0:0:0:0:
448,192,99884,1,0,0:0:0:0:
448,192,100062,1,0,0:0:0:0:
320,192,100152,1,0,0:0:0:0:
192,192,100241,1,0,0:0:0:0:
64,192,100241,1,0,0:0:0:0:
320,192,100330,1,0,0:0:0:0:
448,192,100420,128,0,100598:0:0:0:0:
320,192,100777,1,0,0:0:0:0:
64,192,100777,1,0,0:0:0:0:
192,192,100866,1,0,0:0:0:0:
448,192,100866,1,0,0:0:0:0:
320,192,100955,1,0,0:0:0:0:
64,192,100955,128,0,101134:0:0:0:0:
320,192,101134,1,0,0:0:0:0:
192,192,101312,1,0,0:0:0:0:
320,192,101312,1,0,0:0:0:0:
64,192,101580,1,0,0:0:0:0:
320,192,101670,1,0,0:0:0:0:
192,192,101670,1,0,0:0:0:0:
192,192,101848,1,0,0:0:0:0:
448,192,101848,1,0,0:0:0:0:
320,192,102027,1,0,0:0:0:0:
64,192,102027,1,0,0:0:0:0:
448,192,102384,128,0,102652:0:0:0:0:
320,192,102696,1,0,0:0:0:0:
448,192,102741,1,0,0:0:0:0:
192,192,102741,1,0,0:0:0:0:
192,192,102920,1,0,0:0:0:0:
320,192,103098,1,0,0:0:0:0:
192,192,103187,1,0,0:0:0:0:
320,192,103277,1,0,0:0:0:0:
192,192,103366,1,0,0:0:0:0:
320,192,103455,1,0,0:0:0:0:
64,192,103455,1,0,0:0:0:0:
448,192,103634,1,0,0:0:0:0:
64,192,103812,1,0,0:0:0:0:
448,192,103812,1,0,0:0:0:0:
192,192,103902,1,0,0:0:0:0:
320,192,103991,128,0,104527:0:0:0:0:
64,192,104348,1,0,0:0:0:0:
192,192,104437,1,0,0:0:0:0:
448,192,104527,1,0,0:0:0:0:
192,192,104616,1,0,0:0:0:0:
64,192,104705,1,0,0:0:0:0:
448,192,104795,1,0,0:0:0:0:
192,192,104884,1,0,0:0:0:0:
64,192,104973,1,0,0:0:0:0:
448,192,105062,128,0,105420:0:0:0:0:
320,192,105241,1,0,0:0:0:0:
64,192,105420,1,0,0:0:0:0:
192,192,105598,1,0,0:0:0:0:
320,192,105598,1,0,0:0:0:0:
320,192,105777,1,0,0:0:0:0:
448,192,105777,1,0,0:0:0:0:
448,192,105955,1,0,0:0:0:0:
320,192,106000,1,0,0:0:0:0:
192,192,106045,1,0,0:0:0:0:
64,192,106089,1,0,0:0:0:0:
448,192,106134,1,0,0:0:0:0:
320,192,106178,1,0,0:0:0:0:
192,192,106223,1,0,0:0:0:0:
64,192,106268,1,0,0:0:0:0:
448,192,106312,1,0,0:0:0:0:
320,192,106357,1,0,0:0:0:0:
64,192,106402,1,0,0:0:0:0:
192,192,106446,1,0,0:0:0:0:
320,192,106491,1,0,0:0:0:0:
448,192,106536,1,0,0:0:0:0:
64,192,106580,1,0,0:0:0:0:
192,192,106625,1,0,0:0:0:0:
320,192,106670,1,0,0:0:0:0:
448,192,106714,1,0,0:0:0:0:
64,192,106759,1,0,0:0:0:0:
192,192,106803,1,0,0:0:0:0:
448,192,106893,1,0,0:0:0:0:
192,192,106937,1,0,0:0:0:0:
320,192,106982,1,0,0:0:0:0:
448,192,107027,1,0,0:0:0:0:
64,192,107027,1,0,0:0:0:0:
320,192,107205,1,0,0:0:0:0:
192,192,107295,1,0,0:0:0:0:
320,192,107384,1,0,0:0:0:0:
448,192,107562,1,0,0:0:0:0:
320,192,107562,1,0,0:0:0:0:
192,192,107652,1,0,0:0:0:0:
64,192,107741,1,0,0:0:0:0:
320,192,107741,1,0,0:0:0:0:
64,192,107920,1,0,0:0:0:0:
192,192,108009,1,0,0:0:0:0:
64,192,108098,1,0,0:0:0:0:
448,192,108098,1,0,0:0:0:0:
320,192,108277,1,0,0:0:0:0:
320,192,108455,1,0,0:0:0:0:
192,192,108455,1,0,0:0:0:0:
448,192,108634,1,0,0:0:0:0:
64,192,108634,1,0,0:0:0:0:
320,192,108812,1,0,0:0:0:0:
192,192,108902,1,0,0:0:0:0:
320,192,108991,1,0,0:0:0:0:
64,192,109080,1,0,0:0:0:0:
448,192,109170,128,0,110241:0:0:0:0:
320,192,109170,1,0,0:0:0:0:
320,192,109437,1,0,0:0:0:0:
64,192,109616,1,0,0:0:0:0:
320,192,109705,1,0,0:0:0:0:
192,192,109973,1,0,0:0:0:0:
64,192,110062,1,0,0:0:0:0:
320,192,110241,128,0,110598:0:0:0:0:
192,192,110241,128,0,110777:0:0:0:0:
64,192,110598,128,0,110777:0:0:0:0:
448,192,110955,1,0,0:0:0:0:
320,192,111045,1,0,0:0:0:0:
192,192,111134,1,0,0:0:0:0:
64,192,111223,1,0,0:0:0:0:
192,192,111312,1,0,0:0:0:0:
448,192,111312,1,0,0:0:0:0:
320,192,111491,1,0,0:0:0:0:
448,192,111491,1,0,0:0:0:0:
320,192,111670,1,0,0:0:0:0:
64,192,111670,1,0,0:0:0:0:
192,192,111848,1,0,0:0:0:0:
64,192,112027,1,0,0:0:0:0:
448,192,112027,1,0,0:0:0:0:
192,192,112384,1,0,0:0:0:0:
320,192,112384,1,0,0:0:0:0:
320,192,112562,1,0,0:0:0:0:
64,192,112562,1,0,0:0:0:0:
448,192,112741,1,0,0:0:0:0:
320,192,112741,1,0,0:0:0:0:
448,192,113098,1,0,0:0:0:0:
64,192,113098,1,0,0:0:0:0:
192,192,113277,1,0,0:0:0:0:
320,192,113455,128,0,113991:0:0:0:0:
448,192,113455,1,0,0:0:0:0:
64,192,113634,1,0,0:0:0:0:
64,192,113812,1,0,0:0:0:0:
192,192,113991,1,0,0:0:0:0:
64,192,114170,1,0,0:0:0:0:
448,192,114170,1,0,0:0:0:0:
320,192,114348,1,0,0:0:0:0:
192,192,114527,128,0,115062:0:0:0:0:
64,192,114527,128,0,115062:0:0:0:0:
448,192,114884,1,0,0:0:0:0:
320,192,115062,1,0,0:0:0:0:
448,192,115241,1,0,0:0:0:0:
320,192,115598,1,0,0:0:0:0:
64,192,115598,1,0,0:0:0:0:
192,192,115777,1,0,0:0:0:0:
320,192,115955,1,0,0:0:0:0:
448,192,115955,1,0,0:0:0:0:
448,192,116134,1,0,0:0:0:0:
320,192,116312,1,0,0:0:0:0:
192,192,116312,1,0,0:0:0:0:
320,192,116670,1,0,0:0:0:0:
64,192,116670,1,0,0:0:0:0:
192,192,116848,1,0,0:0:0:0:
320,192,117027,128,0,117384:0:0:0:0:
448,192,117027,1,0,0:0:0:0:
448,192,117384,128,0,117741:0:0:0:0:
192,192,117384,1,0,0:0:0:0:
320,192,117741,128,0,118098:0:0:0:0:
64,192,117741,1,0,0:0:0:0:
64,192,117920,1,0,0:0:0:0:
448,192,118098,1,0,0:0:0:0:
448,192,118277,1,0,0:0:0:0:
320,192,118455,1,0,0:0:0:0:
192,192,118455,1,0,0:0:0:0:
192,192,118634,1,0,0:0:0:0:
64,192,118812,128,0,119527:0:0:0:0:
192,192,118812,128,0,119705:0:0:0:0:
320,192,119170,1,0,0:0:0:0:
448,192,119259,1,0,0:0:0:0:
320,192,119348,1,0,0:0:0:0:
448,192,119437,1,0,0:0:0:0:
320,192,119527,1,0,0:0:0:0:
448,192,119616,1,0,0:0:0:0:
64,192,119705,1,0,0:0:0:0:
320,192,119795,1,0,0:0:0:0:
448,192,119884,128,0,120062:0:0:0:0:
320,192,120062,128,0,120241:0:0:0:0:
192,192,120062,1,0,0:0:0:0:
64,192,120152,1,0,0:0:0:0:
192,192,120241,128,0,120420:0:0:0:0:
448,192,120241,1,0,0:0:0:0:
320,192,120420,128,0,120598:0:0:0:0:
64,192,120420,1,0,0:0:0:0:
448,192,120598,128,0,120955:0:0:0:0:
192,192,120598,1,0,0:0:0:0:
64,192,120777,1,0,0:0:0:0:
320,192,120866,1,0,0:0:0:0:
192,192,120955,128,0,121134:0:0:0:0:
64,192,120955,1,0,0:0:0:0:
320,192,121134,128,0,121312:0:0:0:0:
448,192,121134,1,0,0:0:0:0:
192,192,121312,128,0,121670:0:0:0:0:
448,192,121312,1,0,0:0:0:0:
64,192,121491,1,0,0:0:0:0:
448,192,121670,1,0,0:0:0:0:
320,192,121759,1,0,0:0:0:0:
448,192,121848,1,0,0:0:0:0:
320,192,121937,1,0,0:0:0:0:
192,192,122027,128,0,122205:0:0:0:0:
320,192,122205,128,0,122384:0:0:0:0:
448,192,122295,1,0,0:0:0:0:
192,192,122384,128,0,122562:0:0:0:0:
64,192,122384,1,0,0:0:0:0:
64,192,122562,128,0,122741:0:0:0:0:
320,192,122741,128,0,123098:0:0:0:0:
448,192,122741,1,0,0:0:0:0:
192,192,122920,1,0,0:0:0:0:
448,192,123009,1,0,0:0:0:0:
64,192,123098,128,0,123277:0:0:0:0:
192,192,123098,1,0,0:0:0:0:
192,192,123277,128,0,123455:0:0:0:0:
448,192,123277,1,0,0:0:0:0:
64,192,123455,128,0,123812:0:0:0:0:
448,192,123455,1,0,0:0:0:0:
192,192,123634,1,0,0:0:0:0:
448,192,123812,1,0,0:0:0:0:
320,192,123812,1,0,0:0:0:0:
192,192,123902,1,0,0:0:0:0:
192,192,124080,1,0,0:0:0:0:
64,192,124170,1,0,0:0:0:0:
320,192,124170,1,0,0:0:0:0:
192,192,124348,1,0,0:0:0:0:
448,192,124437,1,0,0:0:0:0:
320,192,124527,1,0,0:0:0:0:
64,192,124705,1,0,0:0:0:0:
448,192,124795,1,0,0:0:0:0:
192,192,124884,1,0,0:0:0:0:
320,192,124884,1,0,0:0:0:0:
320,192,125062,1,0,0:0:0:0:
64,192,125152,1,0,0:0:0:0:
192,192,125241,1,0,0:0:0:0:
320,192,125420,1,0,0:0:0:0:
448,192,125420,1,0,0:0:0:0:
448,192,125598,1,0,0:0:0:0:
320,192,125598,1,0,0:0:0:0:
192,192,125777,1,0,0:0:0:0:
64,192,125777,1,0,0:0:0:0:
320,192,125955,1,0,0:0:0:0:
448,192,126045,1,0,0:0:0:0:
192,192,126134,1,0,0:0:0:0:
64,192,126223,1,0,0:0:0:0:
320,192,126312,1,0,0:0:0:0:
448,192,126551,128,0,126789:0:0:0:0:
192,192,126789,1,0,0:0:0:0:
320,192,126967,1,0,0:0:0:0:
64,192,127146,1,0,0:0:0:0:
192,192,127384,1,0,0:0:0:0:
320,192,127384,1,0,0:0:0:0:
64,192,127384,1,0,0:0:0:0:
192,192,127741,128,0,127920:0:0:0:0:
320,192,127920,128,0,128098:0:0:0:0:
192,192,128098,128,0,128277:0:0:0:0:
64,192,128277,128,0,128455:0:0:0:0:
448,192,128455,128,0,130598:0:0:0:0:
192,192,128812,1,0,0:0:0:0:
64,192,128902,1,0,0:0:0:0:
320,192,128991,1,0,0:0:0:0:
192,192,129080,1,0,0:0:0:0:
64,192,129170,1,0,0:0:0:0:
320,192,129348,1,0,0:0:0:0:
192,192,129348,1,0,0:0:0:0:
64,192,129527,1,0,0:0:0:0:
320,192,129705,1,0,0:0:0:0:
192,192,129884,1,0,0:0:0:0:
320,192,130062,1,0,0:0:0:0:
64,192,130152,1,0,0:0:0:0:
192,192,130420,1,0,0:0:0:0:
320,192,130420,1,0,0:0:0:0:
64,192,130598,1,0,0:0:0:0:
320,192,130598,128,0,130866:0:0:0:0:
448,192,130777,1,0,0:0:0:0:
192,192,130866,1,0,0:0:0:0:
320,192,130955,128,0,131134:0:0:0:0:
64,192,130955,1,0,0:0:0:0:
192,192,131134,128,0,131312:0:0:0:0:
448,192,131134,1,0,0:0:0:0:
448,192,131312,128,0,131670:0:0:0:0:
64,192,131312,1,0,0:0:0:0:
192,192,131491,1,0,0:0:0:0:
64,192,131580,1,0,0:0:0:0:
320,192,131670,128,0,131848:0:0:0:0:
64,192,131759,1,0,0:0:0:0:
192,192,131848,128,0,132205:0:0:0:0:
64,192,132027,1,0,0:0:0:0:
320,192,132205,1,0,0:0:0:0:
448,192,132295,1,0,0:0:0:0:
64,192,132384,1,0,0:0:0:0:
320,192,132562,1,0,0:0:0:0:
448,192,132562,1,0,0:0:0:0:
192,192,132652,1,0,0:0:0:0:
64,192,132741,1,0,0:0:0:0:
320,192,132741,1,0,0:0:0:0:
448,192,132830,1,0,0:0:0:0:
320,192,132920,1,0,0:0:0:0:
192,192,133009,1,0,0:0:0:0:
64,192,133098,1,0,0:0:0:0:
320,192,133187,1,0,0:0:0:0:
192,192,133277,1,0,0:0:0:0:
448,192,133277,1,0,0:0:0:0:
64,192,133366,1,0,0:0:0:0:
320,192,133455,1,0,0:0:0:0:
448,192,133455,1,0,0:0:0:0:
192,192,133455,128,0,133723:0:0:0:0:
320,192,133634,1,0,0:0:0:0:
448,192,133634,1,0,0:0:0:0:
64,192,133723,1,0,0:0:0:0:
320,192,133812,1,0,0:0:0:0:
448,192,133812,1,0,0:0:0:0:
192,192,133812,1,0,0:0:0:0:
64,192,133902,128,0,134080:0:0:0:0:
320,192,133991,1,0,0:0:0:0:
448,192,133991,1,0,0:0:0:0:
192,192,134080,1,0,0:0:0:0:
320,192,134170,1,0,0:0:0:0:
448,192,134170,1,0,0:0:0:0:
64,192,134259,1,0,0:0:0:0:
192,192,134259,1,0,0:0:0:0:
448,192,134348,1,0,0:0:0:0:
192,192,134437,128,0,134705:0:0:0:0:
320,192,134437,128,0,134705:0:0:0:0:
64,192,134705,128,0,134884:0:0:0:0:
448,192,134884,128,0,135062:0:0:0:0:
192,192,135062,128,0,135241:0:0:0:0:
320,192,135062,1,0,0:0:0:0:
320,192,135241,128,0,135420:0:0:0:0:
64,192,135241,1,0,0:0:0:0:
192,192,135420,128,0,135598:0:0:0:0:
448,192,135464,1,0,0:0:0:0:
320,192,135598,128,0,135777:0:0:0:0:
64,192,135598,1,0,0:0:0:0:
192,192,135777,1,0,0:0:0:0:
448,192,135777,1,0,0:0:0:0:
320,192,135866,1,0,0:0:0:0:
448,192,135955,128,0,136134:0:0:0:0:
64,192,136045,1,0,0:0:0:0:
320,192,136134,1,0,0:0:0:0:
64,192,136312,1,0,0:0:0:0:
448,192,136312,1,0,0:0:0:0:
192,192,136312,1,0,0:0:0:0:
320,192,136402,1,0,0:0:0:0:
64,192,136491,1,0,0:0:0:0:
448,192,136491,1,0,0:0:0:0:
192,192,136491,1,0,0:0:0:0:
320,192,136580,1,0,0:0:0:0:
448,192,136670,1,0,0:0:0:0:
320,192,136759,1,0,0:0:0:0:
64,192,136759,1,0,0:0:0:0:
192,192,136848,1,0,0:0:0:0:
448,192,136848,1,0,0:0:0:0:
64,192,136937,1,0,0:0:0:0:
192,192,137027,1,0,0:0:0:0:
448,192,137027,1,0,0:0:0:0:
320,192,137116,1,0,0:0:0:0:
64,192,137116,1,0,0:0:0:0:
192,192,137205,1,0,0:0:0:0:
320,192,137295,1,0,0:0:0:0:
448,192,137384,128,0,137741:0:0:0:0:
192,192,137518,1,0,0:0:0:0:
320,192,137562,1,0,0:0:0:0:
64,192,137741,128,0,138187:0:0:0:0:
192,192,137741,1,0,0:0:0:0:
320,192,137830,1,0,0:0:0:0:
192,192,137920,1,0,0:0:0:0:
320,192,138009,128,0,138187:0:0:0:0:
64,192,138277,128,0,138723:0:0:0:0:
448,192,138277,1,0,0:0:0:0:
192,192,138366,1,0,0:0:0:0:
448,192,138455,1,0,0:0:0:0:
192,192,138545,128,0,138723:0:0:0:0:
64,192,138812,128,0,138991:0:0:0:0:
320,192,138812,1,0,0:0:0:0:
448,192,138902,1,0,0:0:0:0:
192,192,138991,128,0,139348:0:0:0:0:
320,192,139170,1,0,0:0:0:0:
64,192,139348,1,0,0:0:0:0:
320,192,139348,1,0,0:0:0:0:
192,192,139527,1,0,0:0:0:0:
448,192,139527,1,0,0:0:0:0:
64,192,139616,1,0,0:0:0:0:
320,192,139616,1,0,0:0:0:0:
192,192,139705,1,0,0:0:0:0:
320,192,139795,1,0,0:0:0:0:
448,192,139884,1,0,0:0:0:0:
64,192,139973,1,0,0:0:0:0:
192,192,140062,1,0,0:0:0:0:
320,192,140152,128,0,140420:0:0:0:0:
64,192,140152,1,0,0:0:0:0:
192,192,140420,1,0,0:0:0:0:
448,192,140598,1,0,0:0:0:0:
192,192,140598,1,0,0:0:0:0:
320,192,140687,1,0,0:0:0:0:
448,192,140777,1,0,0:0:0:0:
64,192,140777,1,0,0:0:0:0:
192,192,140866,1,0,0:0:0:0:
448,192,140955,1,0,0:0:0:0:
320,192,140955,1,0,0:0:0:0:
192,192,141045,1,0,0:0:0:0:
64,192,141045,1,0,0:0:0:0:
448,192,141089,128,0,141312:0:0:0:0:
320,192,141134,1,0,0:0:0:0:
192,192,141223,1,0,0:0:0:0:
64,192,141312,1,0,0:0:0:0:
192,192,141402,1,0,0:0:0:0:
320,192,141491,1,0,0:0:0:0:
448,192,141580,128,0,142027:0:0:0:0:
64,192,141670,1,0,0:0:0:0:
192,192,141714,1,0,0:0:0:0:
320,192,141759,1,0,0:0:0:0:
64,192,141803,1,0,0:0:0:0:
192,192,141848,128,0,142027:0:0:0:0:
320,192,142027,128,0,142741:0:0:0:0:
64,192,142027,1,0,0:0:0:0:
192,192,142116,1,0,0:0:0:0:
448,192,142205,1,0,0:0:0:0:
64,192,142295,1,0,0:0:0:0:
448,192,142384,1,0,0:0:0:0:
192,192,142473,128,0,142741:0:0:0:0:
64,192,142741,128,0,143455:0:0:0:0:
448,192,142741,1,0,0:0:0:0:
320,192,142830,1,0,0:0:0:0:
192,192,142920,1,0,0:0:0:0:
320,192,143009,1,0,0:0:0:0:
448,192,143098,1,0,0:0:0:0:
320,192,143187,128,0,143455:0:0:0:0:
448,192,143455,128,0,143812:0:0:0:0:
192,192,143455,1,0,0:0:0:0:
192,192,143634,1,0,0:0:0:0:
64,192,143723,1,0,0:0:0:0:
320,192,143812,128,0,144170:0:0:0:0:
192,192,143812,1,0,0:0:0:0:
64,192,143902,1,0,0:0:0:0:
448,192,144080,1,0,0:0:0:0:
192,192,144170,128,0,144661:0:0:0:0:
64,192,144170,1,0,0:0:0:0:
448,192,144348,1,0,0:0:0:0:
320,192,144437,1,0,0:0:0:0:
64,192,144616,1,0,0:0:0:0:
320,192,144705,1,0,0:0:0:0:
192,192,144884,1,0,0:0:0:0:
64,192,144884,1,0,0:0:0:0:
320,192,144973,1,0,0:0:0:0:
448,192,145062,1,0,0:0:0:0:
320,192,145152,1,0,0:0:0:0:
192,192,145241,1,0,0:0:0:0:
320,192,145420,1,0,0:0:0:0:
192,192,145420,1,0,0:0:0:0:
448,192,145509,1,0,0:0:0:0:
192,192,145598,1,0,0:0:0:0:
64,192,145687,1,0,0:0:0:0:
192,192,145777,1,0,0:0:0:0:
320,192,145955,1,0,0:0:0:0:
448,192,145955,1,0,0:0:0:0:
192,192,146045,1,0,0:0:0:0:
320,192,146134,1,0,0:0:0:0:
192,192,146223,1,0,0:0:0:0:
320,192,146312,1,0,0:0:0:0:
64,192,146312,1,0,0:0:0:0:
448,192,146402,1,0,0:0:0:0:
320,192,146491,1,0,0:0:0:0:
64,192,146491,1,0,0:0:0:0:
192,192,146580,1,0,0:0:0:0:
320,192,146670,128,0,146848:0:0:0:0:
64,192,146670,1,0,0:0:0:0:
448,192,146848,128,0,147027:0:0:0:0:
64,192,146848,1,0,0:0:0:0:
320,192,147027,128,0,147384:0:0:0:0:
64,192,147027,1,0,0:0:0:0:
192,192,147741,1,0,0:0:0:0:
320,192,147741,1,0,0:0:0:0:
64,192,147830,1,0,0:0:0:0:
192,192,147920,1,0,0:0:0:0:
448,192,147920,1,0,0:0:0:0:
320,192,148009,1,0,0:0:0:0:
192,192,148098,1,0,0:0:0:0:
64,192,148098,1,0,0:0:0:0:
192,192,148277,1,0,0:0:0:0:
320,192,148277,128,0,148455:0:0:0:0:
192,192,148455,1,0,0:0:0:0:
448,192,148455,128,0,149170:0:0:0:0:
192,192,149170,1,0,0:0:0:0:
320,192,149259,1,0,0:0:0:0:
192,192,149348,1,0,0:0:0:0:
64,192,149437,1,0,0:0:0:0:
192,192,149527,1,0,0:0:0:0:
448,192,149616,1,0,0:0:0:0:
320,192,149705,1,0,0:0:0:0:
192,192,149795,1,0,0:0:0:0:
64,192,149884,1,0,0:0:0:0:
192,192,149973,1,0,0:0:0:0:
320,192,150062,1,0,0:0:0:0:
448,192,150152,1,0,0:0:0:0:
64,192,150241,1,0,0:0:0:0:
192,192,150241,1,0,0:0:0:0:
320,192,150420,1,0,0:0:0:0:
448,192,150420,1,0,0:0:0:0:
192,192,150598,1,0,0:0:0:0:
320,192,150687,1,0,0:0:0:0:
64,192,150777,1,0,0:0:0:0:
192,192,150866,1,0,0:0:0:0:
448,192,150955,1,0,0:0:0:0:
320,192,151045,1,0,0:0:0:0:
64,192,151134,1,0,0:0:0:0:
192,192,151223,1,0,0:0:0:0:
320,192,151312,1,0,0:0:0:0:
448,192,151312,1,0,0:0:0:0:
192,192,151670,1,0,0:0:0:0:
448,192,151893,1,0,0:0:0:0:
320,192,151937,1,0,0:0:0:0:
192,192,152027,128,0,152205:0:0:0:0:
64,192,152116,1,0,0:0:0:0:
320,192,152205,1,0,0:0:0:0:
448,192,152295,1,0,0:0:0:0:
64,192,152384,1,0,0:0:0:0:
320,192,152473,1,0,0:0:0:0:
448,192,152562,1,0,0:0:0:0:
192,192,152652,128,0,152920:0:0:0:0:
320,192,152920,1,0,0:0:0:0:
320,192,153098,1,0,0:0:0:0:
448,192,153098,1,0,0:0:0:0:
192,192,153187,1,0,0:0:0:0:
64,192,153277,1,0,0:0:0:0:
192,192,153366,1,0,0:0:0:0:
320,192,153455,1,0,0:0:0:0:
448,192,153455,128,0,153812:0:0:0:0:
192,192,153545,1,0,0:0:0:0:
320,192,153634,1,0,0:0:0:0:
64,192,153723,1,0,0:0:0:0:
192,192,153812,1,0,0:0:0:0:
320,192,153812,128,0,154170:0:0:0:0:
64,192,153902,1,0,0:0:0:0:
192,192,153991,1,0,0:0:0:0:
448,192,154080,128,0,154348:0:0:0:0:
192,192,154170,1,0,0:0:0:0:
64,192,154170,128,0,154884:0:0:0:0:
320,192,154348,1,0,0:0:0:0:
192,192,154527,1,0,0:0:0:0:
320,192,154616,1,0,0:0:0:0:
320,192,154795,1,0,0:0:0:0:
448,192,154884,1,0,0:0:0:0:
192,192,154884,1,0,0:0:0:0:
320,192,154973,1,0,0:0:0:0:
64,192,155062,1,0,0:0:0:0:
448,192,155062,1,0,0:0:0:0:
192,192,155152,1,0,0:0:0:0:
320,192,155152,1,0,0:0:0:0:
448,192,155241,1,0,0:0:0:0:
192,192,155330,1,0,0:0:0:0:
64,192,155330,1,0,0:0:0:0:
320,192,155420,1,0,0:0:0:0:
448,192,155420,1,0,0:0:0:0:
192,192,155509,1,0,0:0:0:0:
320,192,155598,1,0,0:0:0:0:
64,192,155598,1,0,0:0:0:0:
448,192,155687,1,0,0:0:0:0:
192,192,155777,1,0,0:0:0:0:
64,192,155866,1,0,0:0:0:0:
192,192,155955,1,0,0:0:0:0:
320,192,155955,1,0,0:0:0:0:
192,192,156134,1,0,0:0:0:0:
448,192,156134,1,0,0:0:0:0:
320,192,156223,128,0,157205:0:0:0:0:
64,192,156312,1,0,0:0:0:0:
192,192,156402,1,0,0:0:0:0:
448,192,156580,1,0,0:0:0:0:
192,192,156670,1,0,0:0:0:0:
64,192,156937,1,0,0:0:0:0:
192,192,157027,1,0,0:0:0:0:
448,192,157071,128,0,157295:0:0:0:0:
192,192,157205,1,0,0:0:0:0:
64,192,157384,1,0,0:0:0:0:
192,192,157473,1,0,0:0:0:0:
320,192,157562,1,0,0:0:0:0:
448,192,157652,1,0,0:0:0:0:
64,192,157741,128,0,158098:0:0:0:0:
320,192,157741,1,0,0:0:0:0:
448,192,157830,1,0,0:0:0:0:
320,192,157920,1,0,0:0:0:0:
192,192,158009,1,0,0:0:0:0:
320,192,158098,1,0,0:0:0:0:
448,192,158187,1,0,0:0:0:0:
192,192,158187,1,0,0:0:0:0:
64,192,158277,1,0,0:0:0:0:
320,192,158277,1,0,0:0:0:0:
448,192,158366,128,0,158634:0:0:0:0:
320,192,158634,1,0,0:0:0:0:
64,192,158634,1,0,0:0:0:0:
320,192,158812,1,0,0:0:0:0:
448,192,158812,1,0,0:0:0:0:
192,192,158902,1,0,0:0:0:0:
64,192,158902,1,0,0:0:0:0:
192,192,159080,1,0,0:0:0:0:
64,192,159080,1,0,0:0:0:0:
320,192,159170,1,0,0:0:0:0:
192,192,159259,1,0,0:0:0:0:
320,192,159348,1,0,0:0:0:0:
448,192,159348,1,0,0:0:0:0:
192,192,159437,1,0,0:0:0:0:
64,192,159527,1,0,0:0:0:0:
320,192,159616,1,0,0:0:0:0:
448,192,159705,1,0,0:0:0:0:
192,192,159705,1,0,0:0:0:0:
64,192,159795,1,0,0:0:0:0:
320,192,159884,1,0,0:0:0:0:
192,192,159973,1,0,0:0:0:0:
320,192,160062,1,0,0:0:0:0:
64,192,160062,1,0,0:0:0:0:
448,192,160152,1,0,0:0:0:0:
64,192,160241,1,0,0:0:0:0:
320,192,160241,1,0,0:0:0:0:
448,192,160330,1,0,0:0:0:0:
192,192,160330,1,0,0:0:0:0:
64,192,160420,1,0,0:0:0:0:
192,192,160509,1,0,0:0:0:0:
448,192,160509,1,0,0:0:0:0:
64,192,160598,1,0,0:0:0:0:
320,192,160598,1,0,0:0:0:0:
448,192,160777,1,0,0:0:0:0:
192,192,160777,1,0,0:0:0:0:
320,192,160866,1,0,0:0:0:0:
64,192,160955,1,0,0:0:0:0:
320,192,161045,1,0,0:0:0:0:
192,192,161134,1,0,0:0:0:0:
448,192,161134,1,0,0:0:0:0:
192,192,161312,1,0,0:0:0:0:
320,192,161312,1,0,0:0:0:0:
64,192,161402,1,0,0:0:0:0:
320,192,161491,1,0,0:0:0:0:
448,192,161580,1,0,0:0:0:0:
192,192,161580,1,0,0:0:0:0:
320,192,161670,1,0,0:0:0:0:
64,192,161759,1,0,0:0:0:0:
192,192,161759,1,0,0:0:0:0:
320,192,161848,1,0,0:0:0:0:
448,192,161848,1,0,0:0:0:0:
192,192,161937,128,0,162741:0:0:0:0:
64,192,162027,1,0,0:0:0:0:
448,192,162205,1,0,0:0:0:0:
64,192,162384,1,0,0:0:0:0:
320,192,162473,1,0,0:0:0:0:
448,192,162562,1,0,0:0:0:0:
320,192,162741,1,0,0:0:0:0:
64,192,162741,128,0,162920:0:0:0:0:
192,192,163098,1,0,0:0:0:0:
320,192,163098,1,0,0:0:0:0:
64,192,163187,1,0,0:0:0:0:
320,192,163277,1,0,0:0:0:0:
192,192,163366,1,0,0:0:0:0:
448,192,163455,1,0,0:0:0:0:
64,192,163500,1,0,0:0:0:0:
320,192,163634,1,0,0:0:0:0:
448,192,163634,1,0,0:0:0:0:
192,192,163812,1,0,0:0:0:0:
64,192,163812,1,0,0:0:0:0:
320,192,163902,1,0,0:0:0:0:
192,192,163991,1,0,0:0:0:0:
448,192,163991,1,0,0:0:0:0:
320,192,164170,128,0,164348:0:0:0:0:
64,192,164170,1,0,0:0:0:0:
192,192,164348,128,0,164527:0:0:0:0:
448,192,164348,1,0,0:0:0:0:
64,192,164527,1,0,0:0:0:0:
448,192,164527,1,0,0:0:0:0:
320,192,164616,1,0,0:0:0:0:
192,192,164705,1,0,0:0:0:0:
448,192,164705,1,0,0:0:0:0:
64,192,164795,1,0,0:0:0:0:
320,192,164884,1,0,0:0:0:0:
448,192,164884,1,0,0:0:0:0:
192,192,164973,1,0,0:0:0:0:
64,192,165062,1,0,0:0:0:0:
320,192,165062,1,0,0:0:0:0:
192,192,165152,1,0,0:0:0:0:
448,192,165241,1,0,0:0:0:0:
320,192,165241,1,0,0:0:0:0:
192,192,165330,1,0,0:0:0:0:
64,192,165420,1,0,0:0:0:0:
320,192,165420,1,0,0:0:0:0:
448,192,165509,1,0,0:0:0:0:
320,192,165598,1,0,0:0:0:0:
64,192,165598,1,0,0:0:0:0:
192,192,165687,1,0,0:0:0:0:
64,192,165777,1,0,0:0:0:0:
448,192,165777,1,0,0:0:0:0:
320,192,165866,1,0,0:0:0:0:
64,192,165955,1,0,0:0:0:0:
192,192,166045,1,0,0:0:0:0:
448,192,166134,1,0,0:0:0:0:
320,192,166223,1,0,0:0:0:0:
192,192,166312,1,0,0:0:0:0:
64,192,166312,1,0,0:0:0:0:
320,192,166491,1,0,0:0:0:0:
448,192,166491,1,0,0:0:0:0:
192,192,166580,1,0,0:0:0:0:
64,192,166670,1,0,0:0:0:0:
192,192,166759,1,0,0:0:0:0:
64,192,166848,1,0,0:0:0:0:
320,192,166848,1,0,0:0:0:0:
448,192,167027,1,0,0:0:0:0:
192,192,167027,1,0,0:0:0:0:
320,192,167116,1,0,0:0:0:0:
448,192,167205,1,0,0:0:0:0:
192,192,167295,1,0,0:0:0:0:
320,192,167295,1,0,0:0:0:0:
64,192,167384,1,0,0:0:0:0:
448,192,167562,1,0,0:0:0:0:
192,192,167562,1,0,0:0:0:0:
320,192,167652,1,0,0:0:0:0:
64,192,167741,1,0,0:0:0:0:
192,192,167830,1,0,0:0:0:0:
64,192,167920,1,0,0:0:0:0:
320,192,167920,1,0,0:0:0:0:
448,192,168098,1,0,0:0:0:0:
64,192,168098,1,0,0:0:0:0:
320,192,168187,1,0,0:0:0:0:
192,192,168187,1,0,0:0:0:0:
448,192,168277,1,0,0:0:0:0:
320,192,168366,1,0,0:0:0:0:
192,192,168455,128,0,168991:0:0:0:0:
64,192,168455,1,0,0:0:0:0:
448,192,168545,1,0,0:0:0:0:
320,192,168634,1,0,0:0:0:0:
64,192,168723,1,0,0:0:0:0:
448,192,168812,1,0,0:0:0:0:
320,192,168902,1,0,0:0:0:0:
64,192,168991,1,0,0:0:0:0:
448,192,169080,1,0,0:0:0:0:
192,192,169170,1,0,0:0:0:0:
320,192,169170,128,0,169408:0:0:0:0:
64,192,169170,1,0,0:0:0:0:
192,192,169408,128,0,169586:0:0:0:0:
64,192,169408,1,0,0:0:0:0:
320,192,169527,1,0,0:0:0:0:
448,192,169527,1,0,0:0:0:0:
64,192,169705,1,0,0:0:0:0:
192,192,169705,1,0,0:0:0:0:
320,192,169705,1,0,0:0:0:0:
320,192,169884,1,0,0:0:0:0:
64,192,169884,1,0,0:0:0:0:
192,192,170062,1,0,0:0:0:0:
320,192,170062,1,0,0:0:0:0:
64,192,170241,1,0,0:0:0:0:
320,192,170241,1,0,0:0:0:0:
448,192,170241,1,0,0:0:0:0:
192,192,170330,1,0,0:0:0:0:
320,192,170420,1,0,0:0:0:0:
64,192,170420,1,0,0:0:0:0:
192,192,170598,1,0,0:0:0:0:
320,192,170598,1,0,0:0:0:0:
64,192,170717,1,0,0:0:0:0:
448,192,170777,1,0,0:0:0:0:
192,192,170955,1,0,0:0:0:0:
64,192,170955,1,0,0:0:0:0:
320,192,170955,1,0,0:0:0:0:
320,192,171134,1,0,0:0:0:0:
448,192,171134,1,0,0:0:0:0:
192,192,171312,1,0,0:0:0:0:
64,192,171312,1,0,0:0:0:0:
64,192,171491,1,0,0:0:0:0:
320,192,171491,1,0,0:0:0:0:
448,192,171670,128,0,171848:0:0:0:0:
320,192,171670,1,0,0:0:0:0:
192,192,171759,1,0,0:0:0:0:
64,192,171759,1,0,0:0:0:0:
320,192,172027,128,0,172265:0:0:0:0:
64,192,172027,1,0,0:0:0:0:
64,192,172205,1,0,0:0:0:0:
192,192,172265,128,0,172443:0:0:0:0:
320,192,172384,1,0,0:0:0:0:
448,192,172384,1,0,0:0:0:0:
64,192,172562,1,0,0:0:0:0:
320,192,172562,1,0,0:0:0:0:
192,192,172741,1,0,0:0:0:0:
64,192,172741,1,0,0:0:0:0:
320,192,172920,1,0,0:0:0:0:
448,192,172920,1,0,0:0:0:0:
192,192,173009,1,0,0:0:0:0:
320,192,173098,1,0,0:0:0:0:
64,192,173098,1,0,0:0:0:0:
448,192,173187,1,0,0:0:0:0:
320,192,173277,1,0,0:0:0:0:
192,192,173455,1,0,0:0:0:0:
64,192,173455,1,0,0:0:0:0:
320,192,173545,1,0,0:0:0:0:
192,192,173634,1,0,0:0:0:0:
448,192,173634,1,0,0:0:0:0:
64,192,173723,1,0,0:0:0:0:
192,192,173812,1,0,0:0:0:0:
320,192,173812,1,0,0:0:0:0:
448,192,173812,1,0,0:0:0:0:
320,192,173991,1,0,0:0:0:0:
192,192,173991,1,0,0:0:0:0:
64,192,173991,1,0,0:0:0:0:
448,192,174170,128,0,174348:0:0:0:0:
320,192,174170,1,0,0:0:0:0:
192,192,174348,1,0,0:0:0:0:
64,192,174527,1,0,0:0:0:0:
192,192,174527,1,0,0:0:0:0:
320,192,174616,1,0,0:0:0:0:
448,192,174616,1,0,0:0:0:0:
64,192,174705,1,0,0:0:0:0:
192,192,174705,1,0,0:0:0:0:
320,192,174795,1,0,0:0:0:0:
448,192,174795,1,0,0:0:0:0:
64,192,174884,1,0,0:0:0:0:
192,192,174884,128,0,175122:0:0:0:0:
448,192,175062,1,0,0:0:0:0:
320,192,175181,128,0,175360:0:0:0:0:
192,192,175241,1,0,0:0:0:0:
448,192,175241,1,0,0:0:0:0:
64,192,175420,1,0,0:0:0:0:
192,192,175420,1,0,0:0:0:0:
192,192,175598,1,0,0:0:0:0:
320,192,175598,1,0,0:0:0:0:
320,192,175777,1,0,0:0:0:0:
64,192,175777,1,0,0:0:0:0:
448,192,175955,1,0,0:0:0:0:
192,192,175955,1,0,0:0:0:0:
320,192,176045,1,0,0:0:0:0:
192,192,176134,1,0,0:0:0:0:
64,192,176134,1,0,0:0:0:0:
64,192,176312,1,0,0:0:0:0:
192,192,176312,1,0,0:0:0:0:
192,192,176491,1,0,0:0:0:0:
320,192,176491,1,0,0:0:0:0:
320,192,176670,1,0,0:0:0:0:
448,192,176670,1,0,0:0:0:0:
64,192,176848,1,0,0:0:0:0:
192,192,176848,1,0,0:0:0:0:
320,192,176848,1,0,0:0:0:0:
192,192,177027,1,0,0:0:0:0:
64,192,177027,1,0,0:0:0:0:
320,192,177205,1,0,0:0:0:0:
192,192,177205,1,0,0:0:0:0:
448,192,177384,128,0,177562:0:0:0:0:
320,192,177384,1,0,0:0:0:0:
64,192,177562,1,0,0:0:0:0:
320,192,177741,128,0,177979:0:0:0:0:
192,192,177979,128,0,178158:0:0:0:0:
64,192,178277,1,0,0:0:0:0:
320,192,178455,1,0,0:0:0:0:
192,192,178634,1,0,0:0:0:0:
64,192,178812,1,0,0:0:0:0:
192,192,178902,1,0,0:0:0:0:
320,192,178902,1,0,0:0:0:0:
448,192,178991,1,0,0:0:0:0:
320,192,179170,1,0,0:0:0:0:
64,192,179170,1,0,0:0:0:0:
448,192,179348,1,0,0:0:0:0:
192,192,179348,1,0,0:0:0:0:
64,192,179527,1,0,0:0:0:0:
320,192,179705,1,0,0:0:0:0:
192,192,179705,1,0,0:0:0:0:
64,192,179884,1,0,0:0:0:0:
448,192,180062,1,0,0:0:0:0:
320,192,180062,1,0,0:0:0:0:
192,192,180152,1,0,0:0:0:0:
64,192,180152,1,0,0:0:0:0:
64,192,180330,1,0,0:0:0:0:
192,192,180330,1,0,0:0:0:0:
448,192,180420,1,0,0:0:0:0:
320,192,180420,1,0,0:0:0:0:
320,192,180598,1,0,0:0:0:0:
64,192,180598,1,0,0:0:0:0:
448,192,180777,1,0,0:0:0:0:
192,192,180777,1,0,0:0:0:0:
64,192,180955,1,0,0:0:0:0:
320,192,181134,1,0,0:0:0:0:
64,192,181312,1,0,0:0:0:0:
192,192,181312,1,0,0:0:0:0:
448,192,181312,1,0,0:0:0:0:
64,192,181580,1,0,0:0:0:0:
192,192,181580,1,0,0:0:0:0:
320,192,181580,1,0,0:0:0:0:
448,192,181848,1,0,0:0:0:0:
320,192,181848,1,0,0:0:0:0:
64,192,181848,1,0,0:0:0:0:
192,192,182027,1,0,0:0:0:0:
320,192,182027,1,0,0:0:0:0:
64,192,182205,1,0,0:0:0:0:
320,192,182295,1,0,0:0:0:0:
64,192,182384,1,0,0:0:0:0:
192,192,182562,1,0,0:0:0:0:
64,192,182741,1,0,0:0:0:0:
320,192,182741,1,0,0:0:0:0:
448,192,182920,1,0,0:0:0:0:
192,192,183009,1,0,0:0:0:0:
64,192,183098,1,0,0:0:0:0:
448,192,183277,1,0,0:0:0:0:
192,192,183277,1,0,0:0:0:0:
320,192,183455,1,0,0:0:0:0:
448,192,183455,1,0,0:0:0:0:
192,192,183574,1,0,0:0:0:0:
64,192,183574,1,0,0:0:0:0:
320,192,183693,1,0,0:0:0:0:
448,192,183693,1,0,0:0:0:0:
64,192,183812,1,0,0:0:0:0:
192,192,183812,1,0,0:0:0:0:
192,192,183991,1,0,0:0:0:0:
320,192,183991,1,0,0:0:0:0:
64,192,184170,1,0,0:0:0:0:
448,192,184170,1,0,0:0:0:0:
192,192,184259,1,0,0:0:0:0:
320,192,184259,1,0,0:0:0:0:
320,192,184437,128,0,184705:0:0:0:0:
64,192,184437,128,0,184705:0:0:0:0:
448,192,184705,128,0,184884:0:0:0:0:
64,192,184884,1,0,0:0:0:0:
192,192,184884,1,0,0:0:0:0:
320,192,185062,1,0,0:0:0:0:
64,192,185241,1,0,0:0:0:0:
192,192,185420,1,0,0:0:0:0:
448,192,185420,1,0,0:0:0:0:
64,192,185598,1,0,0:0:0:0:
320,192,185598,1,0,0:0:0:0:
448,192,185777,1,0,0:0:0:0:
320,192,185866,1,0,0:0:0:0:
192,192,185955,1,0,0:0:0:0:
448,192,186089,1,0,0:0:0:0:
64,192,186312,1,0,0:0:0:0:
192,192,186312,1,0,0:0:0:0:
320,192,186312,1,0,0:0:0:0:
64,192,186491,1,0,0:0:0:0:
192,192,186491,1,0,0:0:0:0:
320,192,186491,1,0,0:0:0:0:
448,192,186670,1,0,0:0:0:0:
320,192,186759,1,0,0:0:0:0:
192,192,186848,1,0,0:0:0:0:
64,192,187027,1,0,0:0:0:0:
448,192,187027,128,0,187741:0:0:0:0:
192,192,187116,1,0,0:0:0:0:
320,192,187205,1,0,0:0:0:0:
64,192,187384,1,0,0:0:0:0:
192,192,187473,1,0,0:0:0:0:
320,192,187562,1,0,0:0:0:0:
192,192,187652,1,0,0:0:0:0:
64,192,187741,1,0,0:0:0:0:
192,192,187830,1,0,0:0:0:0:
320,192,187920,1,0,0:0:0:0:
448,192,188455,1,0,0:0:0:0:
320,192,188545,1,0,0:0:0:0:
192,192,188634,1,0,0:0:0:0:
320,192,188991,128,0,189170:0:0:0:0:
64,192,188991,1,0,0:0:0:0:
192,192,188991,1,0,0:0:0:0:
448,192,189170,128,0,189646:0:0:0:0:
192,192,189229,1,0,0:0:0:0:
64,192,189229,1,0,0:0:0:0:
320,192,189646,128,0,189824:0:0:0:0:
64,192,189646,1,0,0:0:0:0:
192,192,189646,1,0,0:0:0:0:
448,192,189765,1,0,0:0:0:0:
192,192,189824,128,0,190062:0:0:0:0:
448,192,189943,1,0,0:0:0:0:
64,192,190062,128,0,192562:0:0:0:0:
320,192,190062,1,0,0:0:0:0:
448,192,190181,1,0,0:0:0:0:
320,192,190301,1,0,0:0:0:0:
192,192,190420,1,0,0:0:0:0:
320,192,190539,1,0,0:0:0:0:
448,192,190658,1,0,0:0:0:0:
320,192,190777,1,0,0:0:0:0:
192,192,190896,1,0,0:0:0:0:
448,192,190896,1,0,0:0:0:0:
192,192,191134,1,0,0:0:0:0:
320,192,191134,1,0,0:0:0:0:
192,192,191372,1,0,0:0:0:0:
320,192,191372,1,0,0:0:0:0:
448,192,191551,1,0,0:0:0:0:
192,192,191610,1,0,0:0:0:0:
320,192,191670,1,0,0:0:0:0:
192,192,191848,1,0,0:0:0:0:
448,192,191848,1,0,0:0:0:0:
320,192,192086,1,0,0:0:0:0:
192,192,192146,1,0,0:0:0:0:
448,192,192265,1,0,0:0:0:0:
192,192,192473,1,0,0:0:0:0:
448,192,192473,1,0,0:0:0:0:
320,192,192652,1,0,0:0:0:0:
192,192,192741,1,0,0:0:0:0:
448,192,192830,1,0,0:0:0:0:
192,192,193009,1,0,0:0:0:0:
64,192,193009,1,0,0:0:0:0:
