osu file format v14

[General]
AudioFilename: Twelve Days of Christmas.mp3
AudioLeadIn: 0
PreviewTime: 410
Countdown: 0
SampleSet: Soft
StackLeniency: 0.7
Mode: 0
LetterboxInBreaks: 1
WidescreenStoryboard: 0

[Editor]
DistanceSpacing: 1.1
BeatDivisor: 3
GridSize: 32
TimelineZoom: 1

[Metadata]
Title:Twelve Days of Christmas
TitleUnicode:Twelve Days of Christmas
Artist:Pinkie Pie
ArtistUnicode:Pinkie Pie
Creator:CommunistPony
Version:Big Bowl of Ravioli
Source:A Pony Kind of Christmas
Tags:christmas mlp
BeatmapID:1134946
BeatmapSetID:535854

[Difficulty]
HPDrainRate:7
CircleSize:5
OverallDifficulty:6
ApproachRate:9
SliderMultiplier:1.5
SliderTickRate:1

[Events]
//Background and Video events
0,0,"thing.jpg",0,0
//Break Periods
//Storyboard Layer 0 (Background)
//Storyboard Layer 1 (Fail)
//Storyboard Layer 2 (Pass)
//Storyboard Layer 3 (Foreground)
//Storyboard Sound Samples

[TimingPoints]
400,419.58041958042,4,2,0,100,1,0
18032,-100,4,2,0,100,0,1
18058,-100,4,2,0,100,0,0
25561,418.118466898955,3,2,0,100,1,0
26815,418.118466898955,4,2,0,100,1,0
35213,418.118466898955,3,2,0,100,1,0
37721,418.118466898955,4,2,0,100,1,0
38139,-100,4,2,0,100,0,1
38165,-100,4,2,0,100,0,0
46099,508.474576271186,4,2,0,100,1,0
52256,355.029585798817,3,2,0,100,1,0
54386,355.029585798817,4,2,0,100,1,0
54741,-100,4,2,0,100,0,1
54763,-100,4,2,0,100,0,0
59477,408.163265306122,4,2,0,100,1,0
62742,375,3,2,0,100,1,0
63867,419.58041958042,4,2,0,100,1,0
68379,342.857142857143,3,2,0,100,1,0
70496,352.941176470588,4,2,0,100,1,0
70500,-100,4,2,0,100,0,1
70518,-100,4,2,0,100,0,0
75084,392.156862745098,4,2,0,100,1,0
78221,382.165605095541,3,2,0,100,1,0
80513,428.571428571429,4,2,0,100,1,0
86011,329.67032967033,3,2,0,100,1,0
87989,329.67032967033,4,2,0,100,1,0
88339,-100,4,2,0,100,0,1
88359,-100,4,2,0,100,0,0
89307,335.195530726257,4,2,0,100,1,0
90003,387.096774193548,4,2,0,100,1,0
93564,418.118466898955,4,2,0,100,1,0
95236,408.163265306122,4,2,0,100,1,0
95644,387.096774193548,4,2,0,100,1,0
96031,363.636363636364,4,2,0,100,1,0
96977,333.333333333333,3,2,0,100,1,0
98977,370.37037037037,3,2,0,100,1,0
100088,461.538461538462,4,2,0,100,1,0
104431,338.983050847458,3,2,0,100,1,0
106464,338.983050847458,4,2,0,100,1,0
106824,-100,4,2,0,100,0,1
106845,-100,4,2,0,100,0,0
111780,418.118466898955,4,2,0,100,1,0
115124,359.281437125748,3,2,0,100,1,0
119435,387.096774193548,4,2,0,100,1,0
123237,333.333333333333,3,2,0,100,1,0
125237,333.333333333333,4,2,0,100,1,0
125237,-100,4,2,0,100,0,1
125257,-100,4,2,0,100,0,0
130169,461.538461538462,4,2,0,100,1,0
132476,428.571428571429,4,2,0,100,1,0
132904,400,4,2,0,100,1,0
133704,400,3,2,0,100,1,0
134904,375,3,2,0,100,1,0
136029,342.857142857143,3,2,0,100,1,0
137057,300,3,2,0,100,1,0
137957,279.06976744186,3,2,0,100,1,0
138794,428.571428571429,4,2,0,100,1,0
142222,333.333333333333,3,2,0,100,1,0
144222,333.333333333333,4,2,0,100,1,0
146222,352.941176470588,4,2,0,100,1,0
146927,428.571428571429,4,2,0,100,1,0
150963,600,4,2,0,100,1,0
153363,500,4,2,0,100,1,0
154363,461.538461538462,4,2,0,100,1,0
155927,500,3,2,0,100,1,0
157427,400,3,2,0,100,1,0
158627,342.857142857143,3,2,0,100,1,0
159655,324.324324324324,3,2,0,100,1,0
162573,400,4,2,0,100,1,0
166874,307.692307692308,3,2,0,100,1,0
168720,307.692307692308,4,2,0,100,1,0
170566,342.857142857143,4,2,0,100,1,0
171251,352.941176470588,4,2,0,100,1,0
175390,480,4,2,0,100,1,0
180190,342.857142857143,3,2,0,100,1,0
181218,300,3,2,0,100,1,0
182118,279.06976744186,3,2,0,100,1,0
183792,264.31718061674,3,2,0,100,1,0
184584,255.31914893617,3,2,0,100,1,0
185349,250,3,2,0,100,1,0
186065,428.571428571429,4,2,0,100,1,0
189065,260.869565217391,3,2,0,100,1,0
190630,260.869565217391,4,2,0,100,1,0
190630,-100,4,2,0,100,0,1
190646,-100,4,2,0,100,0,0
191673,545.454545454546,4,2,0,100,1,0

[HitObjects]
96,96,7113,6,0,B|160:96|160:96|192:64|192:64|208:64,1,100
416,192,7532,2,0,B|352:192|352:192|320:224|320:224|304:224,1,100
176,320,7952,2,0,L|336:320|336:320,1,150
192,192,8581,5,0,0:0:0:0:
320,192,8791,1,0,0:0:0:0:
128,192,9001,1,0,0:0:0:0:
384,192,9211,1,0,0:0:0:0:
64,192,9420,1,0,0:0:0:0:
448,192,9630,1,0,0:0:0:0:
48,240,10479,6,0,P|48:152|72:136,1,100
464,144,10899,2,0,P|464:232|440:248,1,100
208,48,11319,2,0,P|296:48|312:72,1,100
304,336,11739,2,0,P|216:336|200:312,1,100
256,192,12158,12,4,12997,0:0:0:0:
96,96,13826,6,0,B|160:96|160:96|192:64|192:64|208:64,1,100
416,192,14245,2,0,B|352:192|352:192|320:224|320:224|304:224,1,100
176,320,14665,2,0,L|336:320|336:320,1,150
192,192,15294,5,0,0:0:0:0:
320,192,15504,1,0,0:0:0:0:
128,192,15714,1,0,0:0:0:0:
384,192,15924,1,0,0:0:0:0:
64,192,16133,1,0,0:0:0:0:
448,192,16343,1,0,0:0:0:0:
192,192,17193,5,4,0:0:0:0:
320,192,17403,1,0,0:0:0:0:
224,144,17612,1,0,0:0:0:0:
288,240,17822,1,0,0:0:0:0:
288,144,18032,1,0,0:0:0:0:
224,240,18242,1,0,0:0:0:0:
32,192,18451,5,0,0:0:0:0:
480,192,18661,1,0,0:0:0:0:
48,240,18871,6,0,P|48:152|72:136,1,100
464,144,19291,2,0,P|464:232|440:248,1,100
208,48,19711,2,0,P|296:48|312:72,1,100
304,336,20131,2,0,P|216:336|200:312,1,100
256,192,20549,12,4,21389,0:0:0:0:
96,96,22218,6,0,B|160:96|160:96|192:64|192:64|208:64,1,100
416,192,22637,2,0,B|352:192|352:192|320:224|320:224|304:224,1,100
176,320,23057,2,0,L|336:320|336:320,1,150
192,192,23686,5,0,0:0:0:0:
320,192,23896,1,0,0:0:0:0:
128,192,24106,1,0,0:0:0:0:
384,192,24316,1,0,0:0:0:0:
64,192,24525,1,0,0:0:0:0:
448,192,24735,1,0,0:0:0:0:
192,192,25561,5,4,0:0:0:0:
320,192,25771,1,0,0:0:0:0:
224,144,25980,1,0,0:0:0:0:
288,240,26190,1,0,0:0:0:0:
288,144,26400,1,0,0:0:0:0:
224,240,26610,1,0,0:0:0:0:
160,192,26815,5,4,0:0:0:0:
352,192,27025,1,0,0:0:0:0:
208,112,27234,1,0,0:0:0:0:
304,272,27444,1,0,0:0:0:0:
304,112,27654,1,0,0:0:0:0:
208,272,27864,1,0,0:0:0:0:
32,192,28069,5,0,0:0:0:0:
480,192,28278,1,0,0:0:0:0:
48,240,28487,6,0,P|48:152|72:136,1,100
464,144,28907,2,0,P|464:232|440:248,1,100
208,48,29327,2,0,P|296:48|312:72,1,100
304,336,29747,2,0,P|216:336|200:312,1,100
256,192,30159,12,4,30996,0:0:0:0:
96,96,31832,6,0,B|160:96|160:96|192:64|192:64|208:64,1,100
416,192,32251,2,0,B|352:192|352:192|320:224|320:224|304:224,1,100
176,320,32671,2,0,L|336:320|336:320,1,150
192,192,33300,5,0,0:0:0:0:
320,192,33510,1,0,0:0:0:0:
128,192,33720,1,0,0:0:0:0:
384,192,33930,1,0,0:0:0:0:
64,192,34139,1,0,0:0:0:0:
448,192,34349,1,0,0:0:0:0:
192,192,35213,5,4,0:0:0:0:
320,192,35422,1,0,0:0:0:0:
224,144,35631,1,0,0:0:0:0:
288,240,35840,1,0,0:0:0:0:
288,144,36049,1,0,0:0:0:0:
224,240,36258,1,0,0:0:0:0:
160,192,36467,5,4,0:0:0:0:
352,192,36676,1,0,0:0:0:0:
208,112,36885,1,0,0:0:0:0:
304,272,37094,1,0,0:0:0:0:
304,112,37303,1,0,0:0:0:0:
208,272,37512,1,0,0:0:0:0:
128,192,37721,5,4,0:0:0:0:
384,192,37930,1,0,0:0:0:0:
192,80,38139,1,0,0:0:0:0:
320,304,38348,1,0,0:0:0:0:
320,80,38557,1,0,0:0:0:0:
192,304,38766,1,0,0:0:0:0:
32,192,38975,5,0,0:0:0:0:
480,192,39184,1,0,0:0:0:0:
48,240,39393,6,0,P|48:152|72:136,1,100
464,144,39811,2,0,P|464:232|440:248,1,100
208,48,40229,2,0,P|296:48|312:72,1,100
304,336,40647,2,0,P|216:336|200:312,1,100
256,192,41065,12,4,41905,0:0:0:0:
96,96,42738,6,0,B|160:96|160:96|192:64|192:64|208:64,1,100
416,192,43156,2,0,B|352:192|352:192|320:224|320:224|304:224,1,100
176,320,43574,2,0,L|336:320|336:320,1,150
192,192,44201,5,0,0:0:0:0:
320,192,44410,1,0,0:0:0:0:
128,192,44619,1,0,0:0:0:0:
384,192,44829,1,0,0:0:0:0:
64,192,45038,1,0,0:0:0:0:
448,192,45247,1,0,0:0:0:0:
148,60,46099,6,0,P|309:33|387:100,1,225,4|0,0:0|0:0,0:0:0:0:
363,323,47115,6,0,P|202:350|124:283,1,225,4|0,0:0|0:0,0:0:0:0:
256,192,48132,12,4,50166,0:0:0:0:
128,192,52256,5,4,0:0:0:0:
384,192,52433,1,0,0:0:0:0:
192,80,52611,1,0,0:0:0:0:
320,304,52788,1,0,0:0:0:0:
320,80,52966,1,0,0:0:0:0:
192,304,53143,1,0,0:0:0:0:
160,192,53321,5,4,0:0:0:0:
352,192,53498,1,0,0:0:0:0:
208,112,53676,1,0,0:0:0:0:
304,272,53853,1,0,0:0:0:0:
304,112,54031,1,0,0:0:0:0:
208,272,54208,1,0,0:0:0:0:
192,192,54386,5,4,0:0:0:0:
320,192,54563,1,0,0:0:0:0:
224,144,54741,1,0,0:0:0:0:
288,240,54918,1,0,0:0:0:0:
288,144,55096,1,0,0:0:0:0:
224,240,55273,1,0,0:0:0:0:
32,192,55451,5,0,0:0:0:0:
480,192,55628,1,0,0:0:0:0:
48,224,55806,6,0,P|76:132|101:131,1,75
464,160,56161,2,0,P|435:251|410:252,1,75
224,48,56516,2,0,P|315:76|316:101,1,75
288,336,56871,2,0,P|196:307|195:282,1,75
256,192,57226,12,4,57936,0:0:0:0:
96,96,59477,6,0,B|160:96|160:96|192:64|192:64|208:64,1,100
416,192,59885,2,0,B|352:192|352:192|320:224|320:224|304:224,1,100
176,320,60293,2,0,L|336:320|336:320,1,150
192,192,60905,5,0,0:0:0:0:
320,192,61109,1,0,0:0:0:0:
128,192,61313,1,0,0:0:0:0:
384,192,61517,1,0,0:0:0:0:
64,192,61721,1,0,0:0:0:0:
448,192,61925,1,0,0:0:0:0:
192,192,62742,5,4,0:0:0:0:
320,192,62929,1,0,0:0:0:0:
224,144,63117,1,0,0:0:0:0:
288,240,63304,1,0,0:0:0:0:
288,144,63492,1,0,0:0:0:0:
224,240,63679,1,0,0:0:0:0:
148,60,63867,6,0,P|309:33|387:100,1,225,4|0,0:0|0:0,0:0:0:0:
363,323,64706,6,0,P|202:350|124:283,1,225,4|0,0:0|0:0,0:0:0:0:
256,192,65545,12,4,67223,0:0:0:0:
128,192,68379,5,4,0:0:0:0:
384,192,68550,1,0,0:0:0:0:
192,80,68721,1,0,0:0:0:0:
320,304,68893,1,0,0:0:0:0:
320,80,69064,1,0,0:0:0:0:
192,304,69236,1,0,0:0:0:0:
160,192,69407,5,4,0:0:0:0:
352,192,69579,1,0,0:0:0:0:
208,112,69750,1,0,0:0:0:0:
304,272,69921,1,0,0:0:0:0:
304,112,70093,1,0,0:0:0:0:
208,272,70264,1,0,0:0:0:0:
192,192,70436,5,4,0:0:0:0:
320,192,70672,1,0,0:0:0:0:
224,144,70848,1,0,0:0:0:0:
288,240,71025,1,0,0:0:0:0:
288,144,71201,1,0,0:0:0:0:
224,240,71378,1,0,0:0:0:0:
32,192,71554,5,0,0:0:0:0:
480,192,71731,1,0,0:0:0:0:
48,224,71929,6,0,P|76:132|101:131,1,75
464,160,72260,2,0,P|435:251|410:252,1,75
224,48,72613,2,0,P|315:76|316:101,1,75
288,336,72966,2,0,P|196:307|195:282,1,75
256,192,73319,12,4,74025,0:0:0:0:
96,96,75084,6,0,B|160:96|160:96|192:64|192:64|208:64,1,100
416,192,75476,2,0,B|352:192|352:192|320:224|320:224|304:224,1,100
176,320,75868,2,0,L|336:320|336:320,1,150
192,192,76456,5,0,0:0:0:0:
320,192,76652,1,0,0:0:0:0:
128,192,76848,1,0,0:0:0:0:
384,192,77044,1,0,0:0:0:0:
64,192,77240,1,0,0:0:0:0:
448,192,77436,1,0,0:0:0:0:
192,192,78221,5,4,0:0:0:0:
320,192,78412,1,0,0:0:0:0:
224,144,78603,1,0,0:0:0:0:
288,240,78794,1,0,0:0:0:0:
288,144,78985,1,0,0:0:0:0:
224,240,79176,1,0,0:0:0:0:
160,192,79367,5,4,0:0:0:0:
352,192,79558,1,0,0:0:0:0:
208,112,79749,1,0,0:0:0:0:
304,272,79940,1,0,0:0:0:0:
304,112,80131,1,0,0:0:0:0:
208,272,80322,1,0,0:0:0:0:
148,60,80513,6,0,P|309:33|387:100,1,225,4|0,0:0|0:0,0:0:0:0:
363,323,81370,6,0,P|202:350|124:283,1,225,4|0,0:0|0:0,0:0:0:0:
256,192,82227,12,4,83941,0:0:0:0:
128,192,86011,5,4,0:0:0:0:
384,192,86175,1,0,0:0:0:0:
192,80,86340,1,0,0:0:0:0:
320,304,86505,1,0,0:0:0:0:
320,80,86670,1,0,0:0:0:0:
192,304,86835,1,0,0:0:0:0:
160,192,87000,5,4,0:0:0:0:
352,192,87164,1,0,0:0:0:0:
208,112,87329,1,0,0:0:0:0:
304,272,87494,1,0,0:0:0:0:
304,112,87659,1,0,0:0:0:0:
208,272,87824,1,0,0:0:0:0:
192,192,87989,5,4,0:0:0:0:
320,192,88153,1,0,0:0:0:0:
224,144,88318,1,0,0:0:0:0:
288,240,88483,1,0,0:0:0:0:
288,144,88648,1,0,0:0:0:0:
224,240,88813,1,0,0:0:0:0:
32,192,88978,5,0,0:0:0:0:
480,192,89142,1,0,0:0:0:0:
48,224,89307,6,0,P|76:132|101:131,1,75
464,160,89642,2,0,P|435:251|410:252,1,75
224,48,90003,2,0,P|315:76|316:101,1,75
288,336,90390,2,0,P|196:307|195:282,1,75
256,192,90777,12,4,91551,0:0:0:0:
96,96,93564,6,0,B|160:96|160:96|192:64|192:64|208:64,1,100
416,192,93982,2,0,B|352:192|352:192|320:224|320:224|304:224,1,100
176,320,94400,2,0,L|336:320|336:320,1,150
192,192,95027,5,0,0:0:0:0:
320,192,95236,1,0,0:0:0:0:
128,192,95440,1,0,0:0:0:0:
384,192,95644,1,0,0:0:0:0:
64,192,95837,1,0,0:0:0:0:
448,192,96031,1,0,0:0:0:0:
192,192,96977,5,4,0:0:0:0:
320,192,97143,1,0,0:0:0:0:
224,144,97310,1,0,0:0:0:0:
288,240,97477,1,0,0:0:0:0:
288,144,97643,1,0,0:0:0:0:
224,240,97810,1,0,0:0:0:0:
160,192,97977,5,4,0:0:0:0:
352,192,98143,1,0,0:0:0:0:
208,112,98310,1,0,0:0:0:0:
304,272,98477,1,0,0:0:0:0:
304,112,98643,1,0,0:0:0:0:
208,272,98810,1,0,0:0:0:0:
128,192,98977,5,4,0:0:0:0:
384,192,99162,1,0,0:0:0:0:
192,80,99347,1,0,0:0:0:0:
320,304,99532,1,0,0:0:0:0:
320,80,99717,1,0,0:0:0:0:
192,304,99902,1,0,0:0:0:0:
148,60,100088,6,0,P|309:33|387:100,1,225,4|0,0:0|0:0,0:0:0:0:
363,323,101011,6,0,P|202:350|124:283,1,225,4|0,0:0|0:0,0:0:0:0:
256,192,101934,12,4,103780,0:0:0:0:
128,192,104431,5,4,0:0:0:0:
384,192,104600,1,0,0:0:0:0:
192,80,104769,1,0,0:0:0:0:
320,304,104939,1,0,0:0:0:0:
320,80,105108,1,0,0:0:0:0:
192,304,105278,1,0,0:0:0:0:
160,192,105447,5,4,0:0:0:0:
352,192,105617,1,0,0:0:0:0:
208,112,105786,1,0,0:0:0:0:
304,272,105956,1,0,0:0:0:0:
304,112,106125,1,0,0:0:0:0:
208,272,106295,1,0,0:0:0:0:
192,192,106464,5,4,0:0:0:0:
320,192,106633,1,0,0:0:0:0:
224,144,106802,1,0,0:0:0:0:
288,240,106972,1,0,0:0:0:0:
288,144,107141,1,0,0:0:0:0:
224,240,107311,1,0,0:0:0:0:
32,192,107480,5,0,0:0:0:0:
480,192,107650,1,0,0:0:0:0:
48,224,107819,6,0,P|76:132|101:131,1,75
464,160,108158,2,0,P|435:251|410:252,1,75
224,48,108497,2,0,P|315:76|316:101,1,75
288,336,108836,2,0,P|196:307|195:282,1,75
256,192,109175,12,4,109853,0:0:0:0:
96,96,111780,6,0,B|160:96|160:96|192:64|192:64|208:64,1,100
416,192,112198,2,0,B|352:192|352:192|320:224|320:224|304:224,1,100
176,320,112616,2,0,L|336:320|336:320,1,150
192,192,113243,5,0,0:0:0:0:
320,192,113452,1,0,0:0:0:0:
128,192,113661,1,0,0:0:0:0:
384,192,113870,1,0,0:0:0:0:
64,192,114079,1,0,0:0:0:0:
448,192,114288,1,0,0:0:0:0:
192,192,115124,5,4,0:0:0:0:
320,192,115303,1,0,0:0:0:0:
224,144,115483,1,0,0:0:0:0:
288,240,115662,1,0,0:0:0:0:
288,144,115842,1,0,0:0:0:0:
224,240,116022,1,0,0:0:0:0:
160,192,116201,5,4,0:0:0:0:
352,192,116381,1,0,0:0:0:0:
208,112,116561,1,0,0:0:0:0:
304,272,116740,1,0,0:0:0:0:
304,112,116920,1,0,0:0:0:0:
208,272,117100,1,0,0:0:0:0:
128,192,117279,5,4,0:0:0:0:
384,192,117459,1,0,0:0:0:0:
192,80,117638,1,0,0:0:0:0:
320,304,117818,1,0,0:0:0:0:
320,80,117998,1,0,0:0:0:0:
192,304,118177,1,0,0:0:0:0:
96,192,118357,5,4,0:0:0:0:
416,192,118537,1,0,0:0:0:0:
176,48,118716,1,0,0:0:0:0:
336,336,118896,1,0,0:0:0:0:
336,48,119076,1,0,0:0:0:0:
176,336,119255,1,0,0:0:0:0:
148,60,119435,6,0,P|309:33|387:100,1,225,4|0,0:0|0:0,0:0:0:0:
363,323,120209,6,0,P|202:350|124:283,1,225,4|0,0:0|0:0,0:0:0:0:
256,192,120983,12,4,122531,0:0:0:0:
128,192,123237,5,4,0:0:0:0:
384,192,123403,1,0,0:0:0:0:
192,80,123570,1,0,0:0:0:0:
320,304,123737,1,0,0:0:0:0:
320,80,123903,1,0,0:0:0:0:
192,304,124070,1,0,0:0:0:0:
160,192,124237,5,4,0:0:0:0:
352,192,124403,1,0,0:0:0:0:
208,112,124570,1,0,0:0:0:0:
304,272,124737,1,0,0:0:0:0:
304,112,124903,1,0,0:0:0:0:
208,272,125070,1,0,0:0:0:0:
192,192,125237,5,4,0:0:0:0:
320,192,125403,1,0,0:0:0:0:
224,144,125570,1,0,0:0:0:0:
288,240,125737,1,0,0:0:0:0:
288,144,125903,1,0,0:0:0:0:
224,240,126070,1,0,0:0:0:0:
32,192,126237,5,0,0:0:0:0:
480,192,126403,1,0,0:0:0:0:
48,224,126570,6,0,P|76:132|101:131,1,75
464,160,126903,2,0,P|435:251|410:252,1,75
224,48,127237,2,0,P|315:76|316:101,1,75
288,336,127570,2,0,P|196:307|195:282,1,75
256,192,127903,12,4,128570,0:0:0:0:
96,96,130169,6,0,B|160:96|160:96|192:64|192:64|208:64,1,100
416,192,130630,2,0,B|352:192|352:192|320:224|320:224|304:224,1,100
176,320,131092,2,0,L|336:320|336:320,1,150
192,192,131784,5,0,0:0:0:0:
320,192,132015,1,0,0:0:0:0:
128,192,132245,1,0,0:0:0:0:
384,192,132476,1,0,0:0:0:0:
64,192,132690,1,0,0:0:0:0:
448,192,132904,1,0,0:0:0:0:
192,192,133704,5,4,0:0:0:0:
320,192,133904,1,0,0:0:0:0:
224,144,134104,1,0,0:0:0:0:
288,240,134304,1,0,0:0:0:0:
288,144,134504,1,0,0:0:0:0:
224,240,134704,1,0,0:0:0:0:
160,192,134904,5,4,0:0:0:0:
352,192,135091,1,0,0:0:0:0:
208,112,135279,1,0,0:0:0:0:
304,272,135466,1,0,0:0:0:0:
304,112,135654,1,0,0:0:0:0:
208,272,135841,1,0,0:0:0:0:
128,192,136029,5,4,0:0:0:0:
384,192,136200,1,0,0:0:0:0:
192,80,136371,1,0,0:0:0:0:
320,304,136543,1,0,0:0:0:0:
320,80,136714,1,0,0:0:0:0:
192,304,136886,1,0,0:0:0:0:
96,192,137057,5,4,0:0:0:0:
416,192,137207,1,0,0:0:0:0:
176,48,137357,1,0,0:0:0:0:
336,336,137507,1,0,0:0:0:0:
336,48,137657,1,0,0:0:0:0:
176,336,137807,1,0,0:0:0:0:
64,192,137957,5,4,0:0:0:0:
448,192,138096,1,0,0:0:0:0:
160,16,138236,1,0,0:0:0:0:
352,368,138375,1,0,0:0:0:0:
352,16,138515,1,0,0:0:0:0:
160,368,138654,1,0,0:0:0:0:
148,60,138794,6,0,P|309:33|387:100,1,225,4|0,0:0|0:0,0:0:0:0:
363,323,139651,6,0,P|202:350|124:283,1,225,4|0,0:0|0:0,0:0:0:0:
256,192,140508,12,4,141794,0:0:0:0:
128,192,142222,5,4,0:0:0:0:
384,192,142388,1,0,0:0:0:0:
192,80,142555,1,0,0:0:0:0:
320,304,142722,1,0,0:0:0:0:
320,80,142888,1,0,0:0:0:0:
192,304,143055,1,0,0:0:0:0:
160,192,143222,5,4,0:0:0:0:
352,192,143388,1,0,0:0:0:0:
208,112,143555,1,0,0:0:0:0:
304,272,143722,1,0,0:0:0:0:
304,112,143888,1,0,0:0:0:0:
208,272,144055,1,0,0:0:0:0:
192,192,144222,5,4,0:0:0:0:
320,192,144388,1,0,0:0:0:0:
224,144,144555,1,0,0:0:0:0:
288,240,144722,1,0,0:0:0:0:
288,144,144888,1,0,0:0:0:0:
224,240,145055,1,0,0:0:0:0:
32,192,145222,5,0,0:0:0:0:
480,192,145388,1,0,0:0:0:0:
48,224,145555,6,0,P|76:132|101:131,1,75
464,160,145888,2,0,P|435:251|410:252,1,75
224,48,146222,2,0,P|315:76|316:101,1,75
288,336,146574,2,0,P|196:307|195:282,1,75
256,192,146927,12,4,147784,0:0:0:0:
96,96,150963,6,0,B|160:96|160:96|192:64|192:64|208:64,1,100
416,192,151563,2,0,B|352:192|352:192|320:224|320:224|304:224,1,100
176,320,152163,2,0,L|336:320|336:320,1,150
192,192,153063,5,0,0:0:0:0:
320,192,153363,1,0,0:0:0:0:
128,192,153613,1,0,0:0:0:0:
384,192,153863,1,0,0:0:0:0:
64,192,154113,1,0,0:0:0:0:
448,192,154363,1,0,0:0:0:0:
192,192,155927,5,4,0:0:0:0:
320,192,156177,1,0,0:0:0:0:
224,144,156427,1,0,0:0:0:0:
288,240,156677,1,0,0:0:0:0:
288,144,156927,1,0,0:0:0:0:
224,240,157177,1,0,0:0:0:0:
160,192,157427,5,4,0:0:0:0:
352,192,157627,1,0,0:0:0:0:
208,112,157827,1,0,0:0:0:0:
304,272,158027,1,0,0:0:0:0:
304,112,158227,1,0,0:0:0:0:
208,272,158427,1,0,0:0:0:0:
128,192,158627,5,4,0:0:0:0:
384,192,158798,1,0,0:0:0:0:
192,80,158969,1,0,0:0:0:0:
320,304,159141,1,0,0:0:0:0:
320,80,159312,1,0,0:0:0:0:
192,304,159484,1,0,0:0:0:0:
96,192,159655,5,4,0:0:0:0:
416,192,159817,1,0,0:0:0:0:
176,48,159979,1,0,0:0:0:0:
336,336,160141,1,0,0:0:0:0:
336,48,160303,1,0,0:0:0:0:
176,336,160465,1,0,0:0:0:0:
64,192,160627,5,4,0:0:0:0:
448,192,160790,1,0,0:0:0:0:
160,16,160952,1,0,0:0:0:0:
352,368,161114,1,0,0:0:0:0:
352,16,161276,1,0,0:0:0:0:
160,368,161438,1,0,0:0:0:0:
0,192,161600,5,4,0:0:0:0:
512,192,161763,1,0,0:0:0:0:
0,192,161925,1,0,0:0:0:0:
512,192,162087,1,0,0:0:0:0:
0,192,162249,1,0,0:0:0:0:
512,192,162411,1,0,0:0:0:0:
148,60,162573,6,0,P|309:33|387:100,1,225,4|0,0:0|0:0,0:0:0:0:
363,323,163373,6,0,P|202:350|124:283,1,225,4|0,0:0|0:0,0:0:0:0:
256,192,164173,12,4,165773,0:0:0:0:
128,192,166874,5,4,0:0:0:0:
384,192,167027,1,0,0:0:0:0:
192,80,167181,1,0,0:0:0:0:
320,304,167335,1,0,0:0:0:0:
320,80,167489,1,0,0:0:0:0:
192,304,167643,1,0,0:0:0:0:
160,192,167797,5,4,0:0:0:0:
352,192,167950,1,0,0:0:0:0:
208,112,168104,1,0,0:0:0:0:
304,272,168258,1,0,0:0:0:0:
304,112,168412,1,0,0:0:0:0:
208,272,168566,1,0,0:0:0:0:
192,192,168720,5,4,0:0:0:0:
320,192,168873,1,0,0:0:0:0:
224,144,169027,1,0,0:0:0:0:
288,240,169181,1,0,0:0:0:0:
288,144,169335,1,0,0:0:0:0:
224,240,169489,1,0,0:0:0:0:
32,192,169643,5,0,0:0:0:0:
480,192,169796,1,0,0:0:0:0:
48,224,169950,6,0,P|76:132|101:131,1,75
464,160,170258,2,0,P|435:251|410:252,1,75
224,48,170566,2,0,P|315:76|316:101,1,75
288,336,170908,2,0,P|196:307|195:282,1,75
256,192,171251,12,4,171956,0:0:0:0:
96,96,175390,6,0,B|160:96|160:96|192:64|192:64|208:64,1,100
416,192,175870,2,0,B|352:192|352:192|320:224|320:224|304:224,1,100
176,320,176350,2,0,L|336:320|336:320,1,150
192,192,177070,5,0,0:0:0:0:
320,192,177310,1,0,0:0:0:0:
128,192,177550,1,0,0:0:0:0:
384,192,177790,1,0,0:0:0:0:
64,192,178030,1,0,0:0:0:0:
448,192,178270,1,0,0:0:0:0:
192,192,180190,5,4,0:0:0:0:
320,192,180361,1,0,0:0:0:0:
224,144,180532,1,0,0:0:0:0:
288,240,180704,1,0,0:0:0:0:
288,144,180875,1,0,0:0:0:0:
224,240,181047,1,0,0:0:0:0:
160,192,181218,5,4,0:0:0:0:
352,192,181368,1,0,0:0:0:0:
208,112,181518,1,0,0:0:0:0:
304,272,181668,1,0,0:0:0:0:
304,112,181818,1,0,0:0:0:0:
208,272,181968,1,0,0:0:0:0:
128,192,182118,5,4,0:0:0:0:
384,192,182257,1,0,0:0:0:0:
192,80,182397,1,0,0:0:0:0:
320,304,182536,1,0,0:0:0:0:
320,80,182676,1,0,0:0:0:0:
192,304,182815,1,0,0:0:0:0:
96,192,182955,5,4,0:0:0:0:
416,192,183094,1,0,0:0:0:0:
176,48,183234,1,0,0:0:0:0:
336,336,183373,1,0,0:0:0:0:
336,48,183513,1,0,0:0:0:0:
176,336,183652,1,0,0:0:0:0:
64,192,183792,5,4,0:0:0:0:
448,192,183924,1,0,0:0:0:0:
160,16,184056,1,0,0:0:0:0:
352,368,184188,1,0,0:0:0:0:
352,16,184320,1,0,0:0:0:0:
160,368,184452,1,0,0:0:0:0:
0,192,184584,5,4,0:0:0:0:
512,192,184711,1,0,0:0:0:0:
0,192,184839,1,0,0:0:0:0:
512,192,184966,1,0,0:0:0:0:
0,192,185094,1,0,0:0:0:0:
512,192,185222,1,0,0:0:0:0:
256,0,185349,5,4,0:0:0:0:
256,368,185474,1,0,0:0:0:0:
256,0,185599,1,0,0:0:0:0:
256,368,185724,1,0,0:0:0:0:
256,0,185849,1,0,0:0:0:0:
256,368,185974,1,0,0:0:0:0:
148,60,186065,6,0,P|309:33|387:100,1,225,4|0,0:0|0:0,0:0:0:0:
363,323,186922,6,0,P|202:350|124:283,1,225,4|0,0:0|0:0,0:0:0:0:
256,192,187779,12,4,188636,0:0:0:0:
128,192,189065,5,4,0:0:0:0:
384,192,189195,1,0,0:0:0:0:
192,80,189325,1,0,0:0:0:0:
320,304,189456,1,0,0:0:0:0:
320,80,189586,1,0,0:0:0:0:
192,304,189717,1,0,0:0:0:0:
160,192,189847,5,4,0:0:0:0:
352,192,189978,1,0,0:0:0:0:
208,112,190108,1,0,0:0:0:0:
304,272,190238,1,0,0:0:0:0:
304,112,190369,1,0,0:0:0:0:
208,272,190499,1,0,0:0:0:0:
192,192,190630,5,4,0:0:0:0:
320,192,190760,1,0,0:0:0:0:
224,144,190890,1,0,0:0:0:0:
288,240,191021,1,0,0:0:0:0:
288,144,191151,1,0,0:0:0:0:
224,240,191282,1,0,0:0:0:0:
32,192,191412,5,0,0:0:0:0:
480,192,191543,1,0,0:0:0:0:
48,224,191673,6,0,P|76:132|101:131,1,75
464,160,192218,2,0,P|435:251|410:252,1,75
224,48,192763,2,0,P|315:76|316:101,1,75
288,336,193309,2,0,P|196:307|195:282,1,75
256,192,193854,12,4,196036,0:0:0:0:
