osu file format v14

[General]
AudioFilename: audio.mp3
AudioLeadIn: 0
PreviewTime: -1
Countdown: 0
SampleSet: Normal
StackLeniency: 0.7
Mode: 0
LetterboxInBreaks: 0
WidescreenStoryboard: 1

[Editor]
DistanceSpacing: 0.8
BeatDivisor: 4
GridSize: 4
TimelineZoom: 1

[Metadata]
Title:Baby Shark
TitleUnicode:Baby Shark
Artist:Pinkfong
ArtistUnicode:Pinkfong
Creator:TheAubergineMan
Version:Super Nerfed
Source:One map I found lol
Tags:Your Mother Mom And Or Yeet Shark Baby Mommy Daddy Grandma Grandpa Hunt Run away Lets Let's Go Hunt Lol Meme Father Dad
BeatmapID:1816634
BeatmapSetID:866342

[Difficulty]
HPDrainRate:0
CircleSize:2
OverallDifficulty:0
ApproachRate:8
SliderMultiplier:2.5
SliderTickRate:1

[Events]
//Background and Video events
0,0,"ww.jpg",0,0
//Break Periods
2,12420,17602
2,35247,40558
2,84601,93042
//Storyboard Layer 0 (Background)
//Storyboard Layer 1 (Fail)
//Storyboard Layer 2 (Pass)
//Storyboard Layer 3 (Foreground)
//Storyboard Sound Samples

[TimingPoints]
612,521.739130434783,4,1,0,100,1,0
612,-133.333333333333,4,1,0,100,0,0
18352,521.739130434783,4,1,0,100,1,0
18353,-83.3333333333333,4,1,0,100,0,1
24612,-100,4,1,0,100,0,0
35047,-80,4,1,0,100,0,0
43395,-66.6666666666667,4,1,0,100,0,0
51743,-57.1428571428571,4,1,0,100,0,0
60091,-50,4,1,0,100,0,0
68438,-44.4444444444445,4,1,0,100,0,0
76721,480,4,1,0,100,1,0
76721,-40,4,1,0,100,0,1
84401,521.739130434783,4,1,0,100,1,0
84401,-100,4,1,0,100,0,0
86487,-133.333333333333,4,1,0,100,0,0
94835,-33.3333333333333,4,1,0,100,0,1
101096,-25,4,1,0,100,0,0

[HitObjects]
256,192,10003,6,0,P|240:188|256:195,1,46.8750017881394
256,192,12090,6,0,P|271:188|255:195,1,46.8750017881394
248,192,18352,5,0,0:0:0:0:
248,188,18873,1,0,0:0:0:0:
251,185,19394,1,0,0:0:0:0:
255,183,19917,1,0,0:0:0:0:
259,184,20438,5,0,0:0:0:0:
262,186,20961,1,0,0:0:0:0:
264,190,21482,1,0,0:0:0:0:
263,194,22005,1,0,0:0:0:0:
260,197,22526,5,0,0:0:0:0:
252,198,23569,5,0,0:0:0:0:
256,192,24612,12,0,25134,0:0:0:0:
255,185,26699,5,0,0:0:0:0:
263,175,26960,5,0,0:0:0:0:
259,199,27221,1,0,0:0:0:0:
231,194,27482,5,0,0:0:0:0:
235,168,27612,1,0,0:0:0:0:
255,185,27743,1,0,0:0:0:0:
231,194,27873,1,0,0:0:0:0:
244,176,28004,5,0,0:0:0:0:
264,200,28265,5,0,0:0:0:0:
266,198,28525,5,0,0:0:0:0:
257,193,29047,5,0,0:0:0:0:
276,174,29308,1,0,0:0:0:0:
261,209,29569,5,0,0:0:0:0:
241,181,29699,1,0,0:0:0:0:
273,192,29830,1,0,0:0:0:0:
241,202,29960,1,0,0:0:0:0:
261,174,30091,1,0,0:0:0:0:
259,176,30352,5,0,0:0:0:0:
274,182,30612,5,0,0:0:0:0:
269,200,31134,5,0,0:0:0:0:
242,183,31395,1,0,0:0:0:0:
265,175,31656,5,0,0:0:0:0:
243,211,31786,1,0,0:0:0:0:
271,179,31917,1,0,0:0:0:0:
238,206,32047,1,0,0:0:0:0:
255,192,32178,1,0,0:0:0:0:
241,179,32438,5,0,0:0:0:0:
238,205,32698,5,0,0:0:0:0:
258,181,35047,5,0,0:0:0:0:
233,196,41308,5,0,0:0:0:0:
259,181,42352,5,0,0:0:0:0:
259,179,42873,5,0,0:0:0:0:
259,177,43395,5,0,0:0:0:0:
226,199,43656,5,0,0:0:0:0:
233,186,43786,1,0,0:0:0:0:
241,199,43917,1,0,0:0:0:0:
248,185,44047,1,0,0:0:0:0:
255,172,44177,1,0,0:0:0:0:
263,185,44308,1,0,0:0:0:0:
271,199,44438,1,0,0:0:0:0:
278,186,44568,1,0,0:0:0:0:
286,199,44699,1,0,0:0:0:0:
256,192,44960,5,0,0:0:0:0:
256,190,45221,5,0,0:0:0:0:
256,188,45482,5,0,0:0:0:0:
277,186,45743,5,0,0:0:0:0:
272,196,45873,1,0,0:0:0:0:
266,186,46004,1,0,0:0:0:0:
261,196,46134,1,0,0:0:0:0:
256,205,46264,1,0,0:0:0:0:
250,196,46395,1,0,0:0:0:0:
245,186,46525,1,0,0:0:0:0:
239,196,46655,1,0,0:0:0:0:
234,186,46786,1,0,0:0:0:0:
255,192,47047,5,0,0:0:0:0:
255,194,47308,5,0,0:0:0:0:
255,196,47569,5,0,0:0:0:0:
226,199,47830,5,0,0:0:0:0:
233,186,47960,1,0,0:0:0:0:
241,199,48091,1,0,0:0:0:0:
248,185,48221,1,0,0:0:0:0:
255,172,48351,1,0,0:0:0:0:
263,185,48482,1,0,0:0:0:0:
271,199,48612,1,0,0:0:0:0:
278,186,48742,1,0,0:0:0:0:
286,199,48873,1,0,0:0:0:0:
256,192,49134,5,0,0:0:0:0:
256,190,49395,5,0,0:0:0:0:
256,188,49656,5,0,0:0:0:0:
256,192,50699,12,0,51091,0:0:0:0:
256,192,51221,12,0,51743,0:0:0:0:
262,211,52004,5,0,0:0:0:0:
265,209,52134,1,0,0:0:0:0:
239,204,52265,5,0,0:0:0:0:
241,206,52395,1,0,0:0:0:0:
239,179,52525,5,0,0:0:0:0:
238,182,52656,1,0,0:0:0:0:
262,172,52786,5,0,0:0:0:0:
261,173,52917,1,0,0:0:0:0:
276,192,53047,5,0,0:0:0:0:
276,190,53178,1,0,0:0:0:0:
256,179,53830,5,0,0:0:0:0:
255,168,54091,5,0,0:0:0:0:
259,170,54221,1,0,0:0:0:0:
232,185,54352,5,0,0:0:0:0:
234,182,54482,1,0,0:0:0:0:
242,211,54612,5,0,0:0:0:0:
240,209,54743,1,0,0:0:0:0:
270,210,54873,5,0,0:0:0:0:
268,209,55004,1,0,0:0:0:0:
278,183,55134,5,0,0:0:0:0:
279,186,55265,1,0,0:0:0:0:
256,204,55917,5,0,0:0:0:0:
265,180,56178,5,0,0:0:0:0:
266,182,56308,1,0,0:0:0:0:
247,179,56439,5,0,0:0:0:0:
249,178,56569,1,0,0:0:0:0:
241,196,56699,5,0,0:0:0:0:
241,194,56830,1,0,0:0:0:0:
255,207,56960,5,0,0:0:0:0:
254,205,57091,1,0,0:0:0:0:
270,197,57221,5,0,0:0:0:0:
269,198,57352,1,0,0:0:0:0:
243,192,58004,5,0,0:0:0:0:
224,183,59047,5,0,0:0:0:0:
232,183,59178,1,0,0:0:0:0:
241,183,59308,1,0,0:0:0:0:
249,183,59438,1,0,0:0:0:0:
232,183,59569,5,0,0:0:0:0:
241,183,59700,1,0,0:0:0:0:
249,183,59830,1,0,0:0:0:0:
258,183,59960,1,0,0:0:0:0:
241,206,60352,5,0,0:0:0:0:
241,177,60482,1,0,0:0:0:0:
270,177,60612,1,0,0:0:0:0:
270,206,60743,1,0,0:0:0:0:
237,200,60873,5,0,0:0:0:0:
247,173,61003,1,0,0:0:0:0:
274,183,61133,1,0,0:0:0:0:
264,210,61264,1,0,0:0:0:0:
236,193,61395,5,0,0:0:0:0:
254,172,61525,1,0,0:0:0:0:
275,190,61655,1,0,0:0:0:0:
257,211,61786,1,0,0:0:0:0:
236,186,61916,5,0,0:0:0:0:
261,172,62046,1,0,0:0:0:0:
275,197,62176,1,0,0:0:0:0:
250,211,62307,1,0,0:0:0:0:
239,180,62438,5,0,0:0:0:0:
267,175,62568,1,0,0:0:0:0:
272,203,62698,1,0,0:0:0:0:
244,208,62829,1,0,0:0:0:0:
244,175,62959,5,0,0:0:0:0:
272,180,63089,1,0,0:0:0:0:
267,208,63219,1,0,0:0:0:0:
239,203,63350,1,0,0:0:0:0:
250,172,63481,5,0,0:0:0:0:
275,186,63611,1,0,0:0:0:0:
261,211,63741,1,0,0:0:0:0:
236,197,63872,1,0,0:0:0:0:
257,172,64002,5,0,0:0:0:0:
275,193,64132,1,0,0:0:0:0:
254,211,64262,1,0,0:0:0:0:
236,190,64393,1,0,0:0:0:0:
264,173,64525,5,0,0:0:0:0:
274,200,64655,1,0,0:0:0:0:
247,210,64785,1,0,0:0:0:0:
237,183,64916,1,0,0:0:0:0:
270,177,65046,5,0,0:0:0:0:
270,206,65176,1,0,0:0:0:0:
241,206,65306,1,0,0:0:0:0:
241,177,65437,1,0,0:0:0:0:
274,183,65568,5,0,0:0:0:0:
264,210,65698,1,0,0:0:0:0:
237,200,65828,5,0,0:0:0:0:
247,173,65959,5,0,0:0:0:0:
275,190,66089,5,0,0:0:0:0:
257,211,66219,5,0,0:0:0:0:
236,193,66349,5,0,0:0:0:0:
249,175,67395,5,0,0:0:0:0:
254,175,67917,5,0,0:0:0:0:
260,175,68438,5,0,0:0:0:0:
236,181,68699,5,0,0:0:0:0:
244,176,68830,1,0,0:0:0:0:
276,200,68960,5,0,0:0:0:0:
268,205,69091,1,0,0:0:0:0:
241,175,69221,5,0,0:0:0:0:
250,173,69352,1,0,0:0:0:0:
271,206,69482,5,0,0:0:0:0:
262,208,69613,1,0,0:0:0:0:
247,172,69743,5,0,0:0:0:0:
256,172,69874,1,0,0:0:0:0:
265,210,70004,5,0,0:0:0:0:
256,209,70135,1,0,0:0:0:0:
254,172,70265,5,0,0:0:0:0:
262,173,70396,1,0,0:0:0:0:
258,212,70526,5,0,0:0:0:0:
250,208,70657,1,0,0:0:0:0:
262,172,70786,5,0,0:0:0:0:
268,176,70917,1,0,0:0:0:0:
250,211,71047,5,0,0:0:0:0:
244,205,71178,1,0,0:0:0:0:
269,173,71308,5,0,0:0:0:0:
272,181,71439,1,0,0:0:0:0:
243,208,71569,5,0,0:0:0:0:
240,200,71700,1,0,0:0:0:0:
274,178,71830,5,0,0:0:0:0:
274,187,71961,1,0,0:0:0:0:
238,203,72091,5,0,0:0:0:0:
238,194,72222,1,0,0:0:0:0:
277,185,72352,5,0,0:0:0:0:
274,194,72483,1,0,0:0:0:0:
235,196,72613,5,0,0:0:0:0:
238,187,72744,1,0,0:0:0:0:
277,193,72873,5,0,0:0:0:0:
272,200,73004,1,0,0:0:0:0:
234,188,73134,5,0,0:0:0:0:
240,181,73265,1,0,0:0:0:0:
276,200,73395,5,0,0:0:0:0:
268,205,73526,1,0,0:0:0:0:
236,181,73656,5,0,0:0:0:0:
244,176,73787,1,0,0:0:0:0:
271,206,73916,5,0,0:0:0:0:
262,208,74047,1,0,0:0:0:0:
241,175,74177,5,0,0:0:0:0:
250,173,74308,1,0,0:0:0:0:
265,210,74438,5,0,0:0:0:0:
256,209,74569,1,0,0:0:0:0:
247,172,74699,5,0,0:0:0:0:
256,192,74830,12,0,76525,0:0:0:0:
246,198,76721,5,0,0:0:0:0:
232,194,76841,1,0,0:0:0:0:
232,178,76961,1,0,0:0:0:0:
246,173,77081,1,0,0:0:0:0:
256,186,77201,1,0,0:0:0:0:
265,198,77321,1,0,0:0:0:0:
280,194,77441,1,0,0:0:0:0:
280,178,77561,1,0,0:0:0:0:
265,173,77681,1,0,0:0:0:0:
256,186,77801,1,0,0:0:0:0:
246,198,77921,1,0,0:0:0:0:
266,204,78161,5,0,0:0:0:0:
266,204,78401,1,0,0:0:0:0:
266,204,78641,5,0,0:0:0:0:
282,199,78761,1,0,0:0:0:0:
282,182,78881,1,0,0:0:0:0:
266,176,79001,1,0,0:0:0:0:
256,190,79121,1,0,0:0:0:0:
246,204,79241,1,0,0:0:0:0:
230,199,79361,1,0,0:0:0:0:
230,182,79481,1,0,0:0:0:0:
246,176,79601,1,0,0:0:0:0:
256,190,79721,1,0,0:0:0:0:
266,204,79841,1,0,0:0:0:0:
244,213,80081,5,0,0:0:0:0:
244,213,80321,1,0,0:0:0:0:
244,213,80561,5,0,0:0:0:0:
224,206,80681,1,0,0:0:0:0:
224,186,80801,1,0,0:0:0:0:
244,179,80921,1,0,0:0:0:0:
256,196,81041,1,0,0:0:0:0:
268,213,81161,1,0,0:0:0:0:
287,206,81281,1,0,0:0:0:0:
287,186,81401,1,0,0:0:0:0:
268,179,81521,1,0,0:0:0:0:
256,196,81641,1,0,0:0:0:0:
244,213,81761,1,0,0:0:0:0:
256,192,82001,12,0,84401,0:0:0:0:
256,192,93792,12,0,94314,0:0:0:0:
243,213,94835,5,0,0:0:0:0:
243,170,94966,1,0,0:0:0:0:
280,192,95096,1,0,0:0:0:0:
234,207,95227,5,0,0:0:0:0:
255,171,95358,1,0,0:0:0:0:
276,207,95488,1,0,0:0:0:0:
231,192,95618,5,0,0:0:0:0:
268,171,95749,1,0,0:0:0:0:
268,213,95879,1,0,0:0:0:0:
234,174,96010,5,0,0:0:0:0:
276,174,96141,1,0,0:0:0:0:
255,211,96271,1,0,0:0:0:0:
234,176,96401,5,0,0:0:0:0:
276,207,96531,1,0,0:0:0:0:
234,176,96661,5,0,0:0:0:0:
276,207,96791,1,0,0:0:0:0:
266,210,96922,5,0,0:0:0:0:
266,173,97053,1,0,0:0:0:0:
234,192,97183,1,0,0:0:0:0:
275,206,97314,5,0,0:0:0:0:
256,173,97445,1,0,0:0:0:0:
237,206,97575,1,0,0:0:0:0:
277,192,97705,5,0,0:0:0:0:
245,173,97836,1,0,0:0:0:0:
245,211,97966,1,0,0:0:0:0:
275,176,98097,5,0,0:0:0:0:
237,176,98228,1,0,0:0:0:0:
256,209,98358,1,0,0:0:0:0:
277,176,98487,5,0,0:0:0:0:
235,207,98617,1,0,0:0:0:0:
277,176,98747,5,0,0:0:0:0:
235,207,98877,1,0,0:0:0:0:
269,168,99009,5,0,0:0:0:0:
269,215,99140,1,0,0:0:0:0:
228,191,99270,1,0,0:0:0:0:
280,174,99401,5,0,0:0:0:0:
256,215,99532,1,0,0:0:0:0:
233,174,99662,1,0,0:0:0:0:
283,191,99792,5,0,0:0:0:0:
242,214,99923,1,0,0:0:0:0:
242,168,100053,1,0,0:0:0:0:
279,211,100184,5,0,0:0:0:0:
233,211,100315,1,0,0:0:0:0:
256,170,100445,1,0,0:0:0:0:
232,174,101096,5,0,0:0:0:0:
279,174,101357,5,0,0:0:0:0:
232,209,101488,1,0,0:0:0:0:
279,209,101748,5,0,0:0:0:0:
232,174,101879,1,0,0:0:0:0:
279,209,102140,5,0,0:0:0:0:
