osu file format v14

[General]
AudioFilename: audio.mp3
AudioLeadIn: 0
PreviewTime: -1
Countdown: 0
SampleSet: None
StackLeniency: 0.7
Mode: 0
LetterboxInBreaks: 0
WidescreenStoryboard: 1

[Editor]
DistanceSpacing: 0.8
BeatDivisor: 4
GridSize: 4
TimelineZoom: 1

[Metadata]
Title:Baby Shark
TitleUnicode:Baby Shark
Artist:Pinkfong
ArtistUnicode:Pinkfong
Creator:TheAubergineMan
Version:CS0
Source:One map I found lol
Tags:Your Mother Mom And Or Yeet Shark Baby Mommy Daddy Grandma Grandpa Hunt Run away Lets Let's Go Hunt Lol Meme Father Dad
BeatmapID:1816626
BeatmapSetID:866342

[Difficulty]
HPDrainRate:9.3
CircleSize:0
OverallDifficulty:8.5
ApproachRate:9.5
SliderMultiplier:2.5
SliderTickRate:1

[Events]
//Background and Video events
0,0,"ww.jpg",0,0
//Break Periods
//Storyboard Layer 0 (Background)
//Storyboard Layer 1 (Fail)
//Storyboard Layer 2 (Pass)
//Storyboard Layer 3 (Foreground)
//Storyboard Sound Samples

[TimingPoints]
612,521.739130434783,4,1,0,100,1,0
612,-133.333333333333,4,1,0,100,0,0
18352,521.739130434783,4,1,0,100,1,0
18353,-83.3333333333333,4,1,0,100,0,1
24612,-100,4,1,0,100,0,0
35047,-80,4,1,0,100,0,0
43395,-66.6666666666667,4,1,0,100,0,0
51743,-57.1428571428571,4,1,0,100,0,0
60091,-50,4,1,0,100,0,0
68438,-44.4444444444445,4,1,0,100,0,0
76721,480,4,1,0,100,1,0
76721,-40,4,1,0,100,0,1
84401,521.739130434783,4,1,0,100,1,0
84401,-100,4,1,0,100,0,0
86487,-133.333333333333,4,1,0,100,0,0
94835,-33.3333333333333,4,1,0,100,0,1
101096,-25,4,1,0,100,0,0

[HitObjects]
256,192,10003,6,0,P|128:166|256:216,1,375.000014305115
256,192,12090,6,0,P|383:166|255:216,1,375.000014305115
256,192,14177,6,0,P|192:179|256:204,1,187.500007152558
256,192,15220,6,0,P|319:179|255:204,1,187.500007152558
256,192,16264,6,0,P|224:185|256:198,1,93.7500035762788
256,192,16785,2,0,P|287:185|255:198,1,93.7500035762788
216,193,17307,6,0,P|184:186|216:199,1,93.7500035762788
295,193,17829,2,0,P|326:186|294:199,1,93.7500035762788
196,198,18352,5,0,0:0:0:0:
199,164,18873,1,0,0:0:0:0:
219,136,19394,1,0,0:0:0:0:
250,123,19917,1,0,0:0:0:0:
284,128,20438,5,0,0:0:0:0:
310,149,20961,1,0,0:0:0:0:
322,181,21482,1,0,0:0:0:0:
316,214,22005,1,0,0:0:0:0:
293,239,22526,5,0,0:0:0:0:
261,250,23047,6,0,L|344:118,1,149.999995422363
228,242,23569,5,0,0:0:0:0:
196,198,24091,6,0,L|331:120,1,149.999995422363
256,192,24612,12,0,25134,0:0:0:0:
157,145,25656,6,0,P|157:87|232:87,1,125
355,145,26178,2,0,P|355:87|280:87,1,125
252,138,26699,1,0,0:0:0:0:
314,61,26960,5,0,0:0:0:0:
280,255,27221,1,0,0:0:0:0:
59,209,27482,5,0,0:0:0:0:
93,5,27612,1,0,0:0:0:0:
252,138,27743,1,0,0:0:0:0:
59,209,27873,1,0,0:0:0:0:
166,66,28004,5,0,0:0:0:0:
320,260,28265,5,0,0:0:0:0:
338,244,28525,5,0,0:0:0:0:
358,229,28786,6,0,P|376:213|357:225,1,62.5
270,207,29047,5,0,0:0:0:0:
423,52,29308,1,0,0:0:0:0:
300,328,29569,5,0,0:0:0:0:
139,107,29699,1,0,0:0:0:0:
399,192,29830,1,0,0:0:0:0:
139,276,29960,1,0,0:0:0:0:
300,55,30091,1,0,0:0:0:0:
284,67,30352,5,0,0:0:0:0:
404,113,30612,5,0,0:0:0:0:
466,250,30873,6,0,P|484:235|465:246,1,62.5
361,257,31134,5,0,0:0:0:0:
151,123,31395,1,0,0:0:0:0:
331,60,31656,5,0,0:0:0:0:
155,351,31786,1,0,0:0:0:0:
381,92,31917,1,0,0:0:0:0:
116,306,32047,1,0,0:0:0:0:
255,194,32178,1,0,0:0:0:0:
139,92,32438,5,0,0:0:0:0:
114,299,32698,5,0,0:0:0:0:
309,202,32959,6,0,P|327:187|308:198,1,62.5
137,180,34004,6,0,B|139:174|139:174|140:180|140:180|142:174|142:174|144:180|144:180|146:174|146:174|149:180|149:180|150:174|150:174|152:180|152:180|154:174|154:174|156:180|156:180|158:174|158:174|160:180|160:180|162:174|162:174|164:180|164:180|166:174|166:174|168:180|168:180|170:174|170:174|172:180|172:180|174:174|174:174|176:180|176:180|179:174|179:174|180:180|180:180|183:174|183:174|184:180|184:180|186:174|186:174|188:180|188:180|190:174|190:174|192:180|192:180|194:174|194:174|196:180|196:180|198:174|198:174|200:180|200:180|203:174|203:174|204:180|204:180|206:174|206:174|208:180|208:180,1,187.5
375,180,34525,6,0,B|373:174|373:174|371:180|371:180|369:174|369:174|367:180|367:180|365:174|365:174|363:180|363:180|361:174|361:174|359:180|359:180|357:174|357:174|355:180|355:180|353:174|353:174|351:180|351:180|349:174|349:174|347:180|347:180|345:174|345:174|343:180|343:180|341:174|341:174|339:180|339:180|337:174|337:174|335:180|335:180|333:174|333:174|331:180|331:180|329:174|329:174|327:180|327:180|325:174|325:174|323:180|323:180|321:174|321:174|319:180|319:180|317:174|317:174|315:180|315:180|313:174|313:174|311:180|311:180|309:174|309:174|307:180|307:180|305:174|305:174|303:180|303:180,1,187.5
279,106,35047,5,0,0:0:0:0:
119,67,35308,6,0,L|216:149,1,78.125
393,317,35569,2,0,L|296:235,1,78.125
199,15,35830,2,0,L|242:134,1,78.125
312,368,36091,2,0,L|269:249,1,78.125
295,10,36352,2,0,L|273:135,1,78.125
216,373,36613,6,0,L|238:248,1,78.125
381,55,36874,2,0,L|298:152,1,78.125
131,329,37135,2,0,L|213:232,1,78.125
432,135,37395,6,0,L|313:178,1,78.125
79,248,37656,2,0,L|198:205,1,78.125
437,231,37917,2,0,L|312:209,1,78.125
74,152,38178,2,0,L|199:174,1,78.125
393,317,38439,2,0,L|296:235,1,78.125
118,66,38700,6,0,L|216:149,1,78.125
312,368,38961,2,0,L|269:249,1,78.125
199,15,39222,2,0,L|242:134,1,78.125
216,373,39482,6,0,L|238:248,1,78.125
295,10,39743,2,0,L|273:135,1,78.125
131,329,40004,2,0,L|213:232,1,78.125
381,55,40265,2,0,L|298:152,1,78.125
79,248,40525,2,0,L|198:205,1,78.125
432,135,40786,6,0,L|313:178,1,78.125
75,231,41047,2,0,L|200:209,1,78.125
75,231,41308,1,0,0:0:0:0:
280,104,42352,5,0,0:0:0:0:
280,88,42873,5,0,0:0:0:0:
280,72,43395,5,0,0:0:0:0:
16,251,43656,5,0,0:0:0:0:
76,145,43786,1,0,0:0:0:0:
137,251,43917,1,0,0:0:0:0:
192,143,44047,1,0,0:0:0:0:
252,37,44177,1,0,0:0:0:0:
313,143,44308,1,0,0:0:0:0:
376,251,44438,1,0,0:0:0:0:
436,145,44568,1,0,0:0:0:0:
497,251,44699,1,0,0:0:0:0:
257,192,44960,5,0,0:0:0:0:
257,176,45221,5,0,0:0:0:0:
257,160,45482,5,0,0:0:0:0:
427,149,45743,5,0,0:0:0:0:
384,225,45873,1,0,0:0:0:0:
340,149,46004,1,0,0:0:0:0:
301,226,46134,1,0,0:0:0:0:
258,302,46264,1,0,0:0:0:0:
215,226,46395,1,0,0:0:0:0:
170,149,46525,1,0,0:0:0:0:
127,225,46655,1,0,0:0:0:0:
83,149,46786,1,0,0:0:0:0:
255,192,47047,5,0,0:0:0:0:
255,208,47308,5,0,0:0:0:0:
255,224,47569,5,0,0:0:0:0:
16,250,47830,5,0,0:0:0:0:
76,144,47960,1,0,0:0:0:0:
137,250,48091,1,0,0:0:0:0:
192,142,48221,1,0,0:0:0:0:
252,36,48351,1,0,0:0:0:0:
313,142,48482,1,0,0:0:0:0:
376,250,48612,1,0,0:0:0:0:
436,144,48742,1,0,0:0:0:0:
497,250,48873,1,0,0:0:0:0:
257,192,49134,5,0,0:0:0:0:
257,176,49395,5,0,0:0:0:0:
257,160,49656,5,0,0:0:0:0:
256,192,50699,12,0,51091,0:0:0:0:
256,192,51221,12,0,51743,0:0:0:0:
307,351,52004,5,0,0:0:0:0:
328,328,52134,1,0,0:0:0:0:
120,290,52265,5,0,0:0:0:0:
136,304,52395,1,0,0:0:0:0:
120,93,52525,5,0,0:0:0:0:
112,112,52656,1,0,0:0:0:0:
307,32,52786,5,0,0:0:0:0:
296,44,52917,1,0,0:0:0:0:
423,192,53047,5,0,0:0:0:0:
416,176,53178,1,0,0:0:0:0:
212,192,53308,6,0,P|232:156|228:200,1,109.375001043081
300,192,53569,6,0,P|280:156|284:200,1,109.375001043081
256,92,53830,5,0,0:0:0:0:
249,0,54091,5,0,0:0:0:0:
280,17,54221,1,0,0:0:0:0:
71,139,54352,5,0,0:0:0:0:
82,118,54482,1,0,0:0:0:0:
148,351,54612,5,0,0:0:0:0:
132,334,54743,1,0,0:0:0:0:
374,343,54873,5,0,0:0:0:0:
357,335,55004,1,0,0:0:0:0:
436,126,55134,5,0,0:0:0:0:
444,147,55265,1,0,0:0:0:0:
300,192,55395,6,0,P|280:228|284:184,1,109.375001043081
212,192,55656,6,0,P|232:228|228:184,1,109.375001043081
256,292,55917,5,0,0:0:0:0:
330,97,56178,5,0,0:0:0:0:
337,117,56308,1,0,0:0:0:0:
188,92,56439,5,0,0:0:0:0:
202,86,56569,1,0,0:0:0:0:
140,225,56699,5,0,0:0:0:0:
139,210,56830,1,0,0:0:0:0:
251,312,56960,5,0,0:0:0:0:
246,301,57091,1,0,0:0:0:0:
368,233,57221,5,0,0:0:0:0:
364,246,57352,1,0,0:0:0:0:
256,236,57482,6,0,P|220:216|264:220,1,109.375001043081
256,148,57743,6,0,P|220:168|264:164,1,109.375001043081
156,192,58004,5,0,0:0:0:0:
0,124,59047,5,0,0:0:0:0:
68,124,59178,1,0,0:0:0:0:
136,124,59308,1,0,0:0:0:0:
204,124,59438,1,0,0:0:0:0:
68,124,59569,5,0,0:0:0:0:
136,124,59700,1,0,0:0:0:0:
204,124,59830,1,0,0:0:0:0:
272,124,59960,1,0,0:0:0:0:
295,193,60091,2,0,P|334:184|294:199,1,125
143,304,60352,5,0,0:0:0:0:
143,79,60482,1,0,0:0:0:0:
368,79,60612,1,0,0:0:0:0:
368,304,60743,1,0,0:0:0:0:
111,259,60873,5,0,0:0:0:0:
188,47,61003,1,0,0:0:0:0:
400,124,61133,1,0,0:0:0:0:
323,336,61264,1,0,0:0:0:0:
97,205,61395,5,0,0:0:0:0:
242,33,61525,1,0,0:0:0:0:
414,178,61655,1,0,0:0:0:0:
269,350,61786,1,0,0:0:0:0:
102,150,61916,5,0,0:0:0:0:
297,38,62046,1,0,0:0:0:0:
409,233,62176,1,0,0:0:0:0:
214,345,62307,1,0,0:0:0:0:
125,100,62438,5,0,0:0:0:0:
347,61,62568,1,0,0:0:0:0:
386,283,62698,1,0,0:0:0:0:
164,322,62829,1,0,0:0:0:0:
164,61,62959,5,0,0:0:0:0:
386,100,63089,1,0,0:0:0:0:
347,322,63219,1,0,0:0:0:0:
125,283,63350,1,0,0:0:0:0:
214,38,63481,5,0,0:0:0:0:
409,150,63611,1,0,0:0:0:0:
297,345,63741,1,0,0:0:0:0:
102,233,63872,1,0,0:0:0:0:
269,33,64002,5,0,0:0:0:0:
414,205,64132,1,0,0:0:0:0:
242,350,64262,1,0,0:0:0:0:
97,178,64393,1,0,0:0:0:0:
323,47,64525,5,0,0:0:0:0:
400,259,64655,1,0,0:0:0:0:
188,336,64785,1,0,0:0:0:0:
111,124,64916,1,0,0:0:0:0:
368,79,65046,5,0,0:0:0:0:
368,304,65176,1,0,0:0:0:0:
143,304,65306,1,0,0:0:0:0:
143,79,65437,1,0,0:0:0:0:
400,124,65568,5,0,0:0:0:0:
323,336,65698,1,0,0:0:0:0:
111,259,65828,5,0,0:0:0:0:
188,47,65959,5,0,0:0:0:0:
414,178,66089,5,0,0:0:0:0:
269,350,66219,5,0,0:0:0:0:
97,205,66349,5,0,0:0:0:0:
200,63,67395,5,0,0:0:0:0:
246,63,67917,5,0,0:0:0:0:
293,62,68438,5,0,0:0:0:0:
103,110,68699,5,0,0:0:0:0:
163,70,68830,1,0,0:0:0:0:
416,259,68960,5,0,0:0:0:0:
355,299,69091,1,0,0:0:0:0:
137,60,69221,5,0,0:0:0:0:
208,43,69352,1,0,0:0:0:0:
381,307,69482,5,0,0:0:0:0:
310,325,69613,1,0,0:0:0:0:
187,35,69743,5,0,0:0:0:0:
259,35,69874,1,0,0:0:0:0:
331,342,70004,5,0,0:0:0:0:
258,333,70135,1,0,0:0:0:0:
245,35,70265,5,0,0:0:0:0:
310,43,70396,1,0,0:0:0:0:
272,357,70526,5,0,0:0:0:0:
208,325,70657,1,0,0:0:0:0:
305,35,70786,5,0,0:0:0:0:
355,70,70917,1,0,0:0:0:0:
212,351,71047,5,0,0:0:0:0:
162,298,71178,1,0,0:0:0:0:
360,43,71308,5,0,0:0:0:0:
388,110,71439,1,0,0:0:0:0:
158,325,71569,5,0,0:0:0:0:
129,258,71700,1,0,0:0:0:0:
402,85,71830,5,0,0:0:0:0:
406,158,71961,1,0,0:0:0:0:
116,282,72091,5,0,0:0:0:0:
112,210,72222,1,0,0:0:0:0:
427,141,72352,5,0,0:0:0:0:
406,210,72483,1,0,0:0:0:0:
91,227,72613,5,0,0:0:0:0:
112,158,72744,1,0,0:0:0:0:
431,201,72873,5,0,0:0:0:0:
388,259,73004,1,0,0:0:0:0:
86,167,73134,5,0,0:0:0:0:
130,109,73265,1,0,0:0:0:0:
416,259,73395,5,0,0:0:0:0:
355,299,73526,1,0,0:0:0:0:
102,110,73656,5,0,0:0:0:0:
163,69,73787,1,0,0:0:0:0:
381,307,73916,5,0,0:0:0:0:
310,325,74047,1,0,0:0:0:0:
137,60,74177,5,0,0:0:0:0:
208,43,74308,1,0,0:0:0:0:
331,342,74438,5,0,0:0:0:0:
258,333,74569,1,0,0:0:0:0:
187,35,74699,5,0,0:0:0:0:
256,192,74830,12,0,76525,0:0:0:0:
183,247,76721,5,0,0:0:0:0:
64,208,76841,1,0,0:0:0:0:
64,83,76961,1,0,0:0:0:0:
183,44,77081,1,0,0:0:0:0:
256,145,77201,1,0,0:0:0:0:
329,247,77321,1,0,0:0:0:0:
448,208,77441,1,0,0:0:0:0:
448,83,77561,1,0,0:0:0:0:
329,44,77681,1,0,0:0:0:0:
256,145,77801,1,0,0:0:0:0:
183,247,77921,1,0,0:0:0:0:
337,292,78161,5,0,0:0:0:0:
337,292,78401,1,0,0:0:0:0:
337,292,78641,5,0,0:0:0:0:
467,250,78761,1,0,0:0:0:0:
467,113,78881,1,0,0:0:0:0:
337,71,79001,1,0,0:0:0:0:
258,180,79121,1,0,0:0:0:0:
179,292,79241,1,0,0:0:0:0:
50,250,79361,1,0,0:0:0:0:
50,113,79481,1,0,0:0:0:0:
179,71,79601,1,0,0:0:0:0:
258,180,79721,1,0,0:0:0:0:
340,295,79841,1,0,0:0:0:0:
162,363,80081,5,0,0:0:0:0:
162,363,80321,1,0,0:0:0:0:
162,363,80561,5,0,0:0:0:0:
5,311,80681,1,0,0:0:0:0:
5,146,80801,1,0,0:0:0:0:
162,95,80921,1,0,0:0:0:0:
257,227,81041,1,0,0:0:0:0:
353,363,81161,1,0,0:0:0:0:
509,311,81281,1,0,0:0:0:0:
509,146,81401,1,0,0:0:0:0:
353,95,81521,1,0,0:0:0:0:
257,227,81641,1,0,0:0:0:0:
162,363,81761,1,0,0:0:0:0:
256,192,82001,12,0,84401,0:0:0:0:
222,144,85444,6,0,P|318:148|225:160,2,250
131,91,88053,2,0,P|86:92|129:98,2,93.7500035762788
381,91,90140,2,0,P|425:92|382:98,2,93.7500035762788
244,292,92227,2,0,P|288:290|245:284,2,93.7500035762788
175,214,93270,2,0,P|131:215|174:222,1,93.7500035762788
256,192,93792,12,0,94314,0:0:0:0:
158,360,94835,5,0,0:0:0:0:
158,22,94966,1,0,0:0:0:0:
450,192,95096,1,0,0:0:0:0:
83,317,95227,5,0,0:0:0:0:
251,25,95358,1,0,0:0:0:0:
420,317,95488,1,0,0:0:0:0:
61,196,95618,5,0,0:0:0:0:
353,27,95749,1,0,0:0:0:0:
353,364,95879,1,0,0:0:0:0:
84,55,96010,5,0,0:0:0:0:
421,55,96141,1,0,0:0:0:0:
252,346,96271,1,0,0:0:0:0:
87,69,96401,5,0,0:0:0:0:
423,313,96531,1,0,0:0:0:0:
87,69,96661,5,0,0:0:0:0:
423,313,96791,1,0,0:0:0:0:
342,341,96922,5,0,0:0:0:0:
342,41,97053,1,0,0:0:0:0:
82,192,97183,1,0,0:0:0:0:
409,304,97314,5,0,0:0:0:0:
260,43,97445,1,0,0:0:0:0:
109,304,97575,1,0,0:0:0:0:
428,196,97705,5,0,0:0:0:0:
169,45,97836,1,0,0:0:0:0:
169,345,97966,1,0,0:0:0:0:
408,70,98097,5,0,0:0:0:0:
108,70,98228,1,0,0:0:0:0:
259,329,98358,1,0,0:0:0:0:
424,69,98487,5,0,0:0:0:0:
88,313,98617,1,0,0:0:0:0:
424,69,98747,5,0,0:0:0:0:
88,313,98877,1,0,0:0:0:0:
364,4,99009,5,0,0:0:0:0:
364,379,99140,1,0,0:0:0:0:
39,191,99270,1,0,0:0:0:0:
448,52,99401,5,0,0:0:0:0:
261,377,99532,1,0,0:0:0:0:
73,52,99662,1,0,0:0:0:0:
472,187,99792,5,0,0:0:0:0:
148,375,99923,1,0,0:0:0:0:
148,0,100053,1,0,0:0:0:0:
447,344,100184,5,0,0:0:0:0:
72,344,100315,1,0,0:0:0:0:
260,20,100445,1,0,0:0:0:0:
310,159,100574,6,0,P|462:248|317:155,1,562.500021457673
64,48,101096,5,0,0:0:0:0:
447,48,101357,5,0,0:0:0:0:
64,335,101488,1,0,0:0:0:0:
447,335,101748,5,0,0:0:0:0:
64,48,101879,1,0,0:0:0:0:
447,335,102140,5,0,0:0:0:0:
