osu file format v14

[General]
AudioFilename: audio.mp3
AudioLeadIn: 0
PreviewTime: 33554
Countdown: 0
SampleSet: Soft
StackLeniency: 0.7
Mode: 0
LetterboxInBreaks: 0
WidescreenStoryboard: 0

[Editor]
Bookmarks: 11184
DistanceSpacing: 1.1
BeatDivisor: 4
GridSize: 8
TimelineZoom: 2

[Metadata]
Title:Take me home
TitleUnicode:Take me home
Artist:PinkPantheress
ArtistUnicode:PinkPantheress
Creator:AJT
Version:qiyana's hard
Source:
Tags:english pop dnb pink pantheress rho smh dyl-byl qiyana arronchu1207
BeatmapID:3634749
BeatmapSetID:1552741

[Difficulty]
HPDrainRate:4.5
CircleSize:3.5
OverallDifficulty:6
ApproachRate:7.5
SliderMultiplier:1.6
SliderTickRate:1

[Events]
//Background and Video events
0,0,"image.jpg",0,0
//Break Periods
//Storyboard Layer 0 (Background)
//Storyboard Layer 1 (Fail)
//Storyboard Layer 2 (Pass)
//Storyboard Layer 3 (Foreground)
//Storyboard Layer 4 (Overlay)
//Storyboard Sound Samples

[TimingPoints]
558,349.507776548028,4,2,1,69,1,0
32533,-166.666666666667,4,2,1,69,0,0
34110,-100,4,2,1,80,0,1
56479,-100,4,2,1,69,0,0
77273,-166.666666666667,4,2,1,69,0,0
78847,-100,4,2,1,80,0,1
101216,-100,4,2,1,20,0,0

[Colours]
Combo1 : 255,255,74
Combo2 : 255,87,187
Combo3 : 151,88,218

[HitObjects]
142,380,11742,6,0,B|153:343|153:343|137:299,1,80,2|0,3:2|3:2,0:0:0:0:
70,247,12091,1,8,3:2:0:0:
0,191,12266,2,0,P|51:157|146:201,1,160,0|0,3:2|3:2,0:0:0:0:
212,140,12790,2,0,P|245:159|296:153,1,80,8|0,3:2|3:2,0:0:0:0:
363,114,13140,5,2,3:2:0:0:
435,163,13315,2,0,L|434:243,1,80,0|8,3:2|3:2,0:0:0:0:
365,299,13664,2,0,B|319:317|284:298|293:290|260:264|208:287,1,160,0|0,3:2|3:2,0:0:0:0:
139,331,14188,1,8,3:2:0:0:
139,331,14363,1,0,3:2:0:0:
80,265,14538,5,2,3:2:0:0:
123,188,14713,2,0,B|134:151|134:151|118:107,1,80,0|8,3:2|3:2,0:0:0:0:
84,30,15062,2,0,B|126:16|164:30|155:38|188:64|238:42,1,160,0|0,3:2|3:2,0:0:0:0:
316,0,15586,1,8,3:2:0:0:
316,0,15761,1,0,3:2:0:0:
343,83,15936,6,0,P|340:125|366:165,2,80,2|0|8,3:2|3:2|3:2,0:0:0:0:
404,20,16460,2,0,P|474:31|515:104,1,160,0|0,3:2|3:2,0:0:0:0:
430,106,16984,1,8,3:2:0:0:
430,106,17159,1,0,3:2:0:0:
357,157,17334,5,2,3:2:0:0:
399,234,17509,2,0,L|398:314,1,80,0|8,3:2|3:2,0:0:0:0:
319,354,17858,2,0,B|257:368|257:368|159:346,1,160,0|0,3:2|3:2,0:0:0:0:
82,381,18382,2,0,P|72:342|84:305,1,80,8|0,3:2|3:2,0:0:0:0:
132,230,18732,5,2,3:2:0:0:
184,159,18907,2,0,L|264:160,1,80,0|8,3:2|3:2,0:0:0:0:
319,228,19256,2,0,P|351:157|316:88,1,160,0|0,3:2|3:2,0:0:0:0:
251,28,19780,1,8,3:2:0:0:
251,28,19955,1,0,3:2:0:0:
174,71,20130,5,2,3:2:0:0:
96,30,20305,2,0,P|83:67|93:105,1,80,0|8,3:2|3:2,0:0:0:0:
60,187,20654,2,0,L|65:361,1,160,0|0,3:2|3:2,0:0:0:0:
151,380,21178,1,8,3:2:0:0:
151,380,21353,1,0,3:2:0:0:
219,324,21528,6,0,B|256:339|256:339|295:329,2,80,2|0|8,3:2|3:2|3:2,0:0:0:0:
136,291,22052,2,0,P|117:235|188:151,1,160,0|0,3:2|3:2,0:0:0:0:
209,240,22576,1,8,3:2:0:0:
209,240,22751,1,0,3:2:0:0:
295,218,22926,6,0,P|334:228|380:210,1,80,2|0,3:2|3:2,0:0:0:0:
333,141,23276,1,8,3:2:0:0:
333,141,23450,1,0,3:2:0:0:
393,77,23625,1,2,3:2:0:0:
332,13,23800,2,0,B|294:0|294:0|255:11,1,80,0|8,3:2|3:2,0:0:0:0:
178,54,24149,6,0,B|132:72|97:53|106:45|73:19|21:42,2,160,0|0|0,3:2|3:2|3:2,0:0:0:0:
255,10,25023,1,2,3:2:0:0:
255,10,25198,1,0,3:2:0:0:
305,81,25373,2,0,P|282:112|279:152,1,80,8|0,3:2|3:2,0:0:0:0:
339,217,25722,6,0,P|362:248|365:288,2,80,2|0|8,3:2|3:2|3:2,0:0:0:0:
279,152,26246,1,0,3:2:0:0:
205,199,26421,2,0,L|204:295,1,80,2|0,3:2|3:2,0:0:0:0:
123,314,26771,1,8,3:2:0:0:
68,244,26945,6,0,P|33:313|68:383,2,160,0|0|0,3:2|3:2|3:2,0:0:0:0:
22,174,27819,1,2,3:2:0:0:
22,174,27994,1,0,3:2:0:0:
89,118,28169,2,0,B|127:131|127:131|166:120,1,80,8|0,3:2|3:2,0:0:0:0:
247,153,28518,6,0,P|256:114|243:77,2,80,2|0|8,3:2|3:2|3:2,0:0:0:0:
189,219,29042,1,0,3:2:0:0:
130,285,29217,2,0,P|120:323|133:360,2,80,2|0|8,3:2|3:2|3:2,0:0:0:0:
189,219,29741,6,0,P|264:237|325:190,2,160,0|0|0,3:2|3:2|3:2,0:0:0:0:
247,153,30615,1,2,3:2:0:0:
247,153,30790,1,0,3:2:0:0:
303,85,30965,2,0,L|386:89,1,80,8|0,3:2|3:2,0:0:0:0:
464,52,31314,5,2,3:2:0:0:
464,52,31489,1,0,3:2:0:0:
512,126,31664,2,0,L|508:209,1,80,8|0,3:2|3:2,0:0:0:0:
438,259,32013,2,0,P|402:231|349:232,2,80,2|0|8,3:2|3:2|3:2,0:0:0:0:
368,318,32537,6,0,B|309:353|222:322|247:287|157:257|96:301,1,287.999991210938,0|0,3:2|0:2,0:0:0:0:
27,356,33761,1,0,0:2:0:0:
27,356,33935,1,0,0:2:0:0:
14,268,34110,6,0,L|16:186,1,80,2|0,3:2|3:2,0:0:0:0:
60,111,34460,1,8,3:2:0:0:
60,111,34635,1,0,3:2:0:0:
134,158,34809,2,0,P|173:163|209:148,1,80,2|0,3:2|3:2,0:0:0:0:
286,104,35159,2,0,P|325:98|361:113,1,80,8|0,3:2|3:2,0:0:0:0:
414,43,35508,6,0,P|449:111|418:182,1,160,2|8,3:2|3:2,0:0:0:0:
365,253,36033,2,0,P|329:184|360:113,1,160,0|0,3:2|3:2,0:0:0:0:
419,186,36557,1,8,3:2:0:0:
419,186,36732,1,0,3:2:0:0:
425,318,36906,5,2,3:2:0:0:
365,253,37081,2,0,L|265:251,2,80,0|8|0,3:2|3:2|3:2,0:0:0:0:
419,184,37605,1,2,3:2:0:0:
360,113,37780,2,0,L|260:111,1,80,0|8,3:2|3:2,0:0:0:0:
225,183,38130,6,0,P|189:114|221:44,2,160,0|0|0,3:2|3:2|3:2,0:0:0:0:
285,251,39003,1,2,3:2:0:0:
241,328,39178,1,8,0:0:0:0:
241,328,39353,1,8,0:0:0:0:
155,307,39528,1,0,3:2:0:0:
285,251,39702,6,0,P|315:277|326:315,1,80,2|0,3:2|3:2,0:0:0:0:
410,342,40052,2,0,P|439:315|478:307,1,80,8|0,3:2|3:2,0:0:0:0:
510,225,40401,2,0,L|507:61,1,160,2|8,3:2|3:2,0:0:0:0:
432,17,40926,1,0,3:2:0:0:
353,56,41100,6,0,B|307:74|272:55|281:47|248:21|196:44,1,160,2|8,3:2|3:2,0:0:0:0:
118,77,41625,2,0,P|102:152|153:210,1,160,0|0,3:2|3:2,0:0:0:0:
192,133,42149,1,8,3:2:0:0:
192,133,42324,1,0,3:2:0:0:
221,267,42498,6,0,L|216:363,2,80,2|0|8,3:2|3:2|3:2,0:0:0:0:
292,215,43023,1,0,3:2:0:0:
360,270,43197,2,0,B|397:280|397:280|443:264,2,80,2|0|8,3:2|3:2|3:2,0:0:0:0:
291,214,43722,6,0,P|279:177|292:140,1,80,0|2,3:2|3:2,0:0:0:0:
220,87,44071,2,0,P|193:116|155:124,1,80,0|8,3:2|0:0,0:0:0:0:
99,193,44421,2,0,P|63:126|97:57,1,160,0|8,3:2|0:0,0:0:0:0:
157,128,44945,1,8,0:0:0:0:
157,128,45120,1,0,3:2:0:0:
151,268,45294,5,2,3:2:0:0:
151,268,45469,1,0,3:2:0:0:
232,234,45644,2,0,B|269:224|269:224|315:240,1,80,8|0,3:2|3:2,0:0:0:0:
393,276,45994,1,2,3:2:0:0:
393,276,46168,1,0,3:2:0:0:
466,226,46343,2,0,L|469:144,1,80,8|0,3:2|3:2,0:0:0:0:
405,84,46693,6,0,B|357:62|324:88|333:96|298:115|252:97,1,160,2|8,3:2|3:2,0:0:0:0:
171,60,47217,2,0,B|123:51|109:13|109:13|117:54|86:85,1,160,0|0,3:2|3:2,0:0:0:0:
15,133,47741,1,8,3:2:0:0:
15,133,47916,1,0,3:2:0:0:
150,147,48091,5,2,3:2:0:0:
104,222,48265,2,0,B|92:262|92:262|107:302,1,80,0|8,3:2|3:2,0:0:0:0:
157,369,48615,1,0,3:2:0:0:
238,337,48790,2,0,L|327:341,1,80,2|0,3:2|3:2,0:0:0:0:
374,272,49139,1,8,3:2:0:0:
427,200,49314,6,0,P|462:268|431:339,2,160,0|0|0,3:2|3:2|0:0,0:0:0:0:
339,188,50188,1,2,3:2:0:0:
374,272,50362,1,8,0:0:0:0:
374,272,50537,1,8,0:0:0:0:
298,317,50712,1,0,3:2:0:0:
339,188,50887,6,0,L|337:109,1,80,2|0,3:2|3:2,0:0:0:0:
255,74,51236,2,0,B|217:64|217:64|176:76,1,80,8|0,3:2|3:2,0:0:0:0:
118,9,51586,2,0,P|88:80|125:148,1,160,2|8,3:2|3:2,0:0:0:0:
188,210,52110,1,0,3:2:0:0:
141,284,52285,6,0,B|103:294|103:294|62:282,1,80,2|0,3:2|3:2,0:0:0:0:
14,214,52634,2,0,P|-8:181|-7:137,1,80,8|0,3:2|3:2,0:0:0:0:
78,153,52984,2,0,B|124:135|159:154|150:162|183:188|235:165,1,160,0|8,3:2|3:2,0:0:0:0:
294,106,53508,1,0,3:2:0:0:
281,243,53683,6,0,P|283:285|303:315,1,80,2|0,3:2|3:2,0:0:0:0:
368,255,54032,2,0,P|404:275|441:272,1,80,8|0,3:2|3:2,0:0:0:0:
424,190,54382,1,2,3:2:0:0:
424,190,54556,1,0,3:2:0:0:
488,131,54731,1,8,3:2:0:0:
420,73,54906,6,0,B|374:55|339:74|348:82|315:108|263:85,1,160,0|0,3:2|3:2,0:0:0:0:
192,39,55430,1,8,0:0:0:0:
192,39,55605,1,0,3:2:0:0:
110,72,55780,1,2,3:2:0:0:
28,106,55954,2,0,P|17:67|29:30,2,80,8|8|0,0:0|0:0|3:2,0:0:0:0:
98,158,56479,6,0,P|108:196|96:233,1,80,2|0,3:2|3:2,0:0:0:0:
58,313,56828,1,8,3:2:0:0:
133,357,57003,2,0,B|194:374|194:374|293:357,1,160,0|0,3:2|3:2,0:0:0:0:
373,331,57527,2,0,B|384:293|384:293|371:250,1,80,8|0,3:2|3:2,0:0:0:0:
342,177,57877,5,2,3:2:0:0:
342,177,58052,1,0,3:2:0:0:
407,118,58226,1,8,3:2:0:0:
473,60,58401,2,0,P|401:30|333:67,1,160,0|0,3:2|3:2,0:0:0:0:
252,104,58925,2,0,L|170:102,1,80,8|0,3:2|3:2,0:0:0:0:
100,51,59275,5,2,3:2:0:0:
43,118,59450,2,0,B|29:157|29:157|41:200,1,80,0|8,3:2|3:2,0:0:0:0:
91,265,59799,2,0,B|138:286|171:260|162:252|197:233|243:251,1,160,0|0,3:2|3:2,0:0:0:0:
327,290,60323,1,8,3:2:0:0:
327,290,60498,1,0,3:2:0:0:
394,235,60673,6,0,B|433:247|433:247|478:233,2,80,2|0|8,3:2|3:2|3:2,0:0:0:0:
313,203,61197,2,0,P|289:140|347:62,1,160,0|0,3:2|3:2,0:0:0:0:
381,148,61721,1,8,3:2:0:0:
381,148,61896,1,0,3:2:0:0:
462,116,62071,5,2,3:2:0:0:
512,189,62246,2,0,L|509:271,1,80,0|8,3:2|3:2,0:0:0:0:
445,331,62595,2,0,P|373:361|305:324,1,160,0|0,3:2|3:2,0:0:0:0:
249,256,63119,2,0,L|167:259,1,80,8|0,3:2|3:2,0:0:0:0:
91,301,63469,6,0,L|94:383,2,80,2|0|8,3:2|3:2|3:2,0:0:0:0:
11,262,63993,2,0,P|0:184|53:128,1,160,0|0,3:2|3:2,0:0:0:0:
88,215,64517,1,8,3:2:0:0:
88,215,64692,1,0,3:2:0:0:
174,198,64867,5,2,3:2:0:0:
210,277,65042,2,0,B|249:289|249:289|294:275,1,80,0|8,3:2|3:2,0:0:0:0:
343,345,65391,2,0,P|375:275|339:207,1,160,0|0,3:2|3:2,0:0:0:0:
283,138,65915,2,0,B|271:99|271:99|285:54,1,80,8|0,3:2|3:2,0:0:0:0:
348,1,66265,5,2,3:2:0:0:
419,51,66440,2,0,P|453:32|492:34,1,80,0|8,3:2|3:2,0:0:0:0:
475,120,66789,2,0,B|492:181|492:181|475:280,1,160,0|0,3:2|3:2,0:0:0:0:
459,365,67313,1,8,3:2:0:0:
459,365,67488,1,0,3:2:0:0:
391,305,67663,6,0,P|355:287|309:292,1,80,2|0,3:2|3:2,0:0:0:0:
239,333,68013,2,0,P|203:350|157:345,1,80,8|0,3:2|3:2,0:0:0:0:
84,309,68362,2,0,L|86:228,1,80,2|0,3:2|3:2,0:0:0:0:
153,172,68712,1,8,3:2:0:0:
222,115,68886,6,0,P|154:81|84:114,2,160,0|0|0,3:2|3:2|3:2,0:0:0:0:
286,185,69760,1,2,3:2:0:0:
286,185,69935,1,0,3:2:0:0:
363,143,70110,2,0,B|401:132|401:132|439:143,1,80,8|0,3:2|3:2,0:0:0:0:
495,75,70459,6,0,P|528:137|494:214,1,160,2|8,3:2|3:2,0:0:0:0:
431,275,70983,1,0,3:2:0:0:
431,275,71158,1,2,3:2:0:0:
468,354,71333,2,0,P|430:365|390:353,1,80,0|8,3:2|3:2,0:0:0:0:
312,317,71682,6,0,B|266:299|231:318|240:326|207:352|155:329,2,160,0|0|0,3:2|3:2|3:2,0:0:0:0:
392,356,72556,1,2,3:2:0:0:
392,356,72731,1,0,3:2:0:0:
431,275,72906,2,0,L|430:194,1,80,8|0,3:2|3:2,0:0:0:0:
486,128,73255,5,2,3:2:0:0:
486,128,73430,1,0,3:2:0:0:
420,69,73605,2,0,B|381:57|381:57|339:69,1,80,8|0,3:2|3:2,0:0:0:0:
260,98,73954,1,2,3:2:0:0:
180,59,74129,2,0,P|169:97|181:137,1,80,0|8,3:2|3:2,0:0:0:0:
251,188,74478,6,0,P|183:224|113:194,2,160,0|0|0,3:2|3:2|3:2,0:0:0:0:
317,129,75352,1,2,3:2:0:0:
317,129,75527,1,0,3:2:0:0:
396,166,75702,2,0,L|395:260,1,80,8|0,3:2|3:2,0:0:0:0:
337,312,76051,6,0,L|243:311,1,80,2|0,3:2|3:2,0:0:0:0:
178,271,76401,2,0,L|84:272,1,80,8|0,3:2|3:2,0:0:0:0:
23,224,76750,2,0,P|0:176|8:137,1,80,2|0,3:2|3:2,0:0:0:0:
62,86,77100,1,8,3:2:0:0:
125,27,77274,6,0,B|184:-8|271:23|246:58|336:88|397:44,1,287.999991210938,0|0,3:2|0:2,0:0:0:0:
477,0,78498,1,0,0:2:0:0:
477,0,78672,1,0,0:2:0:0:
474,88,78847,6,0,L|470:191,1,80,2|0,3:2|3:2,0:0:0:0:
425,245,79197,1,8,3:2:0:0:
425,245,79372,1,0,3:2:0:0:
462,324,79546,2,0,P|424:335|384:323,1,80,2|0,3:2|3:2,0:0:0:0:
309,281,79896,2,0,P|271:270|231:282,1,80,8|0,3:2|3:2,0:0:0:0:
157,327,80245,6,0,B|134:292|149:253|149:253|133:293|84:301,1,160,2|8,3:2|3:2,0:0:0:0:
19,357,80770,2,0,B|-12:317|3:274|3:274|28:193,1,160,0|0,3:2|3:2,0:0:0:0:
54,125,81294,1,8,3:2:0:0:
54,125,81469,1,0,3:2:0:0:
171,56,81643,6,0,P|207:78|256:71,1,80,2|0,3:2|3:2,0:0:0:0:
325,42,81993,2,0,P|361:20|410:27,1,80,8|0,3:2|3:2,0:0:0:0:
448,93,82342,2,0,L|446:181,1,80,2|0,3:2|3:2,0:0:0:0:
392,243,82692,1,8,3:2:0:0:
335,309,82867,6,0,B|287:331|254:305|263:297|228:278|182:296,2,160,0|0|0,3:2|3:2|3:2,0:0:0:0:
392,243,83740,1,2,3:2:0:0:
362,163,83915,1,8,0:0:0:0:
362,163,84090,1,8,0:0:0:0:
274,176,84265,1,0,3:2:0:0:
392,243,84439,6,0,P|426:226|445:185,1,80,2|0,3:2|3:2,0:0:0:0:
503,123,84789,2,0,P|470:101|425:105,1,80,8|0,3:2|3:2,0:0:0:0:
362,163,85138,1,2,3:2:0:0:
362,163,85313,1,0,3:2:0:0:
293,107,85488,2,0,P|253:105|221:127,1,80,8|0,3:2|3:2,0:0:0:0:
168,199,85837,6,0,P|132:131|163:60,1,160,2|8,3:2|3:2,0:0:0:0:
221,127,86362,2,0,P|256:195|226:266,1,160,0|0,3:2|3:2,0:0:0:0:
169,334,86886,1,8,3:2:0:0:
169,334,87061,1,0,3:2:0:0:
168,199,87235,5,2,3:2:0:0:
226,266,87410,2,0,L|312:264,1,80,0|8,3:2|3:2,0:0:0:0:
370,324,87760,1,0,3:2:0:0:
437,266,87934,2,0,L|435:180,1,80,2|0,3:2|3:2,0:0:0:0:
486,114,88284,1,8,3:2:0:0:
428,47,88459,6,0,B|380:25|347:51|356:59|321:78|275:60,2,160,0|0|0,3:2|3:2|0:0,0:0:0:0:
486,114,89332,2,0,L|489:194,1,80,2|8,3:2|0:0,0:0:0:0:
506,280,89682,2,0,L|503:360,1,80,8|0,0:0|3:2,0:0:0:0:
370,324,90031,6,0,B|329:334|329:334|293:322,1,80,2|0,3:2|3:2,0:0:0:0:
233,256,90381,1,8,3:2:0:0:
233,256,90556,1,0,3:2:0:0:
153,292,90731,2,0,P|142:254|154:214,1,80,2|0,3:2|3:2,0:0:0:0:
78,168,91080,2,0,P|105:139|146:129,1,80,8|0,3:2|3:2,0:0:0:0:
225,163,91430,6,0,B|273:185|306:159|297:151|332:132|378:150,1,160,2|8,3:2|3:2,0:0:0:0:
432,218,91954,2,0,P|464:147|429:78,1,160,0|0,3:2|3:2,0:0:0:0:
378,13,92478,1,8,3:2:0:0:
378,13,92653,1,0,3:2:0:0:
377,149,92828,5,2,3:2:0:0:
432,218,93002,2,0,L|521:215,2,80,0|8|0,3:2|3:2|3:2,0:0:0:0:
375,285,93527,1,2,3:2:0:0:
311,346,93701,2,0,L|222:343,1,80,0|8,3:2|3:2,0:0:0:0:
147,371,94051,6,0,P|87:324|87:243,2,160,0|0|0,3:2|3:2|3:2,0:0:0:0:
231,343,94925,1,2,3:2:0:0:
168,288,95099,1,8,0:0:0:0:
168,288,95274,1,8,0:0:0:0:
206,209,95449,1,0,3:2:0:0:
231,343,95624,6,0,B|268:354|268:354|308:343,1,80,2|0,3:2|3:2,0:0:0:0:
390,310,95973,2,0,L|390:230,1,80,8|0,3:2|3:2,0:0:0:0:
458,174,96323,2,0,P|387:141|318:176,1,160,2|8,3:2|3:2,0:0:0:0:
265,247,96847,1,0,3:2:0:0:
211,316,97022,6,0,P|140:348|71:313,1,160,2|8,3:2|3:2,0:0:0:0:
142,259,97546,2,0,B|159:198|159:198|142:102,1,160,0|0,3:2|3:2,0:0:0:0:
88,40,98070,1,8,3:2:0:0:
88,40,98245,1,0,3:2:0:0:
222,59,98420,6,0,L|305:70,1,80,2|0,3:2|3:2,0:0:0:0:
361,141,98769,1,8,3:2:0:0:
361,141,98944,1,0,3:2:0:0:
443,112,99119,2,0,L|454:29,2,80,2|0|8,3:2|3:2|3:2,0:0:0:0:
483,190,99643,6,0,L|461:348,1,160,0|0,3:2|3:2,0:0:0:0:
379,380,100167,1,8,0:0:0:0:
329,307,100342,2,0,B|281:285|248:311|257:319|222:338|176:320,1,160,0|0,3:2|0:0,0:0:0:0:
112,259,100866,2,0,B|72:254|72:254|28:281,1,80,8|0,0:0|3:2,0:0:0:0:
93,344,101216,5,2,0:2:0:0:
