osu file format v14

[General]
AudioFilename: audio.mp3
AudioLeadIn: 0
PreviewTime: 33554
Countdown: 0
SampleSet: Soft
StackLeniency: 0.7
Mode: 0
LetterboxInBreaks: 0
WidescreenStoryboard: 1

[Editor]
Bookmarks: 33904
DistanceSpacing: 1.2
BeatDivisor: 4
GridSize: 8
TimelineZoom: 2

[Metadata]
Title:Take me home
TitleUnicode:Take me home
Artist:PinkPantheress
ArtistUnicode:PinkPantheress
Creator:AJT
Version:i-iii-iii
Source:
Tags:english pop dnb pink pantheress rho smh dyl-byl qiyana arronchu1207
BeatmapID:3172604
BeatmapSetID:1552741

[Difficulty]
HPDrainRate:5
CircleSize:4.2
OverallDifficulty:8
ApproachRate:9.4
SliderMultiplier:2
SliderTickRate:1

[Events]
//Background and Video events
0,0,"image.jpg",0,0
//Break Periods
//Storyboard Layer 0 (Background)
//Storyboard Layer 1 (Fail)
//Storyboard Layer 2 (Pass)
//Storyboard Layer 3 (Foreground)
//Storyboard Layer 4 (Overlay)
//Storyboard Sound Samples

[TimingPoints]
558,349.507776548028,4,2,1,69,1,0
814,-66.6666666666667,4,2,1,69,0,0
901,-333.333333333333,4,2,1,69,0,0
1600,-66.6666666666667,4,2,1,69,0,0
1862,-66.6666666666667,4,2,1,69,0,0
1950,-333.333333333333,4,2,1,69,0,0
2474,-66.6666666666667,4,2,1,69,0,0
2823,-76.9230769230769,4,2,1,69,0,0
3348,-66.6666666666667,4,2,1,69,0,0
3610,-66.6666666666667,4,2,1,69,0,0
3697,-333.333333333333,4,2,1,69,0,0
4396,-89.2857142857143,4,2,1,69,0,0
5445,-89.2857142857143,4,2,1,69,0,0
6144,-100,4,2,1,69,0,0
11736,-100,4,2,1,69,0,0
19601,-66.6666666666667,4,2,1,69,0,0
20125,-100,4,2,1,69,0,0
22397,-57.1428571428571,4,2,1,69,0,0
22921,-80,4,2,1,69,0,0
25718,-86.9565217391304,4,2,1,69,0,0
26067,-93.4579439252336,4,2,1,69,0,0
26417,-100,4,2,1,69,0,0
27989,-80,4,2,1,69,0,0
30786,-57.1428571428571,4,2,1,69,0,0
31660,-86.9565217391304,4,2,1,69,0,0
32533,-200,4,2,1,69,0,0
33582,-500,4,2,1,69,0,0
34110,-66.6666666666667,4,2,1,80,0,1
34456,-100,4,2,1,80,0,1
34805,-66.6666666666667,4,2,1,80,0,1
35155,-100,4,2,1,80,0,1
35504,-66.6666666666667,4,2,1,80,0,1
36378,-50,4,2,1,80,0,1
36815,-66.6666666666667,4,2,1,80,0,1
39174,-100,4,2,1,80,0,1
39699,-66.6666666666667,4,2,1,80,0,1
40048,-100,4,2,1,80,0,1
40398,-66.6666666666667,4,2,1,80,0,1
40747,-100,4,2,1,80,0,1
41097,-57.1428571428571,4,2,1,80,0,1
41971,-50,4,2,1,80,0,1
42495,-66.6666666666667,4,2,1,80,0,1
43718,-100,4,2,1,80,0,1
45291,-66.6666666666667,4,2,1,80,0,1
45640,-100,4,2,1,80,0,1
45990,-66.6666666666667,4,2,1,80,0,1
46339,-100,4,2,1,80,0,1
46689,-57.1428571428571,4,2,1,80,0,1
47563,-50,4,2,1,80,0,1
49311,-66.6666666666667,4,2,1,80,0,1
50357,-100,4,2,1,80,0,1
50534,-66.6666666666667,4,2,1,80,0,1
51233,-100,4,2,1,80,0,1
51583,-57.1428571428571,4,2,1,80,0,1
51932,-100,4,2,1,80,0,1
52282,-50,4,2,1,80,0,1
53155,-50,4,2,1,80,0,1
54903,-66.6666666666667,4,2,1,80,0,1
55253,-100,4,2,1,80,0,1
55602,-200,4,2,1,80,0,1
55952,-100,4,2,1,80,0,1
56479,-100,4,2,1,69,0,0
58661,-100,4,2,1,5,0,0
58748,-100,4,2,1,69,0,0
61457,-100,4,2,1,5,0,0
61544,-100,4,2,1,69,0,0
64253,-100,4,2,1,5,0,0
64340,-66.6666666666667,4,2,1,69,0,0
64865,-100,4,2,1,69,0,0
67049,-100,4,2,1,5,0,0
67137,-100,4,2,1,69,0,0
67661,-80,4,2,1,69,0,0
70457,-86.9565217391304,4,2,1,69,0,0
70806,-93.4579439252336,4,2,1,69,0,0
71156,-100,4,2,1,69,0,0
72728,-80,4,2,1,69,0,0
75525,-57.1428571428571,4,2,1,69,0,0
76399,-86.9565217391304,4,2,1,69,0,0
78322,-500,4,2,1,69,0,0
78847,-66.6666666666667,4,2,1,80,0,1
79196,-100,4,2,1,80,0,1
79545,-66.6666666666667,4,2,1,80,0,1
79895,-100,4,2,1,80,0,1
80244,-66.6666666666667,4,2,1,80,0,1
81118,-50,4,2,1,80,0,1
81555,-66.6666666666667,4,2,1,80,0,1
83914,-100,4,2,1,80,0,1
84439,-66.6666666666667,4,2,1,80,0,1
84788,-100,4,2,1,80,0,1
85138,-66.6666666666667,4,2,1,80,0,1
85487,-100,4,2,1,80,0,1
85837,-57.1428571428571,4,2,1,80,0,1
87235,-66.6666666666667,4,2,1,80,0,1
88458,-100,4,2,1,80,0,1
90031,-66.6666666666667,4,2,1,80,0,1
90380,-100,4,2,1,80,0,1
90730,-66.6666666666667,4,2,1,80,0,1
91079,-100,4,2,1,80,0,1
91429,-57.1428571428571,4,2,1,80,0,1
92303,-50,4,2,1,80,0,1
94051,-66.6666666666667,4,2,1,80,0,1
95097,-100,4,2,1,80,0,1
95274,-66.6666666666667,4,2,1,80,0,1
95973,-100,4,2,1,80,0,1
96323,-57.1428571428571,4,2,1,80,0,1
96672,-100,4,2,1,80,0,1
97022,-50,4,2,1,80,0,1
97895,-50,4,2,1,80,0,1
99643,-66.6666666666667,4,2,1,80,0,1
99992,-100,4,2,1,80,0,1
100342,-200,4,2,1,80,0,1
100692,-100,4,2,1,80,0,1
101216,-100,4,2,1,5,0,0

[Colours]
Combo1 : 255,255,74
Combo2 : 255,87,187
Combo3 : 151,88,218

[HitObjects]
76,267,11742,5,2,3:2:0:0:
193,290,11917,1,0,3:2:0:0:
311,311,12091,1,8,3:2:0:0:
342,384,12266,2,0,P|351:332|393:179,1,200,0|0,3:2|3:2,0:0:0:0:
333,24,12790,1,8,3:2:0:0:
416,172,12965,6,0,P|411:121|400:53,1,100,0|2,3:2|3:2,0:0:0:0:
240,146,13315,1,0,3:2:0:0:
333,24,13489,1,8,3:2:0:0:
203,27,13664,2,0,P|202:91|189:194,1,150,0|0,3:2|0:0,0:0:0:0:
189,253,14014,6,0,P|162:247|143:233,1,50,0|0,3:2|0:0,0:0:0:0:
40,160,14188,2,0,P|26:180|17:209,1,50,8|0,3:2|0:0,0:0:0:0:
13,232,14363,1,0,3:2:0:0:
152,384,14538,5,2,3:2:0:0:
172,266,14713,1,0,3:2:0:0:
194,147,14887,1,8,3:2:0:0:
237,35,15062,2,0,B|298:72|267:125|314:160,1,150,0|0,3:2|0:0,0:0:0:0:
346,117,15412,5,0,3:2:0:0:
320,328,15586,1,8,3:2:0:0:
372,271,15761,2,0,P|417:288|486:321,2,100,0|2|0,3:2|3:2|3:2,0:0:0:0:
295,165,16285,1,8,3:2:0:0:
402,143,16460,2,0,P|325:135|255:108,1,150,0|0,3:2|0:0,0:0:0:0:
166,46,16810,6,0,P|178:20|204:5,1,50,0|0,3:2|0:0,0:0:0:0:
345,45,16984,2,0,P|335:23|316:8,1,50,8|0,3:2|0:0,0:0:0:0:
299,0,17159,1,0,3:2:0:0:
257,109,17334,5,2,3:2:0:0:
173,163,17509,1,0,3:2:0:0:
76,138,17683,1,8,3:2:0:0:
40,248,17858,2,0,B|74:161|-25:131|4:59,1,200,0|0,3:2|3:2,0:0:0:0:
114,13,18382,1,8,3:2:0:0:
169,73,18557,6,0,P|215:54|237:3,1,100,0|2,3:2|3:2,0:0:0:0:
363,159,18907,1,0,3:2:0:0:
460,84,19081,1,8,3:2:0:0:
231,127,19256,2,0,B|166:102|134:148|75:120,1,150,0|0,3:2|0:0,0:0:0:0:
32,160,19606,6,0,P|45:114|53:-8,2,150.000005722046,0|8|0,3:2|3:2|3:2,0:0:0:0:
0,320,20130,5,2,3:2:0:0:
112,280,20305,1,0,3:2:0:0:
53,174,20479,1,8,3:2:0:0:
112,280,20654,2,0,B|187:242|211:331|318:305,1,200,0|0,3:2|3:2,0:0:0:0:
401,381,21178,1,8,3:2:0:0:
413,379,21353,6,0,P|461:375|489:325,2,100,0|2|0,3:2|3:2|3:2,0:0:0:0:
297,106,21877,1,8,3:2:0:0:
337,129,22052,1,0,3:2:0:0:
348,178,22227,1,2,3:2:0:0:
348,178,22402,6,0,P|325:176|163:202,2,175.00000166893,0|8|0,3:2|3:2|3:2,0:0:0:0:
512,256,22926,5,2,3:2:0:0:
425,282,23101,1,0,3:2:0:0:
295,378,23276,5,8,3:2:0:0:
394,376,23450,1,0,3:2:0:0:
195,324,23625,5,2,3:2:0:0:
106,346,23800,1,0,3:2:0:0:
42,242,23975,5,8,3:2:0:0:
92,175,24149,2,0,P|64:117|59:43,1,125,0|2,3:2|3:2,0:0:0:0:
148,32,24499,2,0,P|176:90|181:164,1,125,0|8,3:2|3:2,0:0:0:0:
256,192,24848,1,0,3:2:0:0:
352,319,25023,1,2,3:2:0:0:
268,187,25198,6,0,P|296:173|326:165,1,62.5,0|0,3:2|0:0,0:0:0:0:
349,236,25373,2,0,P|379:244|407:258,1,62.5,8|0,3:2|0:0,0:0:0:0:
352,319,25547,1,0,3:2:0:0:
477,365,25722,6,0,P|487:323|481:243,1,115.000002193451,2|0,3:2|3:2,0:0:0:0:
512,184,26072,2,0,P|485:138|443:105,1,106.999996734619,8|0,3:2|3:2,0:0:0:0:
412,141,26421,2,0,P|419:106|413:42,2,100,2|0|8,3:2|3:2|3:2,0:0:0:0:
315,29,26945,6,0,P|414:24|511:0,2,200,0|0|0,3:2|3:2|3:2,0:0:0:0:
163,66,27819,1,2,3:2:0:0:
244,197,27994,6,0,P|216:211|186:219,1,62.5,0|0,3:2|0:0,0:0:0:0:
163,148,28169,2,0,P|133:140|105:126,1,62.5,8|0,3:2|0:0,0:0:0:0:
63,64,28343,1,0,3:2:0:0:
0,248,28518,5,2,3:2:0:0:
75,294,28693,1,0,3:2:0:0:
200,384,28868,1,8,3:2:0:0:
117,373,29042,1,0,3:2:0:0:
256,288,29217,1,2,3:2:0:0:
310,219,29392,1,0,3:2:0:0:
256,80,29567,1,8,3:2:0:0:
168,0,29741,6,0,B|132:-12|98:3|111:8|77:30|36:7,1,125,0|2,3:2|3:2,0:0:0:0:
344,0,30091,2,0,B|380:-12|414:3|400:8|434:30|475:7,1,125,0|8,3:2|3:2,0:0:0:0:
256,80,30440,1,0,3:2:0:0:
343,147,30615,1,2,3:2:0:0:
256,80,30790,2,0,P|280:85|445:156,2,175.00000166893,0|8|0,3:2|3:2|3:2,0:0:0:0:
120,160,31314,5,2,3:2:0:0:
41,200,31489,1,0,3:2:0:0:
120,160,31664,2,0,P|79:169|6:169,1,115.000002193451,8|0,3:2|3:2,0:0:0:0:
112,384,32013,1,2,3:2:0:0:
150,313,32188,1,0,3:2:0:0:
128,272,32363,1,8,3:2:0:0:
161,218,32537,6,0,L|165:318,2,100,0|0|0,3:2|3:2|0:2,0:0:0:0:
257,352,33411,1,2,0:2:0:0:
258,365,33586,2,0,B|260:387,2,20,0|0|0,0:2|0:2|0:2,0:0:0:0:
512,88,34110,6,0,P|468:73|281:52,1,225.000008583069,2|0,3:2|0:0,0:0:0:0:
142,72,34460,2,0,P|116:78|87:94,1,50,8|0,3:2|0:0,0:0:0:0:
9,143,34635,2,0,P|34:149|63:165,1,50,0|0,3:2|0:0,0:0:0:0:
55,15,34809,6,0,P|61:127|91:235,1,225.000008583069,2|0,3:2|0:0,0:0:0:0:
230,294,35159,2,0,P|256:288|285:272,1,50,8|0,3:2|0:0,0:0:0:0:
328,212,35334,2,0,P|353:218|382:234,1,50,0|0,3:2|0:0,0:0:0:0:
398,366,35508,6,0,P|404:254|441:64,1,300.000011444092,2|8,3:2|3:2,0:0:0:0:
146,46,36033,1,0,3:2:0:0:
294,150,36207,1,0,3:2:0:0:
221,34,36382,6,0,P|196:27|20:14,2,200,0|8|0,3:2|3:2|3:2,0:0:0:0:
40,120,36906,5,2,3:2:0:0:
123,223,37081,1,0,3:2:0:0:
254,256,37256,1,8,3:2:0:0:
372,192,37431,1,0,3:2:0:0:
326,366,37605,5,2,3:2:0:0:
254,256,37780,1,0,3:2:0:0:
122,221,37955,1,8,3:2:0:0:
384,192,38130,6,0,P|417:124|469:71,1,150.000005722046,0|2,3:2|3:2,0:0:0:0:
134,0,38479,2,0,P|200:36|267:69,1,150.000005722046,0|8,3:2|0:0,0:0:0:0:
127,191,38829,2,0,P|94:257|42:311,1,150.000005722046,0|2,3:2|3:2,0:0:0:0:
112,360,39178,1,8,0:0:0:0:
139,376,39265,1,0,0:0:0:0:
170,383,39353,1,8,0:0:0:0:
201,378,39440,1,0,0:0:0:0:
229,363,39528,1,0,3:2:0:0:
432,344,39702,6,0,P|390:312|283:292,1,150.000005722046,2|0,3:2|3:2,0:0:0:0:
176,160,40052,2,0,P|148:156|117:165,1,50,8|0,3:2|0:0,0:0:0:0:
39,159,40227,2,0,P|16:172|-4:198,1,50,0|0,3:2|0:0,0:0:0:0:
256,64,40401,6,0,P|300:49|487:28,1,225.000008583069,2|0,3:2|0:0,0:0:0:0:
511,189,40751,2,0,P|494:171|473:159,1,50,8|0,3:2|0:0,0:0:0:0:
385,160,40926,2,0,P|360:156|336:160,1,50,0|0,3:2|0:0,0:0:0:0:
214,177,41100,1,2,3:2:0:0:
214,177,41275,2,0,P|344:229|379:252,2,175.00000166893,0|8|0,3:2|3:2|3:2,0:0:0:0:
8,88,41799,1,0,3:2:0:0:
93,12,41974,6,0,P|68:44|-6:206,2,200,0|8|0,3:2|3:2|3:2,0:0:0:0:
243,13,42498,5,2,3:2:0:0:
166,142,42673,1,0,3:2:0:0:
388,282,42848,5,8,3:2:0:0:
239,272,43023,1,0,3:2:0:0:
386,16,43197,5,2,3:2:0:0:
458,149,43372,1,0,3:2:0:0:
321,150,43547,1,8,3:2:0:0:
321,150,43722,6,0,P|298:143|123:113,2,200,0|0|0,3:2|3:2|3:2,0:0:0:0:
340,155,44508,1,0,0:0:0:0:
359,159,44595,1,2,3:2:0:0:
489,331,44770,6,0,P|498:354|511:375,1,50,8|0,0:0|0:0,0:0:0:0:
434,226,44945,2,0,P|451:202|465:173,1,50,8|0,0:0|0:0,0:0:0:0:
361,324,45120,2,0,P|337:321|312:322,1,50,0|0,3:2|0:0,0:0:0:0:
242,377,45294,6,0,P|257:333|278:146,1,225.000008583069,2|0,3:2|0:0,0:0:0:0:
208,64,45644,2,0,P|184:47|155:33,1,50,8|0,3:2|0:0,0:0:0:0:
69,11,45819,2,0,P|40:15|9:26,1,50,0|0,3:2|0:0,0:0:0:0:
133,142,45994,6,0,P|177:127|364:106,1,225.000008583069,2|0,3:2|0:0,0:0:0:0:
405,2,46343,2,0,P|420:21|431:43,1,50,8|0,3:2|0:0,0:0:0:0:
442,144,46518,2,0,P|439:168|433:193,1,50,0|0,3:2|0:0,0:0:0:0:
498,0,46693,6,0,P|465:33|332:346,1,350.00000333786,2|8,3:2|3:2,0:0:0:0:
127,279,47217,1,0,3:2:0:0:
256,384,47392,1,0,3:2:0:0:
87,330,47566,6,0,P|91:299|76:122,2,200,0|8|0,3:2|3:2|3:2,0:0:0:0:
80,349,48003,1,0,0:0:0:0:
67,364,48091,5,2,3:2:0:0:
126,173,48265,1,0,3:2:0:0:
0,0,48440,1,8,3:2:0:0:
126,173,48615,5,0,3:2:0:0:
278,123,48790,1,2,3:2:0:0:
425,184,48964,1,0,3:2:0:0:
449,343,49139,1,8,3:2:0:0:
512,92,49314,6,0,P|471:155|450:239,1,150.000005722046,0|2,3:2|3:2,0:0:0:0:
256,384,49663,2,0,P|215:320|194:236,1,150.000005722046,0|8,3:2|0:0,0:0:0:0:
62,0,50013,2,0,P|21:63|0:147,1,150.000005722046,0|2,3:2|3:2,0:0:0:0:
399,46,50362,6,0,P|420:68|430:91,1,50,8|0,0:0|0:0,0:0:0:0:
315,91,50537,2,0,B|492:59,1,150.000005722046,8|0,0:0|3:2,0:0:0:0:
422,172,50887,6,0,P|378:157|191:136,1,225.000008583069,2|0,3:2|0:0,0:0:0:0:
51,71,51236,2,0,P|67:89|82:109,1,50,8|0,3:2|0:0,0:0:0:0:
115,203,51411,2,0,P|110:227|101:251,1,50,0|0,3:2|0:0,0:0:0:0:
5,153,51586,6,0,P|51:152|272:206,1,262.500002503395,2|0,3:2|0:0,0:0:0:0:
351,317,51935,2,0,P|367:298|382:278,1,50,8|0,3:2|0:0,0:0:0:0:
415,185,52110,2,0,P|410:160|401:136,1,50,0|0,3:2|0:0,0:0:0:0:
512,220,52285,6,0,P|465:219|115:339,1,400,2|8,3:2|3:2,0:0:0:0:
344,351,52809,1,0,3:2:0:0:
133,325,52984,1,0,3:2:0:0:
86,384,53158,6,0,P|92:338|75:165,2,200,0|8|0,3:2|3:2|3:2,0:0:0:0:
0,0,53683,5,2,3:2:0:0:
99,14,53857,1,0,3:2:0:0:
256,96,54032,5,8,3:2:0:0:
148,111,54207,1,0,3:2:0:0:
320,24,54382,5,2,3:2:0:0:
419,10,54556,1,0,3:2:0:0:
467,151,54731,1,8,3:2:0:0:
512,200,54906,6,0,B|339:184,1,150.000005722046,0|2,3:2|3:2,0:0:0:0:
272,253,55255,6,0,B|368:224,1,100,0|8,3:2|0:0,0:0:0:0:
280,288,55605,6,0,B|232:338,1,50,0|2,3:2|3:2,0:0:0:0:
49,140,55954,6,0,P|24:136|0:138,1,50,8|0,0:0|0:0,0:0:0:0:
122,41,56129,2,0,P|136:21|148:0,1,50,8|0,0:0|0:0,0:0:0:0:
176,146,56304,1,0,3:2:0:0:
176,146,56391,1,0,0:0:0:0:
176,146,56479,6,0,L|162:260,2,100,2|0|8,3:2|3:2|3:2,0:0:0:0:
24,336,57003,2,0,B|107:284|157:386|222:312,1,200,0|0,3:2|3:2,0:0:0:0:
256,192,57527,1,8,3:2:0:0:
216,384,57702,1,0,3:2:0:0:
256,192,57789,12,0,58663,0:0:0:0:
166,338,58751,6,0,P|178:364|204:379,1,50,0|0,3:2|0:0,0:0:0:0:
345,339,58925,2,0,P|335:361|316:376,1,50,8|0,3:2|0:0,0:0:0:0:
299,384,59100,1,0,3:2:0:0:
257,275,59275,5,2,3:2:0:0:
450,322,59450,1,0,3:2:0:0:
354,297,59624,1,8,3:2:0:0:
512,384,59799,2,0,P|503:331|489:179,1,200,0|0,3:2|3:2,0:0:0:0:
489,185,60323,1,8,3:2:0:0:
450,322,60498,1,0,3:2:0:0:
256,192,60585,12,0,61459,0:2:0:0:
450,322,61547,5,0,3:2:0:0:
450,322,61721,1,8,3:2:0:0:
450,322,61896,1,0,3:2:0:0:
384,192,62071,5,2,3:2:0:0:
309,238,62246,1,0,3:2:0:0:
450,322,62420,1,8,3:2:0:0:
400,376,62595,2,0,B|317:390|318:306|215:311,1,200,0|0,3:2|3:2,0:0:0:0:
88,384,63119,1,8,3:2:0:0:
211,333,63294,1,0,3:2:0:0:
256,192,63382,12,0,64255,0:0:0:0:
193,384,64343,6,0,B|182:348|182:348|154:333|127:230,2,150.000005722046,0|8|0,3:2|3:2|3:2,0:0:0:0:
319,384,64867,1,2,3:2:0:0:
379,249,65042,1,0,3:2:0:0:
453,371,65216,1,8,3:2:0:0:
512,312,65391,2,0,B|471:285|410:302|410:302|376:276|312:282,1,200,0|0,3:2|3:2,0:0:0:0:
379,249,65915,1,8,3:2:0:0:
319,384,66090,1,0,3:2:0:0:
256,192,66178,12,0,67051,0:0:0:0:
410,328,67139,5,0,3:2:0:0:
296,346,67313,1,8,3:2:0:0:
181,364,67488,1,0,3:2:0:0:
53,329,67663,5,2,3:2:0:0:
106,384,67838,1,0,3:2:0:0:
150,235,68013,1,8,3:2:0:0:
74,252,68187,1,0,3:2:0:0:
181,364,68362,1,2,3:2:0:0:
203,290,68537,1,0,3:2:0:0:
87,160,68712,5,8,3:2:0:0:
87,160,68886,2,0,P|74:93|36:33,1,125,0|2,3:2|3:2,0:0:0:0:
224,120,69236,2,0,P|195:56|191:-12,1,125,0|8,3:2|3:2,0:0:0:0:
176,192,69585,1,0,3:2:0:0:
176,192,69673,1,0,0:0:0:0:
176,192,69760,1,2,3:2:0:0:
260,324,69935,6,0,P|232:338|202:346,1,62.5,0|0,3:2|0:0,0:0:0:0:
179,275,70110,2,0,P|149:267|121:253,1,62.5,8|0,3:2|0:0,0:0:0:0:
176,192,70284,1,0,3:2:0:0:
201,346,70459,5,2,3:2:0:0:
201,346,70634,1,0,3:2:0:0:
0,384,70809,1,8,3:2:0:0:
0,384,70983,1,0,3:2:0:0:
56,304,71158,5,2,3:2:0:0:
168,336,71333,1,0,3:2:0:0:
285,370,71508,1,8,3:2:0:0:
285,370,71682,6,0,P|384:365|481:341,2,200,0|0|0,3:2|3:2|3:2,0:0:0:0:
271,364,72469,1,0,0:0:0:0:
256,354,72556,1,2,3:2:0:0:
304,280,72731,5,0,3:2:0:0:
335,279,72818,1,0,0:0:0:0:
366,276,72906,1,8,3:2:0:0:
397,271,72993,1,0,0:0:0:0:
427,262,73080,1,0,3:2:0:0:
349,176,73255,5,2,3:2:0:0:
225,70,73430,1,0,3:2:0:0:
192,251,73605,1,8,3:2:0:0:
256,192,73779,1,0,3:2:0:0:
256,192,73867,1,0,0:0:0:0:
256,192,73954,2,0,P|244:138|222:61,1,125,2|0,3:2|3:2,0:0:0:0:
24,104,74304,5,8,3:2:0:0:
0,32,74478,2,0,B|36:20|70:35|57:40|91:62|132:39,1,125,0|2,3:2|3:2,0:0:0:0:
400,56,74828,2,0,B|366:63|341:31|355:30|328:5|290:5,1,125,0|8,3:2|3:2,0:0:0:0:
192,160,75177,1,0,3:2:0:0:
252,10,75352,1,2,3:2:0:0:
323,151,75527,6,0,P|299:156|134:227,2,175.00000166893,0|8|0,3:2|3:2|3:2,0:0:0:0:
498,132,76051,5,2,3:2:0:0:
426,292,76226,1,0,3:2:0:0:
323,151,76401,1,8,3:2:0:0:
258,203,76575,5,0,3:2:0:0:
316,74,76750,1,2,3:2:0:0:
398,187,76925,1,0,3:2:0:0:
498,132,77100,5,8,3:2:0:0:
426,292,77274,1,0,3:2:0:0:
259,0,78323,6,0,B|258:19,1,20,0|0,0:2|0:2,0:0:0:0:
256,35,78672,1,0,0:2:0:0:
0,296,78847,6,0,B|70:248|116:392|231:332,1,225.000008583069,2|0,3:2|0:0,0:0:0:0:
366,267,79197,2,0,P|392:273|421:289,1,50,8|0,3:2|0:0,0:0:0:0:
457,369,79372,1,0,3:2:0:0:
457,369,79459,1,0,0:0:0:0:
457,369,79546,6,0,B|410:292|482:260|427:148,1,225.000008583069,2|0,3:2|0:0,0:0:0:0:
203,155,79896,2,0,P|190:179|183:212,1,50,8|0,3:2|0:0,0:0:0:0:
99,268,80071,1,0,3:2:0:0:
99,268,80158,1,0,0:0:0:0:
99,268,80245,6,0,B|190:233|131:49|213:1,2,300.000011444092,2|8|0,3:2|3:2|3:2,0:0:0:0:
98,267,81119,6,0,P|79:170|78:70,1,200,0|8,3:2|3:2,0:0:0:0:
78,70,81469,1,0,3:2:0:0:
0,0,81643,5,2,3:2:0:0:
216,64,81818,1,0,3:2:0:0:
312,0,81993,5,8,3:2:0:0:
280,216,82168,1,0,3:2:0:0:
208,160,82342,5,2,3:2:0:0:
407,213,82517,1,0,3:2:0:0:
260,358,82692,1,8,3:2:0:0:
336,0,82867,5,0,3:2:0:0:
0,88,83216,1,0,3:2:0:0:
336,0,83566,1,0,3:2:0:0:
0,88,83915,5,8,0:0:0:0:
24,87,84002,1,0,0:0:0:0:
49,90,84090,1,8,0:0:0:0:
73,98,84177,1,0,0:0:0:0:
95,109,84265,1,0,3:2:0:0:
336,0,84439,5,2,3:2:0:0:
256,192,84614,1,0,3:2:0:0:
392,224,84789,2,0,P|419:229|446:247,1,50,8|0,3:2|0:0,0:0:0:0:
470,319,84964,1,0,3:2:0:0:
470,319,85051,1,0,0:0:0:0:
470,319,85138,6,0,B|435:244|539:185|506:97,1,225.000008583069,2|0,3:2|0:0,0:0:0:0:
509,105,85488,2,0,P|492:87|471:75,1,50,8|0,3:2|0:0,0:0:0:0:
344,72,85663,1,0,3:2:0:0:
344,72,85750,1,0,0:0:0:0:
344,72,85837,1,2,3:2:0:0:
344,72,86012,6,0,P|474:20|509:-3,2,175.00000166893,0|8|0,3:2|3:2|3:2,0:0:0:0:
168,72,86536,1,0,3:2:0:0:
168,72,86711,2,0,P|38:20|3:-3,2,175.00000166893,0|8|0,3:2|3:2|3:2,0:0:0:0:
243,371,87235,5,2,3:2:0:0:
166,242,87410,1,0,3:2:0:0:
458,235,87585,5,8,3:2:0:0:
386,368,87760,1,0,3:2:0:0:
239,112,87934,5,2,3:2:0:0:
388,102,88109,1,0,3:2:0:0:
321,234,88284,1,8,3:2:0:0:
321,234,88459,6,0,P|298:241|123:271,2,200,0|0|0,3:2|3:2|3:2,0:0:0:0:
340,229,89245,1,0,0:0:0:0:
359,225,89332,1,2,3:2:0:0:
440,368,89507,5,8,0:0:0:0:
422,335,89595,1,0,0:0:0:0:
409,286,89682,1,8,0:0:0:0:
405,235,89769,1,0,0:0:0:0:
410,175,89857,1,0,3:2:0:0:
421,116,89944,1,0,0:0:0:0:
438,46,90031,6,0,B|373:0|312:66|217:2,1,225.000008583069,2|0,3:2|0:0,0:0:0:0:
84,49,90381,2,0,P|67:31|46:19,1,50,8|0,3:2|0:0,0:0:0:0:
0,96,90556,1,0,3:2:0:0:
0,96,90643,1,0,0:0:0:0:
0,96,90731,6,0,P|44:81|231:60,1,225.000008583069,2|0,3:2|0:0,0:0:0:0:
241,248,91080,2,0,P|223:265|211:286,1,50,8|0,3:2|0:0,0:0:0:0:
295,360,91255,1,0,3:2:0:0:
295,360,91342,1,0,0:0:0:0:
295,360,91430,6,0,P|280:316|286:-9,1,350.00000333786,2|8,3:2|3:2,0:0:0:0:
125,164,91954,1,0,3:2:0:0:
278,16,92129,1,0,3:2:0:0:
80,96,92303,6,0,B|18:129|81:226|-11:283,2,200,0|8|0,3:2|3:2|3:2,0:0:0:0:
86,82,92740,1,0,0:0:0:0:
73,67,92828,5,2,3:2:0:0:
296,0,93002,1,0,3:2:0:0:
496,144,93177,5,8,3:2:0:0:
273,77,93352,1,0,3:2:0:0:
80,224,93527,5,2,3:2:0:0:
303,157,93701,1,0,3:2:0:0:
248,384,93876,1,8,3:2:0:0:
497,384,94051,6,0,P|456:321|435:237,1,150.000005722046,0|2,3:2|3:2,0:0:0:0:
280,0,94400,2,0,P|239:64|218:148,1,150.000005722046,0|8,3:2|0:0,0:0:0:0:
0,384,94750,2,0,P|41:321|62:237,1,150.000005722046,0|2,3:2|3:2,0:0:0:0:
48,0,95099,5,8,0:0:0:0:
48,0,95187,1,0,0:0:0:0:
48,0,95274,2,0,B|62:73,1,75.0000028610231,8|0,0:0|0:0,0:0:0:0:
68,95,95449,2,0,L|82:168,1,75.0000028610231,0|0,3:2|0:0,0:0:0:0:
0,218,95624,6,0,P|44:203|231:182,1,225.000008583069,2|0,3:2|0:0,0:0:0:0:
320,296,95973,2,0,P|304:278|289:258,1,50,8|0,3:2|0:0,0:0:0:0:
278,28,96148,1,0,3:2:0:0:
278,28,96235,1,0,0:0:0:0:
278,28,96323,6,0,P|279:74|225:295,1,262.500002503395,2|0,3:2|0:0,0:0:0:0:
311,356,96672,2,0,P|337:361|358:370,1,50,8|0,3:2|0:0,0:0:0:0:
473,384,96847,1,0,3:2:0:0:
473,384,96934,1,0,0:0:0:0:
473,384,97022,6,0,P|327:325|56:332,2,400,2|8|0,3:2|3:2|3:2,0:0:0:0:
473,384,97895,6,0,P|479:338|462:165,2,200,0|8|0,3:2|3:2|3:2,0:0:0:0:
467,185,98420,5,2,3:2:0:0:
303,140,98594,1,0,3:2:0:0:
399,7,98769,1,8,3:2:0:0:
303,140,98944,1,0,3:2:0:0:
186,101,99119,1,2,3:2:0:0:
74,148,99293,1,0,3:2:0:0:
55,270,99468,1,8,3:2:0:0:
14,384,99643,6,0,B|-2:211,1,150.000005722046,0|2,3:2|3:2,0:0:0:0:
55,270,99992,6,0,B|84:174,1,100,0|8,3:2|0:0,0:0:0:0:
74,148,100342,6,0,B|122:98,1,50,0|2,3:2|3:2,0:0:0:0:
464,64,100691,5,8,0:0:0:0:
409,51,100779,1,0,0:0:0:0:
352,40,100866,1,8,0:0:0:0:
297,31,100954,1,0,0:0:0:0:
241,20,101041,1,0,3:2:0:0:
186,10,101128,1,0,0:0:0:0:
