osu file format v14

[General]
AudioFilename: audio.mp3
AudioLeadIn: 0
PreviewTime: 33554
Countdown: 0
SampleSet: Soft
StackLeniency: 0.4
Mode: 0
LetterboxInBreaks: 0
WidescreenStoryboard: 1

[Editor]
Bookmarks: 29709
DistanceSpacing: 0.5
BeatDivisor: 4
GridSize: 8
TimelineZoom: 2

[Metadata]
Title:Take me home
TitleUnicode:Take me home
Artist:PinkPantheress
ArtistUnicode:PinkPantheress
Creator:AJT
Version:chu's insane
Source:
Tags:english pop dnb pink pantheress rho smh dyl-byl qiyana arronchu1207
BeatmapID:3634747
BeatmapSetID:1552741

[Difficulty]
HPDrainRate:5
CircleSize:4.2
OverallDifficulty:7.5
ApproachRate:8.5
SliderMultiplier:1.6
SliderTickRate:1

[Events]
//Background and Video events
0,0,"image.jpg",0,0
//Break Periods
//Storyboard Layer 0 (Background)
//Storyboard Layer 1 (Fail)
//Storyboard Layer 2 (Pass)
//Storyboard Layer 3 (Foreground)
//Storyboard Layer 4 (Overlay)
//Storyboard Sound Samples

[TimingPoints]
558,349.507776548028,4,2,1,69,1,0
6144,-95.2380952380952,4,2,1,69,0,0
11736,-105.263157894737,4,2,1,69,0,0
24407,-105.263157894737,4,2,1,5,0,0
24494,-105.263157894737,4,2,1,69,0,0
27203,-105.263157894737,4,2,1,5,0,0
27290,-105.263157894737,4,2,1,69,0,0
29999,-105.263157894737,4,2,1,5,0,0
30087,-105.263157894737,4,2,1,69,0,0
33582,-200,4,2,1,69,0,0
34110,-86.9565217391304,4,2,1,80,0,1
34368,-86.9565217391304,4,2,1,5,0,1
34456,-86.9565217391304,4,2,1,80,0,1
35067,-86.9565217391304,4,2,1,5,0,1
35155,-86.9565217391304,4,2,1,80,0,1
35766,-86.9565217391304,4,2,1,5,0,1
35854,-86.9565217391304,4,2,1,80,0,1
36291,-86.9565217391304,4,2,1,5,0,1
36378,-86.9565217391304,4,2,1,80,0,1
36466,-86.9565217391304,4,2,1,5,0,1
36553,-86.9565217391304,4,2,1,80,0,1
36640,-86.9565217391304,4,2,1,5,0,1
36728,-86.9565217391304,4,2,1,80,0,1
36815,-86.9565217391304,4,2,1,5,0,1
36902,-86.9565217391304,4,2,1,80,0,1
39961,-86.9565217391304,4,2,1,5,0,1
40048,-86.9565217391304,4,2,1,80,0,1
40660,-86.9565217391304,4,2,1,5,0,1
40747,-86.9565217391304,4,2,1,80,0,1
41359,-86.9565217391304,4,2,1,5,0,1
41446,-86.9565217391304,4,2,1,80,0,1
41883,-86.9565217391304,4,2,1,5,0,1
41970,-86.9565217391304,4,2,1,80,0,1
42058,-86.9565217391304,4,2,1,5,0,1
42145,-86.9565217391304,4,2,1,80,0,1
42233,-86.9565217391304,4,2,1,5,0,1
42320,-86.9565217391304,4,2,1,80,0,1
42407,-86.9565217391304,4,2,1,5,0,1
42494,-86.9565217391304,4,2,1,80,0,1
45553,-86.9565217391304,4,2,1,5,0,1
45640,-86.9565217391304,4,2,1,80,0,1
46252,-86.9565217391304,4,2,1,5,0,1
46339,-86.9565217391304,4,2,1,80,0,1
46951,-86.9565217391304,4,2,1,5,0,1
47039,-86.9565217391304,4,2,1,80,0,1
47476,-86.9565217391304,4,2,1,5,0,1
47563,-86.9565217391304,4,2,1,80,0,1
47650,-86.9565217391304,4,2,1,5,0,1
47737,-86.9565217391304,4,2,1,80,0,1
47825,-86.9565217391304,4,2,1,5,0,1
47912,-86.9565217391304,4,2,1,80,0,1
48000,-86.9565217391304,4,2,1,5,0,1
48087,-86.9565217391304,4,2,1,80,0,1
51146,-86.9565217391304,4,2,1,5,0,1
51233,-86.9565217391304,4,2,1,80,0,1
51845,-86.9565217391304,4,2,1,5,0,1
51932,-86.9565217391304,4,2,1,80,0,1
52544,-86.9565217391304,4,2,1,5,0,1
52631,-86.9565217391304,4,2,1,80,0,1
53068,-86.9565217391304,4,2,1,5,0,1
53155,-86.9565217391304,4,2,1,80,0,1
53243,-86.9565217391304,4,2,1,5,0,1
53330,-86.9565217391304,4,2,1,80,0,1
53418,-86.9565217391304,4,2,1,5,0,1
53505,-86.9565217391304,4,2,1,80,0,1
53592,-86.9565217391304,4,2,1,5,0,1
53679,-86.9565217391304,4,2,1,80,0,1
56479,-105.263157894737,4,2,1,69,0,0
69146,-105.263157894737,4,2,1,5,0,0
69234,-105.263157894737,4,2,1,69,0,0
71943,-105.263157894737,4,2,1,5,0,0
72030,-105.263157894737,4,2,1,69,0,0
74739,-105.263157894737,4,2,1,5,0,0
74826,-105.263157894737,4,2,1,69,0,0
78322,-200,4,2,1,69,0,0
78847,-86.9565217391304,4,2,1,80,0,1
79108,-86.9565217391304,4,2,1,5,0,1
79195,-86.9565217391304,4,2,1,80,0,1
79807,-86.9565217391304,4,2,1,5,0,1
79894,-86.9565217391304,4,2,1,80,0,1
80506,-86.9565217391304,4,2,1,5,0,1
80593,-86.9565217391304,4,2,1,80,0,1
81030,-86.9565217391304,4,2,1,5,0,1
81117,-86.9565217391304,4,2,1,80,0,1
81205,-86.9565217391304,4,2,1,5,0,1
81292,-86.9565217391304,4,2,1,80,0,1
81380,-86.9565217391304,4,2,1,5,0,1
81467,-86.9565217391304,4,2,1,80,0,1
81555,-86.9565217391304,4,2,1,5,0,1
81642,-86.9565217391304,4,2,1,80,0,1
84700,-86.9565217391304,4,2,1,5,0,1
84787,-86.9565217391304,4,2,1,80,0,1
85399,-86.9565217391304,4,2,1,5,0,1
85486,-86.9565217391304,4,2,1,80,0,1
86099,-86.9565217391304,4,2,1,5,0,1
86186,-86.9565217391304,4,2,1,80,0,1
86623,-86.9565217391304,4,2,1,5,0,1
86710,-86.9565217391304,4,2,1,80,0,1
86798,-86.9565217391304,4,2,1,5,0,1
86885,-86.9565217391304,4,2,1,80,0,1
86972,-86.9565217391304,4,2,1,5,0,1
87059,-86.9565217391304,4,2,1,80,0,1
87147,-86.9565217391304,4,2,1,5,0,1
87234,-86.9565217391304,4,2,1,80,0,1
90293,-86.9565217391304,4,2,1,5,0,1
90380,-86.9565217391304,4,2,1,80,0,1
90992,-86.9565217391304,4,2,1,5,0,1
91079,-86.9565217391304,4,2,1,80,0,1
91691,-86.9565217391304,4,2,1,5,0,1
91778,-86.9565217391304,4,2,1,80,0,1
92215,-86.9565217391304,4,2,1,5,0,1
92302,-86.9565217391304,4,2,1,80,0,1
92390,-86.9565217391304,4,2,1,5,0,1
92477,-86.9565217391304,4,2,1,80,0,1
92565,-86.9565217391304,4,2,1,5,0,1
92652,-86.9565217391304,4,2,1,80,0,1
92740,-86.9565217391304,4,2,1,5,0,1
92827,-86.9565217391304,4,2,1,80,0,1
95885,-86.9565217391304,4,2,1,5,0,1
95972,-86.9565217391304,4,2,1,80,0,1
96584,-86.9565217391304,4,2,1,5,0,1
96671,-86.9565217391304,4,2,1,80,0,1
97283,-86.9565217391304,4,2,1,5,0,1
97371,-86.9565217391304,4,2,1,80,0,1
97808,-86.9565217391304,4,2,1,5,0,1
97895,-86.9565217391304,4,2,1,80,0,1
97982,-86.9565217391304,4,2,1,5,0,1
98069,-86.9565217391304,4,2,1,80,0,1
98157,-86.9565217391304,4,2,1,5,0,1
98244,-86.9565217391304,4,2,1,80,0,1
98332,-86.9565217391304,4,2,1,5,0,1
98419,-86.9565217391304,4,2,1,80,0,1
101216,-105.263157894737,4,2,1,69,0,0

[Colours]
Combo1 : 255,255,74
Combo2 : 255,87,187
Combo3 : 151,88,218

[HitObjects]
263,123,6150,5,0,3:0:0:0:
266,115,6324,1,0,3:0:0:0:
248,29,6499,2,0,P|221:7|235:39,1,83.9999974365235,8|0,0:0|0:0,0:0:0:0:
376,136,6849,5,0,3:0:0:0:
379,128,7023,1,0,3:0:0:0:
361,42,7198,2,0,P|334:20|348:52,1,83.9999974365235,8|0,0:0|0:0,0:0:0:0:
489,149,7548,5,0,3:0:0:0:
492,141,7722,1,0,3:0:0:0:
474,55,7897,2,0,P|447:33|461:65,1,83.9999974365235,8|0,0:0|0:0,0:0:0:0:
492,141,8421,5,0,3:0:0:0:
474,55,8596,2,0,P|447:33|461:65,1,83.9999974365235,8|0,0:0|0:0,0:0:0:0:
337,221,8946,5,0,3:0:0:0:
334,213,9120,1,0,3:0:0:0:
352,127,9295,2,0,P|379:105|365:137,1,83.9999974365235,8|0,0:0|0:0,0:0:0:0:
224,234,9645,5,0,3:0:0:0:
221,226,9819,1,0,3:0:0:0:
239,140,9994,2,0,P|266:118|252:150,1,83.9999974365235,8|0,0:0|0:0,0:0:0:0:
111,247,10344,5,0,3:0:0:0:
108,239,10518,1,0,3:0:0:0:
126,153,10693,2,0,P|153:131|139:163,1,83.9999974365235,8|0,0:0|0:0,0:0:0:0:
108,239,11217,5,0,3:0:0:0:
126,153,11392,2,0,P|153:131|139:163,1,83.9999974365235,8|0,0:0|0:0,0:0:0:0:
171,302,11742,5,2,3:2:0:0:
243,260,11917,1,0,3:2:0:0:
164,302,12091,5,8,3:2:0:0:
251,261,12266,2,0,B|341:273|297:237|413:257,1,151.999995941162,0|0,3:2|3:2,0:0:0:0:
476,200,12790,1,8,3:2:0:0:
398,264,12965,6,0,P|391:218|375:108,1,151.999995941162,0|0,3:2|3:2,0:0:0:0:
430,42,13489,1,8,3:2:0:0:
434,37,14014,5,0,3:2:0:0:
292,146,14188,2,0,L|215:136,1,75.9999979705811,8|0,3:2|3:2,0:0:0:0:
70,101,14538,5,2,3:2:0:0:
156,70,14713,1,0,3:2:0:0:
65,98,14887,5,8,3:2:0:0:
160,65,15062,2,0,L|175:232,1,151.999995941162,0|0,3:2|3:2,0:0:0:0:
110,280,15586,1,8,3:2:0:0:
179,222,15761,6,0,B|217:209|266:220|274:275|274:275|265:265|240:256,1,151.999995941162,0|0,3:2|3:2,0:0:0:0:
212,347,16285,1,8,3:2:0:0:
210,353,16460,1,0,3:2:0:0:
210,353,16810,5,0,3:2:0:0:
358,261,16984,2,0,P|386:255|431:278,1,75.9999979705811,8|0,3:2|3:2,0:0:0:0:
502,136,17334,5,2,3:2:0:0:
423,163,17509,1,0,3:2:0:0:
507,132,17683,5,8,3:2:0:0:
417,166,17858,2,0,B|369:160|369:160|364:151|364:151|272:140,1,151.999995941162,0|0,3:2|3:2,0:0:0:0:
178,167,18382,1,8,3:2:0:0:
264,135,18557,6,0,P|275:188|208:254,1,151.999995941162,0|0,3:2|3:2,0:0:0:0:
120,245,19081,1,8,3:2:0:0:
120,245,19606,5,0,3:2:0:0:
224,369,19780,2,0,P|262:360|306:354,1,75.9999979705811,8|0,3:2|3:2,0:0:0:0:
425,293,20130,5,2,3:2:0:0:
446,205,20305,1,0,3:2:0:0:
430,299,20479,5,8,3:2:0:0:
445,199,20654,2,0,B|356:212|393:173|291:185,1,151.999995941162,0|0,3:2|3:2,0:0:0:0:
210,222,21178,1,8,3:2:0:0:
294,177,21353,6,0,L|277:335,1,151.999995941162,0|0,3:2|3:2,0:0:0:0:
204,374,21877,1,8,3:2:0:0:
206,380,22052,1,0,3:2:0:0:
206,380,22402,5,0,3:2:0:0:
53,339,22576,1,8,3:2:0:0:
163,215,22751,1,0,3:2:0:0:
240,281,22926,6,0,P|279:276|315:268,1,75.9999979705811,2|0,3:2|3:2,0:0:0:0:
163,215,23276,2,0,P|124:220|88:228,1,75.9999979705811,8|0,3:2|3:2,0:0:0:0:
213,125,23625,2,0,P|256:107|340:167,1,151.999995941162,2|8,3:2|3:2,0:0:0:0:
431,2,24149,6,0,L|417:124,1,113.999996955872,0|0,3:2|0:0,0:0:0:0:
418,115,24499,2,0,L|494:105,1,75.9999979705811,0|8,3:2|3:2,0:0:0:0:
371,251,24848,1,0,3:2:0:0:
294,302,25023,2,0,P|255:290|218:288,1,75.9999979705811,2|0,3:2|3:2,0:0:0:0:
128,121,25373,5,8,3:2:0:0:
278,199,25547,1,0,3:2:0:0:
104,281,25722,6,0,P|97:239|88:200,1,75.9999979705811,2|0,3:2|3:2,0:0:0:0:
142,46,26072,2,0,P|133:83|127:120,1,75.9999979705811,8|0,3:2|3:2,0:0:0:0:
279,200,26421,1,2,3:2:0:0:
333,121,26596,2,0,P|336:79|312:49,1,75.9999979705811,0|8,3:2|3:2,0:0:0:0:
276,207,26945,6,0,L|396:196,1,113.999996955872,0|0,3:2|0:0,0:0:0:0:
389,196,27295,2,0,L|378:278,1,75.9999979705811,0|8,3:2|3:2,0:0:0:0:
274,383,27644,1,0,3:2:0:0:
199,327,27819,2,0,P|186:285|192:247,1,75.9999979705811,2|0,3:2|3:2,0:0:0:0:
304,124,28169,5,8,3:2:0:0:
282,282,28343,1,0,3:2:0:0:
139,170,28518,6,0,P|179:165|213:157,1,75.9999979705811,2|0,3:2|3:2,0:0:0:0:
378,137,28868,2,0,P|338:132|304:124,1,75.9999979705811,8|0,3:2|3:2,0:0:0:0:
431,9,29217,1,2,3:2:0:0:
503,67,29392,2,0,P|511:105|487:154,1,75.9999979705811,0|8,3:2|3:2,0:0:0:0:
425,5,29741,6,0,L|307:17,1,113.999996955872,0|0,3:2|0:0,0:0:0:0:
311,16,30091,2,0,L|319:92,1,75.9999979705811,0|8,3:2|3:2,0:0:0:0:
236,239,30440,1,0,3:2:0:0:
187,157,30615,2,0,P|184:118|204:86,1,75.9999979705811,2|0,3:2|3:2,0:0:0:0:
330,241,30965,5,8,3:2:0:0:
194,324,31139,1,0,3:2:0:0:
337,235,31314,6,0,P|379:240|409:253,1,75.9999979705811,2|0,3:2|3:2,0:0:0:0:
272,373,31664,2,0,P|306:358|344:354,1,75.9999979705811,8|0,3:2|3:2,0:0:0:0:
174,214,32013,1,2,3:2:0:0:
276,81,32188,2,0,P|271:120|262:169,1,75.9999979705811,0|8,3:2|3:2,0:0:0:0:
363,135,32537,5,0,3:2:0:0:
363,135,33586,2,0,L|413:125,2,40,0|0|0,0:2|0:2|0:2,0:0:0:0:
236,15,34110,6,0,B|228:71|228:71|221:77|221:77|210:155,1,138.000002632141,2|0,3:2|0:0,0:0:0:0:
208,161,34460,2,0,B|163:176|163:176|117:156,1,92.0000017547608,8|0,3:2|3:2,0:0:0:0:
60,328,34809,2,0,B|47:291|63:259|83:244|83:244|128:264,1,138.000002632141,2|0,3:2|0:0,0:0:0:0:
136,269,35159,2,0,P|169:318|169:356,1,92.0000017547608,8|0,3:2|3:2,0:0:0:0:
377,240,35508,6,0,B|343:237|326:217|326:217|283:208|241:239,1,138.000002632141,2|0,3:2|0:0,0:0:0:0:
241,246,35858,1,8,3:2:0:0:
470,268,36033,2,0,L|446:129,1,138.000002632141,0|0,3:2|0:0,0:0:0:0:
390,56,36382,6,0,L|400:12,1,46.0000008773804,0|0,3:2|0:0,0:0:0:0:
309,20,36557,2,0,L|265:33,1,46.0000008773804,8|0,3:2|0:0,0:0:0:0:
319,109,36732,2,0,L|352:139,1,46.0000008773804,0|0,3:2|0:0,0:0:0:0:
259,30,36906,6,0,P|206:20|164:39,1,92.0000017547608,2|0,3:2|3:2,0:0:0:0:
22,112,37256,2,0,L|126:122,1,92.0000017547608,8|0,3:2|3:2,0:0:0:0:
225,268,37605,1,2,3:2:0:0:
135,307,37780,2,0,B|119:264|119:264|137:218,1,92.0000017547608,0|8,3:2|3:2,0:0:0:0:
216,366,38130,6,0,B|337:384|277:322|398:342,1,184.000003509522,0|0,3:2|3:2,0:0:0:0:
485,382,38654,1,8,0:0:0:0:
392,341,38829,2,0,P|373:288|438:178,1,184.000003509522,0|0,3:2|0:0,0:0:0:0:
483,279,39353,1,8,0:0:0:0:
483,279,39528,1,0,3:2:0:0:
336,240,39702,6,0,L|197:257,1,138.000002632141,2|0,3:2|0:0,0:0:0:0:
188,259,40052,2,0,B|170:218|170:218|184:167,1,92.0000017547608,8|0,3:2|3:2,0:0:0:0:
281,51,40401,2,0,B|336:44|336:44|359:55|359:55|435:46,1,138.000002632141,2|0,3:2|0:0,0:0:0:0:
429,47,40751,2,0,B|448:90|448:90|428:140,1,92.0000017547608,8|0,3:2|3:2,0:0:0:0:
326,284,41100,6,0,P|315:249|398:235,1,138.000002632141,2|0,3:2|0:0,0:0:0:0:
400,238,41450,1,8,3:2:0:0:
277,375,41625,2,0,B|219:367|219:367|203:348|203:348|129:334,1,138.000002632141,0|0,3:2|0:0,0:0:0:0:
70,371,41974,6,0,L|63:320,1,46.0000008773804,0|0,3:2|0:0,0:0:0:0:
119,253,42149,2,0,L|112:202,1,46.0000008773804,8|0,3:2|0:0,0:0:0:0:
47,146,42324,2,0,L|40:95,1,46.0000008773804,0|0,3:2|0:0,0:0:0:0:
139,18,42498,6,0,L|129:114,1,92.0000017547608,2|0,3:2|3:2,0:0:0:0:
219,220,42848,2,0,P|261:231|310:206,1,92.0000017547608,8|0,3:2|3:2,0:0:0:0:
383,74,43197,1,2,3:2:0:0:
383,74,43372,1,0,3:2:0:0:
310,17,43547,1,8,3:2:0:0:
385,166,43722,6,0,L|493:152,1,92.0000017547608,0|2,3:2|3:2,0:0:0:0:
372,275,44071,2,0,L|480:261,1,92.0000017547608,0|8,3:2|0:0,0:0:0:0:
409,378,44421,2,0,L|517:364,1,92.0000017547608,0|2,3:2|3:2,0:0:0:0:
292,216,44770,5,8,0:0:0:0:
257,381,44945,1,8,0:0:0:0:
292,216,45120,1,0,3:2:0:0:
167,326,45294,6,0,P|125:308|50:358,1,138.000002632141,2|0,3:2|0:0,0:0:0:0:
42,346,45644,2,0,B|19:253,1,92.0000017547608,8|0,3:2|3:2,0:0:0:0:
101,123,45994,2,0,B|131:120|147:102|147:102|190:101|238:124,1,138.000002632141,2|0,3:2|0:0,0:0:0:0:
239,127,46343,2,0,P|265:96|262:33,1,92.0000017547608,8|0,3:2|3:2,0:0:0:0:
194,225,46693,6,0,B|206:337|206:337|220:309,1,138.000002632141,2|0,3:2|0:0,0:0:0:0:
223,299,47042,1,8,3:2:0:0:
484,301,47217,2,0,P|441:263|362:283,1,138.000002632141,0|0,3:2|0:0,0:0:0:0:
299,223,47566,6,0,P|301:197|314:166,1,46.0000008773804,0|0,3:2|0:0,0:0:0:0:
342,93,47741,2,0,P|363:107|383:134,1,46.0000008773804,8|0,3:2|0:0,0:0:0:0:
304,15,47916,2,0,P|282:29|262:56,1,46.0000008773804,0|0,3:2|0:0,0:0:0:0:
185,129,48091,6,0,L|86:116,1,92.0000017547608,2|0,3:2|3:2,0:0:0:0:
30,237,48440,2,0,L|121:225,1,92.0000017547608,8|0,3:2|3:2,0:0:0:0:
276,331,48790,1,2,3:2:0:0:
197,384,48964,2,0,P|182:355|191:287,1,92.0000017547608,0|8,3:2|3:2,0:0:0:0:
327,207,49314,6,0,L|420:220,1,92.0000017547608,0|2,3:2|3:2,0:0:0:0:
388,108,49663,2,0,L|481:95,1,92.0000017547608,0|8,3:2|0:0,0:0:0:0:
238,18,50013,2,0,B|280:5|280:5|338:35,1,92.0000017547608,0|2,3:2|3:2,0:0:0:0:
195,111,50362,1,8,0:0:0:0:
195,111,50537,1,8,0:0:0:0:
113,47,50712,1,0,3:2:0:0:
161,209,50887,6,0,B|261:192|261:192|245:202|239:224,1,138.000002632141,2|0,3:2|0:0,0:0:0:0:
235,230,51236,2,0,P|226:279|243:322,1,92.0000017547608,8|0,3:2|3:2,0:0:0:0:
359,368,51586,2,0,B|369:346|394:341|394:341|439:360|493:361,1,138.000002632141,2|0,3:2|0:0,0:0:0:0:
488,368,51935,2,0,P|505:319|477:272,1,92.0000017547608,8|0,3:2|3:2,0:0:0:0:
377,133,52285,6,0,B|391:238|391:238|396:220|423:201,1,138.000002632141,2|0,3:2|0:0,0:0:0:0:
420,204,52634,1,8,3:2:0:0:
328,19,52809,2,0,P|286:58|205:47,1,138.000002632141,0|0,3:2|0:0,0:0:0:0:
133,12,53158,6,0,L|125:59,1,46.0000008773804,0|0,3:2|0:0,0:0:0:0:
66,120,53333,2,0,L|74:167,1,46.0000008773804,8|0,3:2|0:0,0:0:0:0:
137,222,53508,2,0,L|129:269,1,46.0000008773804,0|0,3:2|0:0,0:0:0:0:
49,377,53683,6,0,P|29:336|37:283,1,92.0000017547608,2|0,3:2|3:2,0:0:0:0:
231,367,54032,2,0,L|140:383,1,92.0000017547608,8|0,3:2|3:2,0:0:0:0:
348,288,54382,1,2,3:2:0:0:
348,288,54556,1,0,3:2:0:0:
245,249,54731,1,8,3:2:0:0:
414,203,54906,6,0,P|442:241|420:370,2,184.000003509522,0|0|0,3:2|3:2|0:0,0:0:0:0:
346,156,55692,1,0,0:0:0:0:
341,148,55780,2,0,P|339:117|347:102,1,46.0000008773804,2|0,3:2|0:0,0:0:0:0:
365,24,55954,2,0,P|390:6|407:6,1,46.0000008773804,8|0,0:0|0:0,0:0:0:0:
479,38,56129,5,8,0:0:0:0:
479,38,56304,1,0,3:2:0:0:
345,104,56479,5,2,3:2:0:0:
265,60,56653,1,0,3:2:0:0:
353,108,56828,5,8,3:2:0:0:
257,56,57003,2,0,B|167:44|211:80|95:60,1,151.999995941162,0|0,3:2|3:2,0:0:0:0:
0,168,57527,1,8,3:2:0:0:
81,221,57702,6,0,P|149:180|230:208,1,151.999995941162,0|0,3:2|3:2,0:0:0:0:
162,283,58226,1,8,3:2:0:0:
162,283,58751,5,0,3:2:0:0:
309,195,58925,2,0,L|386:205,1,75.9999979705811,8|0,0:0|3:2,0:0:0:0:
474,320,59275,5,2,3:2:0:0:
388,351,59450,1,0,3:2:0:0:
479,323,59624,5,8,3:2:0:0:
384,356,59799,2,0,P|376:278|388:193,1,151.999995941162,0|0,3:2|3:2,0:0:0:0:
447,120,60323,1,8,3:2:0:0:
302,156,60498,6,0,P|253:162|188:80,1,151.999995941162,0|0,3:2|3:2,0:0:0:0:
286,44,61022,1,8,3:2:0:0:
289,39,61197,1,0,3:2:0:0:
289,39,61547,5,0,3:2:0:0:
188,92,61721,2,0,P|160:98|115:75,1,75.9999979705811,8|0,3:2|3:2,0:0:0:0:
46,218,62071,5,2,3:2:0:0:
125,191,62246,1,0,3:2:0:0:
41,222,62420,5,8,3:2:0:0:
131,188,62595,2,0,P|214:200|312:217,1,151.999995941162,0|0,3:2|3:2,0:0:0:0:
410,336,63119,1,8,3:2:0:0:
326,384,63294,6,0,P|316:310|360:250,1,151.999995941162,0|0,3:2|3:2,0:0:0:0:
484,229,63818,1,8,3:2:0:0:
484,229,64343,5,0,3:2:0:0:
415,158,64517,2,0,P|421:119|430:76,1,75.9999979705811,8|0,3:2|3:2,0:0:0:0:
278,0,64867,5,2,3:2:0:0:
303,93,65042,1,0,3:2:0:0:
271,6,65216,5,8,3:2:0:0:
311,97,65391,2,0,P|269:87|174:144,1,151.999995941162,0|0,3:2|3:2,0:0:0:0:
95,250,65915,1,8,3:2:0:0:
31,181,66090,6,0,P|42:263|47:332,1,151.999995941162,0|0,3:2|3:2,0:0:0:0:
169,384,66614,1,8,3:2:0:0:
167,378,66789,1,0,3:2:0:0:
167,378,67139,5,0,3:2:0:0:
281,279,67313,1,8,3:2:0:0:
412,355,67488,1,0,3:2:0:0:
465,280,67663,6,0,P|470:241|478:205,1,75.9999979705811,2|0,3:2|3:2,0:0:0:0:
422,113,68013,2,0,P|461:108|497:100,1,75.9999979705811,8|0,3:2|3:2,0:0:0:0:
337,173,68362,2,0,P|294:191|210:131,1,151.999995941162,2|8,3:2|3:2,0:0:0:0:
67,13,68886,6,0,L|79:126,1,113.999996955872,0|0,3:2|0:0,0:0:0:0:
79,126,69236,2,0,P|48:145|6:130,1,75.9999979705811,0|8,3:2|3:2,0:0:0:0:
155,221,69585,1,0,3:2:0:0:
46,328,69760,2,0,L|54:248,1,75.9999979705811,2|0,3:2|3:2,0:0:0:0:
233,309,70110,5,8,3:2:0:0:
134,380,70284,1,0,3:2:0:0:
233,309,70459,6,0,P|274:317|317:322,1,75.9999979705811,2|0,3:2|3:2,0:0:0:0:
470,250,70809,2,0,P|432:254|395:262,1,75.9999979705811,8|0,3:2|3:2,0:0:0:0:
298,177,71158,1,2,3:2:0:0:
400,93,71333,2,0,P|420:124|415:161,1,75.9999979705811,0|8,3:2|3:2,0:0:0:0:
289,62,71682,6,0,P|234:66|169:73,1,113.999996955872,0|0,3:2|0:0,0:0:0:0:
175,72,72032,2,0,P|166:35|190:-1,1,75.9999979705811,0|8,3:2|3:2,0:0:0:0:
69,120,72381,1,0,3:2:0:0:
140,177,72556,2,0,P|179:180|225:189,1,75.9999979705811,2|0,3:2|3:2,0:0:0:0:
106,300,72906,5,8,3:2:0:0:
22,331,73080,1,0,3:2:0:0:
164,367,73255,6,0,P|201:358|239:354,1,75.9999979705811,2|0,3:2|3:2,0:0:0:0:
339,373,73605,2,0,P|330:336|325:298,1,75.9999979705811,8|0,3:2|3:2,0:0:0:0:
466,216,73954,1,2,3:2:0:0:
367,133,74129,2,0,P|355:168|363:205,1,75.9999979705811,0|8,3:2|3:2,0:0:0:0:
321,48,74478,6,0,P|265:45|203:36,1,113.999996955872,0|0,3:2|0:0,0:0:0:0:
207,36,74828,2,0,P|188:68|194:104,1,75.9999979705811,0|8,3:2|3:2,0:0:0:0:
244,239,75177,1,0,3:2:0:0:
100,189,75352,2,0,L|175:181,1,75.9999979705811,2|0,3:2|3:2,0:0:0:0:
332,273,75702,5,8,3:2:0:0:
195,354,75876,1,0,3:2:0:0:
343,281,76051,6,0,L|423:289,1,75.9999979705811,2|0,3:2|3:2,0:0:0:0:
474,165,76401,2,0,L|394:173,1,75.9999979705811,8|0,3:2|3:2,0:0:0:0:
294,90,76750,1,2,3:2:0:0:
380,16,76925,1,0,3:2:0:0:
387,18,77100,1,8,3:2:0:0:
303,192,77274,5,0,3:2:0:0:
303,192,78323,2,0,L|253:202,2,40,0|0|0,0:2|0:2|0:2,0:0:0:0:
452,56,78847,6,0,B|465:93|449:125|429:140|429:140|384:120,1,138.000002632141,2|0,3:2|0:0,0:0:0:0:
376,115,79197,2,0,P|343:66|343:28,1,92.0000017547608,8|0,3:2|3:2,0:0:0:0:
263,199,79546,2,0,B|255:255|255:255|248:261|248:261|237:339,1,138.000002632141,2|0,3:2|0:0,0:0:0:0:
235,345,79896,2,0,B|190:360|190:360|144:340,1,92.0000017547608,8|0,3:2|3:2,0:0:0:0:
0,227,80245,6,0,P|25:181|87:240,1,138.000002632141,2|0,3:2|0:0,0:0:0:0:
88,227,80595,1,8,3:2:0:0:
166,41,80770,2,0,L|190:180,1,138.000002632141,0|0,3:2|0:0,0:0:0:0:
173,264,81119,6,0,L|163:308,1,46.0000008773804,0|0,3:2|0:0,0:0:0:0:
225,364,81294,2,0,L|269:351,1,46.0000008773804,8|0,3:2|0:0,0:0:0:0:
288,270,81469,2,0,L|255:240,1,46.0000008773804,0|0,3:2|0:0,0:0:0:0:
279,355,81643,6,0,P|332:365|374:346,1,92.0000017547608,2|0,3:2|3:2,0:0:0:0:
512,246,81993,2,0,L|408:236,1,92.0000017547608,8|0,3:2|3:2,0:0:0:0:
287,116,82342,1,2,3:2:0:0:
381,72,82517,2,0,B|397:115|397:115|379:161,1,92.0000017547608,0|8,3:2|3:2,0:0:0:0:
250,28,82867,6,0,B|207:3|152:8|152:8|133:47|68:52,1,184.000003509522,0|0,3:2|3:2,0:0:0:0:
17,137,83391,1,8,0:0:0:0:
154,267,83566,2,0,P|208:195|191:108,1,184.000003509522,0|8,3:2|0:0,0:0:0:0:
102,170,84090,1,8,0:0:0:0:
102,170,84265,1,0,3:2:0:0:
237,221,84439,6,0,B|292:228|292:228|315:217|315:217|391:226,1,138.000002632141,2|0,3:2|0:0,0:0:0:0:
385,225,84789,2,0,B|404:182|404:182|384:132,1,92.0000017547608,8|0,3:2|3:2,0:0:0:0:
303,39,85138,2,0,L|164:22,1,138.000002632141,2|0,3:2|0:0,0:0:0:0:
155,20,85488,2,0,B|137:61|137:61|151:112,1,92.0000017547608,8|0,3:2|3:2,0:0:0:0:
80,258,85837,6,0,P|96:215|19:193,1,138.000002632141,2|0,3:2|0:0,0:0:0:0:
18,199,86187,1,8,3:2:0:0:
70,356,86362,2,0,B|128:348|128:348|144:329|144:329|218:315,1,138.000002632141,0|0,3:2|0:0,0:0:0:0:
261,254,86711,6,0,L|312:261,1,46.0000008773804,0|0,3:2|0:0,0:0:0:0:
345,345,86886,2,0,L|294:352,1,46.0000008773804,8|0,3:2|0:0,0:0:0:0:
393,267,87061,2,0,L|444:274,1,46.0000008773804,0|0,3:2|0:0,0:0:0:0:
505,202,87235,6,0,L|495:106,1,92.0000017547608,2|0,3:2|3:2,0:0:0:0:
370,17,87585,2,0,P|328:6|279:31,1,92.0000017547608,8|0,3:2|3:2,0:0:0:0:
189,129,87934,1,2,3:2:0:0:
189,129,88109,1,0,3:2:0:0:
262,186,88284,1,8,3:2:0:0:
183,36,88459,6,0,L|75:50,1,92.0000017547608,0|2,3:2|3:2,0:0:0:0:
99,157,88808,2,0,L|-9:171,1,92.0000017547608,0|8,3:2|3:2,0:0:0:0:
188,259,89158,2,0,L|80:273,1,92.0000017547608,0|2,3:2|3:2,0:0:0:0:
258,186,89507,5,8,0:0:0:0:
231,338,89682,1,8,0:0:0:0:
258,186,89857,1,0,3:2:0:0:
346,304,90031,6,0,B|376:307|392:325|392:325|435:326|483:303,1,138.000002632141,2|0,3:2|0:0,0:0:0:0:
484,300,90381,2,0,P|510:331|507:394,1,92.0000017547608,8|0,3:2|3:2,0:0:0:0:
416,212,90731,2,0,P|372:161|389:96,1,138.000002632141,2|0,3:2|0:0,0:0:0:0:
399,87,91080,2,0,B|306:104,1,92.0000017547608,8|0,3:2|3:2,0:0:0:0:
156,27,91430,6,0,B|174:23|189:6|189:6|178:111,1,138.000002632141,2|0,3:2|0:0,0:0:0:0:
177,119,91779,1,8,3:2:0:0:
32,41,91954,2,0,P|49:105|9:157,1,138.000002632141,0|0,3:2|0:0,0:0:0:0:
4,240,92303,6,0,P|6:266|19:297,1,46.0000008773804,0|0,3:2|0:0,0:0:0:0:
51,360,92478,2,0,P|72:346|92:319,1,46.0000008773804,8|0,3:2|0:0,0:0:0:0:
157,284,92653,2,0,P|179:298|199:325,1,46.0000008773804,0|0,3:2|0:0,0:0:0:0:
248,384,92828,6,0,L|339:372,1,92.0000017547608,2|0,3:2|3:2,0:0:0:0:
455,285,93177,2,0,L|364:273,1,92.0000017547608,8|0,3:2|3:2,0:0:0:0:
307,142,93527,1,2,3:2:0:0:
386,89,93701,2,0,P|401:118|392:186,1,92.0000017547608,0|8,3:2|3:2,0:0:0:0:
261,240,94051,6,0,L|168:227,1,92.0000017547608,0|2,3:2|3:2,0:0:0:0:
79,72,94400,2,0,L|92:165,1,92.0000017547608,0|8,3:2|0:0,0:0:0:0:
65,346,94750,2,0,B|52:304|52:304|82:246,1,92.0000017547608,0|2,3:2|3:2,0:0:0:0:
235,139,95099,1,8,0:0:0:0:
235,139,95274,1,8,0:0:0:0:
181,51,95449,1,0,3:2:0:0:
325,0,95624,6,0,B|335:22|360:27|360:27|405:8|459:7,1,138.000002632141,2|0,3:2|0:0,0:0:0:0:
454,0,95973,2,0,P|471:49|443:96,1,92.0000017547608,8|0,3:2|3:2,0:0:0:0:
313,127,96323,2,0,B|213:110|213:110|229:120|235:142,1,138.000002632141,2|0,3:2|0:0,0:0:0:0:
239,148,96672,2,0,P|247:198|230:241,1,92.0000017547608,8|0,3:2|3:2,0:0:0:0:
117,297,97022,6,0,B|106:188|106:188|81:229,1,138.000002632141,2|0,3:2|0:0,0:0:0:0:
85,225,97371,1,8,3:2:0:0:
185,374,97546,2,0,P|227:335|308:346,1,138.000002632141,0|0,3:2|0:0,0:0:0:0:
380,381,97895,6,0,L|388:334,1,46.0000008773804,0|0,3:2|0:0,0:0:0:0:
447,273,98070,2,0,L|439:226,1,46.0000008773804,8|0,3:2|0:0,0:0:0:0:
376,171,98245,2,0,L|384:124,1,46.0000008773804,0|0,3:2|0:0,0:0:0:0:
489,18,98420,6,0,P|493:63|473:104,1,92.0000017547608,2|0,3:2|3:2,0:0:0:0:
281,17,98769,2,0,L|372:1,1,92.0000017547608,8|0,3:2|3:2,0:0:0:0:
168,124,99119,1,2,3:2:0:0:
168,124,99293,1,0,3:2:0:0:
94,49,99468,1,8,3:2:0:0:
267,118,99643,6,0,P|255:191|247:300,2,184.000003509522,0|0|0,3:2|3:2|3:2,0:0:0:0:
325,55,100429,1,0,0:0:0:0:
334,50,100517,2,0,P|365:48|380:56,1,46.0000008773804,2|0,3:2|0:0,0:0:0:0:
458,74,100691,2,0,P|476:99|476:116,1,46.0000008773804,8|0,0:0|0:0,0:0:0:0:
444,188,100866,5,8,0:0:0:0:
444,188,101041,1,0,3:2:0:0:
