osu file format v14

[General]
AudioFilename: audio.mp3
AudioLeadIn: 0
PreviewTime: 33554
Countdown: 0
SampleSet: Soft
StackLeniency: 0.7
Mode: 0
LetterboxInBreaks: 0
WidescreenStoryboard: 1

[Editor]
Bookmarks: 11184
DistanceSpacing: 1
BeatDivisor: 2
GridSize: 8
TimelineZoom: 2

[Metadata]
Title:Take me home
TitleUnicode:Take me home
Artist:PinkPantheress
ArtistUnicode:PinkPantheress
Creator:AJT
Version:advanced
Source:
Tags:english pop dnb pink pantheress rho smh dyl-byl qiyana arronchu1207
BeatmapID:3636205
BeatmapSetID:1552741

[Difficulty]
HPDrainRate:3
CircleSize:4.5
OverallDifficulty:5
ApproachRate:6
SliderMultiplier:1.2
SliderTickRate:1

[Events]
//Background and Video events
0,0,"image.jpg",0,0
//Break Periods
//Storyboard Layer 0 (Background)
//Storyboard Layer 1 (Fail)
//Storyboard Layer 2 (Pass)
//Storyboard Layer 3 (Foreground)
//Storyboard Layer 4 (Overlay)
//Storyboard Sound Samples

[TimingPoints]
558,349.507776548028,4,2,1,69,1,0
34110,-90.9090909090909,4,2,1,80,0,1
56479,-100,4,2,1,69,0,0
78847,-90.9090909090909,4,2,1,80,0,1
101216,-100,4,2,1,5,0,0

[Colours]
Combo1 : 255,255,74
Combo2 : 255,87,187
Combo3 : 151,88,218

[HitObjects]
418,58,11742,6,0,P|453:71|472:80,2,60,2|0|8,3:2|3:2|3:2,0:0:0:0:
365,87,12266,2,0,P|380:140|388:206,1,120,0|0,3:2|3:2,0:0:0:0:
355,255,12790,1,8,3:2:0:0:
355,255,12965,2,0,P|302:270|236:278,1,120,0|0,3:2|3:2,0:0:0:0:
212,332,13489,1,8,3:2:0:0:
35,368,14014,6,0,P|22:333|13:314,1,60,0|8,3:2|3:2,0:0:0:0:
55,198,14538,2,0,P|42:163|33:144,2,60,2|0|8,3:2|3:2|3:2,0:0:0:0:
108,170,15062,1,0,3:2:0:0:
221,131,15412,2,0,P|208:96|199:77,1,60,0|8,3:2|3:2,0:0:0:0:
236,28,15761,2,0,P|289:13|355:5,1,120,0|0,3:2|3:2,0:0:0:0:
402,48,16285,1,8,3:2:0:0:
402,48,16460,1,0,3:2:0:0:
346,156,16810,1,0,3:2:0:0:
346,156,16984,2,0,P|359:191|368:210,1,60,8|0,3:2|3:2,0:0:0:0:
409,255,17334,6,0,P|444:242|463:233,2,60,2|0|8,3:2|3:2|3:2,0:0:0:0:
378,306,17858,2,0,P|325:291|259:283,1,120,0|0,3:2|3:2,0:0:0:0:
226,333,18382,1,8,3:2:0:0:
226,333,18557,2,0,P|213:279|188:217,1,120,0|0,3:2|3:2,0:0:0:0:
132,200,19081,2,0,B|137:226|110:239|118:269,1,60,8|0,3:2|3:2,0:0:0:0:
18,326,19606,1,0,3:2:0:0:
61,367,19780,2,0,B|87:362|100:389|130:381,1,60,8|0,3:2|3:2,0:0:0:0:
177,372,20130,6,0,B|200:316|200:316|260:342,1,120,2|8,3:2|3:2,0:0:0:0:
314,347,20654,2,0,P|326:293|351:231,1,120,0|0,3:2|3:2,0:0:0:0:
409,212,21178,1,8,3:2:0:0:
409,212,21353,1,0,3:2:0:0:
88,48,22402,1,0,3:2:0:0:
88,48,22576,1,8,3:2:0:0:
13,142,22926,6,0,P|5:204|16:265,2,120,2|8|2,3:2|3:2|3:2,0:0:0:0:
119,197,23975,1,8,3:2:0:0:
119,197,24149,2,0,P|127:259|116:320,2,120,0|0|0,3:2|3:2|3:2,0:0:0:0:
165,159,25023,2,0,P|204:159|242:168,1,60,2|0,3:2|3:2,0:0:0:0:
279,136,25373,1,8,3:2:0:0:
247,20,25722,5,2,3:2:0:0:
366,7,26072,1,8,3:2:0:0:
453,88,26421,2,0,L|537:107,2,60,2|0|8,3:2|3:2|3:2,0:0:0:0:
410,130,26945,2,0,P|397:175|377:267,1,120,0|0,3:2|3:2,0:0:0:0:
490,308,27644,1,0,3:2:0:0:
490,308,27819,2,0,L|471:388,1,60,2|0,3:2|3:2,0:0:0:0:
416,368,28169,2,0,L|336:387,1,60,8|0,3:2|3:2,0:0:0:0:
314,339,28518,5,2,3:2:0:0:
332,220,28868,2,0,L|313:140,1,60,8|0,3:2|3:2,0:0:0:0:
274,119,29217,2,0,L|194:138,1,60,2|0,3:2|3:2,0:0:0:0:
176,178,29567,1,8,3:2:0:0:
176,178,29741,1,0,3:2:0:0:
61,214,30091,1,0,3:2:0:0:
100,327,30440,1,0,3:2:0:0:
100,327,30615,2,0,L|20:346,2,60,2|0|8,3:2|3:2|3:2,0:0:0:0:
215,358,31314,6,0,P|231:332|237:296,1,60,2|0,3:2|3:2,0:0:0:0:
277,258,31664,2,0,P|261:232|255:196,1,60,8|0,3:2|3:2,0:0:0:0:
203,173,32013,2,0,P|219:147|225:111,1,60,2|0,3:2|3:2,0:0:0:0:
265,73,32363,2,0,P|249:47|243:11,1,60,8|0,3:2|3:2,0:0:0:0:
248,8,34110,6,0,P|302:11|375:46,1,132.00000402832,2|8,3:2|3:2,0:0:0:0:
437,40,34635,1,0,3:2:0:0:
437,40,34809,2,0,P|434:94|399:167,1,132.00000402832,2|8,3:2|3:2,0:0:0:0:
412,233,35334,1,0,3:2:0:0:
412,233,35508,2,0,P|358:230|285:195,2,132.00000402832,2|8|0,3:2|3:2|3:2,0:0:0:0:
453,291,36382,1,0,3:2:0:0:
453,291,36557,1,8,3:2:0:0:
336,352,36906,6,0,P|296:341|249:333,1,66.0000020141602,2|0,3:2|3:2,0:0:0:0:
209,359,37256,2,0,P|169:348|122:340,1,66.0000020141602,8|0,3:2|3:2,0:0:0:0:
98,296,37605,2,0,P|109:256|117:209,1,66.0000020141602,2|0,3:2|3:2,0:0:0:0:
73,186,37955,1,8,3:2:0:0:
73,186,38130,2,0,L|15:50,2,132.00000402832,0|0|0,3:2|3:2|3:2,0:0:0:0:
181,111,39178,1,8,0:0:0:0:
225,61,39353,2,0,P|257:67|289:76,1,66.0000020141602,8|0,0:0|3:2,0:0:0:0:
342,115,39702,6,0,P|396:112|469:77,1,132.00000402832,2|8,3:2|3:2,0:0:0:0:
500,141,40227,1,0,3:2:0:0:
500,141,40401,2,0,P|463:181|437:257,1,132.00000402832,2|8,3:2|3:2,0:0:0:0:
376,271,40926,1,0,3:2:0:0:
376,271,41100,2,0,P|412:311|344:364,1,132.00000402832,2|8,3:2|3:2,0:0:0:0:
307,374,41625,2,0,P|266:337|191:344,1,132.00000402832,0|0,3:2|3:2,0:0:0:0:
131,367,42149,1,8,3:2:0:0:
50,262,42498,6,0,P|61:222|69:175,1,66.0000020141602,2|0,3:2|3:2,0:0:0:0:
47,134,42848,2,0,P|87:123|134:115,1,66.0000020141602,8|0,3:2|3:2,0:0:0:0:
125,53,43197,1,2,3:2:0:0:
258,30,43547,1,8,3:2:0:0:
258,30,43722,2,0,P|307:28|400:39,2,132.00000402832,0|0|0,3:2|3:2|3:2,0:0:0:0:
208,152,44770,1,8,0:0:0:0:
258,196,44945,2,0,P|252:228|243:260,1,66.0000020141602,8|0,0:0|3:2,0:0:0:0:
272,318,45294,6,0,P|326:321|399:356,1,132.00000402832,2|8,3:2|3:2,0:0:0:0:
458,331,45819,1,0,3:2:0:0:
472,266,45994,2,0,P|475:212|510:139,1,132.00000402832,2|8,3:2|3:2,0:0:0:0:
489,78,46518,1,0,3:2:0:0:
489,78,46693,2,0,P|410:66|155:43,1,330.000010070801,2|0,3:2|3:2,0:0:0:0:
97,63,47741,1,8,3:2:0:0:
11,163,48091,6,0,P|22:203|30:250,1,66.0000020141602,2|0,3:2|3:2,0:0:0:0:
93,231,48440,2,0,P|82:271|74:318,1,66.0000020141602,8|0,3:2|3:2,0:0:0:0:
68,360,48790,2,0,P|28:349|-19:341,2,66.0000020141602,2|0|8,3:2|3:2|3:2,0:0:0:0:
130,382,49314,1,0,3:2:0:0:
261,374,49663,1,0,3:2:0:0:
287,244,50013,1,0,3:2:0:0:
418,233,50362,1,8,0:0:0:0:
468,189,50537,2,0,P|462:157|453:125,1,66.0000020141602,8|0,0:0|3:2,0:0:0:0:
447,58,50887,6,0,P|396:39|315:43,1,132.00000402832,2|8,3:2|3:2,0:0:0:0:
291,102,51411,1,0,3:2:0:0:
226,88,51586,2,0,P|172:85|99:50,1,132.00000402832,2|8,3:2|3:2,0:0:0:0:
50,21,52110,1,0,3:2:0:0:
50,21,52285,2,0,P|62:100|85:355,1,330.000010070801,2|0,3:2|3:2,0:0:0:0:
148,366,53333,1,8,3:2:0:0:
279,353,53683,6,0,P|290:313|298:266,1,66.0000020141602,2|0,3:2|3:2,0:0:0:0:
349,252,54032,2,0,P|338:212|330:165,1,66.0000020141602,8|0,3:2|3:2,0:0:0:0:
374,136,54382,2,0,P|414:125|461:117,2,66.0000020141602,2|0|8,3:2|3:2|3:2,0:0:0:0:
328,87,54906,1,0,3:2:0:0:
200,52,55255,1,0,3:2:0:0:
165,179,55605,1,0,3:2:0:0:
131,309,55954,1,8,0:0:0:0:
131,309,56129,1,8,0:0:0:0:
241,355,56479,6,0,P|276:368|295:377,1,60,2|0,3:2|3:2,0:0:0:0:
352,354,56828,1,8,3:2:0:0:
352,354,57003,2,0,P|367:301|375:235,1,120,0|0,3:2|3:2,0:0:0:0:
359,183,57527,1,8,3:2:0:0:
359,183,57702,2,0,P|306:168|240:160,1,120,0|0,3:2|3:2,0:0:0:0:
221,103,58226,1,8,3:2:0:0:
64,14,58751,6,0,P|29:27|10:36,2,60,0|8|0,3:2|3:2|3:2,0:0:0:0:
105,57,59275,2,0,P|100:90|84:121,1,60,2|0,3:2|3:2,0:0:0:0:
105,176,59624,1,8,3:2:0:0:
105,176,59799,2,0,P|158:191|224:199,1,120,0|0,3:2|3:2,0:0:0:0:
248,258,60323,1,8,3:2:0:0:
248,258,60498,1,0,3:2:0:0:
398,356,61022,1,8,3:2:0:0:
386,184,61547,1,0,3:2:0:0:
386,184,61721,2,0,P|399:149|408:130,1,60,8|0,3:2|3:2,0:0:0:0:
443,79,62071,6,0,P|478:92|497:101,2,60,2|0|8,3:2|3:2|3:2,0:0:0:0:
397,39,62595,2,0,P|344:54|278:62,1,120,0|0,3:2|3:2,0:0:0:0:
226,48,63119,1,8,3:2:0:0:
226,48,63294,2,0,P|213:102|188:164,1,120,0|0,3:2|3:2,0:0:0:0:
213,216,63818,2,0,B|183:221|144:230,1,60,8|0,3:2|3:2,0:0:0:0:
109,339,64343,1,0,3:2:0:0:
162,365,64517,2,0,B|200:360|231:351,1,60,8|0,3:2|3:2,0:0:0:0:
275,327,64867,6,0,B|333:328|333:328|350:255,1,120,2|8,3:2|3:2,0:0:0:0:
397,234,65391,2,0,P|409:180|434:118,1,120,0|0,3:2|3:2,0:0:0:0:
469,72,65915,1,8,3:2:0:0:
469,72,66090,1,0,3:2:0:0:
258,364,67139,1,0,3:2:0:0:
258,364,67313,1,8,3:2:0:0:
140,338,67663,6,0,P|78:330|40:288,1,120,2|8,3:2|3:2,0:0:0:0:
31,169,68362,1,2,3:2:0:0:
74,59,68712,1,8,3:2:0:0:
74,59,68886,2,0,P|136:51|197:62,1,120,0|0,3:2|3:2,0:0:0:0:
301,11,69585,1,0,3:2:0:0:
343,53,69760,2,0,P|382:53|420:44,1,60,2|0,3:2|3:2,0:0:0:0:
424,105,70110,1,8,3:2:0:0:
446,223,70459,5,2,3:2:0:0:
370,316,70809,1,8,3:2:0:0:
249,321,71158,2,0,L|230:405,2,60,2|0|8,3:2|3:2|3:2,0:0:0:0:
201,283,71682,2,0,P|156:296|64:316,1,120,0|0,3:2|3:2,0:0:0:0:
28,212,72381,1,0,3:2:0:0:
28,212,72556,2,0,L|47:132,1,60,2|0,3:2|3:2,0:0:0:0:
64,98,72906,2,0,L|144:79,1,60,8|0,3:2|3:2,0:0:0:0:
155,33,73255,5,2,3:2:0:0:
274,24,73605,2,0,L|354:43,1,60,8|0,3:2|3:2,0:0:0:0:
375,82,73954,2,0,L|356:162,1,60,2|0,3:2|3:2,0:0:0:0:
316,180,74304,1,8,3:2:0:0:
316,180,74478,1,0,3:2:0:0:
224,257,74828,1,0,3:2:0:0:
263,370,75177,1,0,3:2:0:0:
263,370,75352,2,0,L|183:389,2,60,2|0|8,3:2|3:2|3:2,0:0:0:0:
379,340,76051,6,0,P|401:319|418:287,1,60,2|0,3:2|3:2,0:0:0:0:
467,262,76401,2,0,P|459:232|464:196,1,60,8|0,3:2|3:2,0:0:0:0:
421,159,76750,2,0,P|443:138|460:106,1,60,2|0,3:2|3:2,0:0:0:0:
510,82,77100,2,0,P|502:52|507:16,1,60,8|0,3:2|3:2,0:0:0:0:
248,376,78847,5,2,3:2:0:0:
371,340,79197,1,8,3:2:0:0:
435,357,79372,1,0,3:2:0:0:
485,313,79546,2,0,P|482:259|447:186,1,132.00000402832,2|8,3:2|3:2,0:0:0:0:
410,142,80071,1,0,3:2:0:0:
410,142,80245,2,0,P|356:145|283:180,2,132.00000402832,2|8|0,3:2|3:2|3:2,0:0:0:0:
453,93,81119,1,0,3:2:0:0:
430,30,81294,1,8,3:2:0:0:
298,23,81643,6,0,P|258:34|211:42,1,66.0000020141602,2|0,3:2|3:2,0:0:0:0:
171,16,81993,2,0,P|131:27|84:35,1,66.0000020141602,8|0,3:2|3:2,0:0:0:0:
75,90,82342,1,2,3:2:0:0:
106,147,82517,1,0,3:2:0:0:
83,211,82692,1,8,3:2:0:0:
83,211,82867,2,0,L|25:347,2,132.00000402832,0|0|0,3:2|3:2|3:2,0:0:0:0:
195,279,83915,1,8,0:0:0:0:
238,329,84090,2,0,P|270:323|302:314,1,66.0000020141602,8|0,0:0|3:2,0:0:0:0:
348,266,84439,5,2,3:2:0:0:
467,321,84789,1,8,3:2:0:0:
483,257,84964,1,0,3:2:0:0:
492,191,85138,2,0,P|455:151|429:75,1,132.00000402832,2|8,3:2|3:2,0:0:0:0:
378,45,85663,1,0,3:2:0:0:
311,45,85837,2,0,B|258:96|294:130|244:175,1,132.00000402832,2|8,3:2|3:2,0:0:0:0:
229,222,86362,2,0,P|188:259|113:252,1,132.00000402832,0|0,3:2|3:2,0:0:0:0:
52,230,86886,1,8,3:2:0:0:
30,99,87235,6,0,P|70:88|117:80,1,66.0000020141602,2|0,3:2|3:2,0:0:0:0:
149,47,87585,2,0,P|189:58|236:66,1,66.0000020141602,8|0,3:2|3:2,0:0:0:0:
267,24,87934,1,2,3:2:0:0:
329,45,88109,1,0,3:2:0:0:
390,81,88284,1,8,3:2:0:0:
390,81,88459,2,0,P|433:58|522:29,2,132.00000402832,0|0|0,3:2|3:2|3:2,0:0:0:0:
423,208,89507,1,8,0:0:0:0:
373,252,89682,1,8,0:0:0:0:
392,314,89857,1,0,3:2:0:0:
336,348,90031,6,0,P|282:351|209:386,1,132.00000402832,2|8,3:2|3:2,0:0:0:0:
147,372,90556,1,0,3:2:0:0:
133,307,90731,2,0,P|130:253|95:180,1,132.00000402832,2|8,3:2|3:2,0:0:0:0:
52,142,91255,1,0,3:2:0:0:
52,142,91430,2,0,P|131:154|386:177,1,330.000010070801,2|0,3:2|3:2,0:0:0:0:
390,242,92478,1,8,3:2:0:0:
471,138,92828,6,0,P|482:98|490:51,1,66.0000020141602,2|0,3:2|3:2,0:0:0:0:
437,28,93177,2,0,P|397:17|350:9,1,66.0000020141602,8|0,3:2|3:2,0:0:0:0:
308,27,93527,2,0,P|268:38|221:46,1,66.0000020141602,2|0,3:2|3:2,0:0:0:0:
177,36,93876,1,8,3:2:0:0:
132,84,94051,1,0,3:2:0:0:
89,208,94400,1,0,3:2:0:0:
146,326,94750,1,0,3:2:0:0:
248,243,95099,1,8,0:0:0:0:
292,193,95274,1,8,0:0:0:0:
356,206,95449,1,0,3:2:0:0:
417,180,95624,6,0,P|436:129|432:48,1,132.00000402832,2|8,3:2|3:2,0:0:0:0:
380,12,96148,1,0,3:2:0:0:
314,6,96323,2,0,P|260:9|187:44,1,132.00000402832,2|8,3:2|3:2,0:0:0:0:
130,26,96847,1,0,3:2:0:0:
130,26,97022,2,0,P|142:105|165:360,1,330.000010070801,2|0,3:2|3:2,0:0:0:0:
224,382,98070,1,8,3:2:0:0:
318,289,98420,6,0,P|358:278|405:270,1,66.0000020141602,2|0,3:2|3:2,0:0:0:0:
420,218,98769,2,0,P|409:178|401:131,1,66.0000020141602,8|0,3:2|3:2,0:0:0:0:
437,96,99119,2,0,P|477:107|524:115,2,66.0000020141602,2|0|8,3:2|3:2|3:2,0:0:0:0:
419,31,99643,1,0,3:2:0:0:
288,48,99992,1,0,3:2:0:0:
157,70,100342,1,0,3:2:0:0:
31,98,100691,1,8,0:0:0:0:
31,98,100866,1,8,0:0:0:0:
31,98,101041,1,0,3:2:0:0:
