osu file format v14

[General]
AudioFilename: audio.mp3
AudioLeadIn: 0
PreviewTime: 15367
Countdown: 0
SampleSet: Soft
StackLeniency: 1
Mode: 3
LetterboxInBreaks: 0
SpecialStyle: 0
WidescreenStoryboard: 1

[Editor]
Bookmarks: 30534,38177,53464,68750
DistanceSpacing: 0.1
BeatDivisor: 6
GridSize: 32
TimelineZoom: 1

[Metadata]
Title:Pain
TitleUnicode:Pain
Artist:PinkPantheress
ArtistUnicode:PinkPantheress
Creator:axelowo
Version:7K Admire
Source:
Tags:pink pantheress to hell with it tiktok tik tok Gymnopédie No.1 gymnopedie no. 1 number one erik satie Sweet Female Attitude Flowers uk garage ukg 2-step 2 step pop electronic english
BeatmapID:3356784
BeatmapSetID:1644478

[Difficulty]
HPDrainRate:7
CircleSize:7
OverallDifficulty:7
ApproachRate:5
SliderMultiplier:1.4
SliderTickRate:1

[Events]
//Background and Video events
0,0,"thumb-1920-1156887.jpg",0,0
//Break Periods
//Storyboard Layer 0 (Background)
//Storyboard Layer 1 (Fail)
//Storyboard Layer 2 (Pass)
//Storyboard Layer 3 (Foreground)
//Storyboard Layer 4 (Overlay)
//Storyboard Sound Samples

[TimingPoints]
-39,477.707006369427,4,2,1,65,1,0
68750,535.714285714286,4,2,1,65,1,0
68750,-89.2060660124888,4,2,1,65,0,0
70127,561.272217025257,4,2,1,65,1,0
70127,-85.1788756388416,4,2,1,65,0,0
72384,559.179869524697,4,2,1,65,1,0
72384,-85.4700854700855,4,2,1,65,0,0
76857,-85.4700854700855,4,2,1,55,0,0
77716,561.272217025257,4,2,1,45,1,0
77716,-85.1788756388416,4,2,1,45,0,0
79961,-85.1788756388416,4,2,1,35,0,0
82206,-85.1788756388416,4,2,1,25,0,0
84451,-85.1788756388416,4,2,1,15,0,0
85573,-85.1788756388416,4,2,1,10,0,0
86705,568.181818181818,4,2,1,5,1,0
86705,-84.1042893187552,4,2,1,5,0,0

[HitObjects]
256,192,199,5,0,0:0:0:0:
64,192,438,1,0,0:0:0:0:
109,192,438,1,0,0:0:0:0:
182,192,438,1,8,0:0:0:0:
329,192,677,1,0,0:0:0:0:
402,192,836,1,0,0:0:0:0:
475,192,836,1,0,0:0:0:0:
256,192,1155,1,0,0:0:0:0:
36,192,1155,1,2,0:0:0:0:
402,192,1394,1,0,0:0:0:0:
475,192,1394,1,0,0:0:0:0:
329,192,1394,1,8,0:0:0:0:
182,192,1632,1,0,0:0:0:0:
256,192,1871,1,0,0:0:0:0:
329,192,1871,1,2,0:0:0:0:
109,192,2110,1,0,0:0:0:0:
402,192,2349,1,0,0:0:0:0:
475,192,2349,1,0,0:0:0:0:
182,192,2349,1,8,0:0:0:0:
36,192,2508,1,0,0:0:0:0:
329,192,2508,1,0,0:0:0:0:
256,192,2508,1,8,0:0:0:0:
109,192,2588,1,0,0:0:0:0:
475,192,2747,1,0,0:0:0:0:
402,192,2747,1,0,0:0:0:0:
182,192,3066,1,0,0:0:0:0:
329,192,3066,1,2,0:0:0:0:
109,192,3304,1,0,0:0:0:0:
36,192,3304,1,0,0:0:0:0:
256,192,3304,1,8,0:0:0:0:
402,192,3464,1,0,0:0:0:0:
475,192,3464,1,2,0:0:0:0:
182,192,3543,1,0,0:0:0:0:
109,192,3543,1,2,0:0:0:0:
402,192,3782,1,0,0:0:0:0:
36,192,3782,1,2,0:0:0:0:
256,192,4021,1,0,0:0:0:0:
64,192,4260,1,0,0:0:0:0:
109,192,4260,1,0,0:0:0:0:
182,192,4260,1,8,0:0:0:0:
329,192,4499,1,0,0:0:0:0:
402,192,4658,1,0,0:0:0:0:
475,192,4658,1,0,0:0:0:0:
256,192,4976,1,0,0:0:0:0:
36,192,4976,1,2,0:0:0:0:
402,192,5215,1,0,0:0:0:0:
475,192,5215,1,0,0:0:0:0:
329,192,5215,1,8,0:0:0:0:
182,192,5454,1,0,0:0:0:0:
329,192,5693,1,0,0:0:0:0:
256,192,5693,1,2,0:0:0:0:
109,192,5932,1,0,0:0:0:0:
402,192,6171,1,0,0:0:0:0:
475,192,6171,1,0,0:0:0:0:
182,192,6171,1,8,0:0:0:0:
329,192,6330,1,0,0:0:0:0:
256,192,6330,1,0,0:0:0:0:
36,192,6330,1,8,0:0:0:0:
109,192,6410,1,0,0:0:0:0:
402,192,6569,1,0,0:0:0:0:
475,192,6569,1,0,0:0:0:0:
329,192,6887,1,0,0:0:0:0:
182,192,6887,1,2,0:0:0:0:
109,192,7126,1,0,0:0:0:0:
36,192,7126,1,0,0:0:0:0:
256,192,7126,1,8,0:0:0:0:
402,192,7285,1,0,0:0:0:0:
475,192,7285,1,2,0:0:0:0:
182,192,7365,1,0,0:0:0:0:
109,192,7365,1,2,0:0:0:0:
402,192,7604,1,0,0:0:0:0:
36,192,7604,1,0,0:0:0:0:
329,192,7604,1,2,0:0:0:0:
475,192,7604,1,4,0:0:0:0:
256,192,7843,1,0,0:0:0:0:
64,192,8082,1,0,0:0:0:0:
182,192,8082,1,0,0:0:0:0:
109,192,8082,1,8,0:0:0:0:
329,192,8320,1,0,0:0:0:0:
475,192,8480,1,0,0:0:0:0:
402,192,8480,1,0,0:0:0:0:
36,192,8798,1,0,0:0:0:0:
256,192,8798,1,2,0:0:0:0:
475,192,9037,1,0,0:0:0:0:
402,192,9037,1,0,0:0:0:0:
329,192,9037,1,8,0:0:0:0:
182,192,9276,1,0,0:0:0:0:
256,192,9515,1,0,0:0:0:0:
329,192,9515,1,2,0:0:0:0:
109,192,9753,1,0,0:0:0:0:
182,192,9992,1,0,0:0:0:0:
475,192,9992,1,0,0:0:0:0:
402,192,9992,1,8,0:0:0:0:
36,192,10152,1,0,0:0:0:0:
256,192,10152,1,0,0:0:0:0:
329,192,10152,1,8,0:0:0:0:
109,192,10231,1,0,0:0:0:0:
475,192,10390,1,0,0:0:0:0:
402,192,10390,1,0,0:0:0:0:
182,192,10709,1,0,0:0:0:0:
329,192,10709,1,2,0:0:0:0:
109,192,10948,1,0,0:0:0:0:
256,192,10948,1,0,0:0:0:0:
36,192,10948,1,8,0:0:0:0:
475,192,11107,1,0,0:0:0:0:
402,192,11107,1,2,0:0:0:0:
109,192,11187,1,0,0:0:0:0:
182,192,11187,1,2,0:0:0:0:
36,192,11425,1,0,0:0:0:0:
402,192,11425,1,2,0:0:0:0:
256,192,11664,1,0,0:0:0:0:
64,192,11903,1,0,0:0:0:0:
109,192,11903,1,0,0:0:0:0:
182,192,11903,1,8,0:0:0:0:
329,192,12142,1,0,0:0:0:0:
402,192,12301,1,0,0:0:0:0:
475,192,12301,1,0,0:0:0:0:
256,192,12620,1,0,0:0:0:0:
36,192,12620,1,2,0:0:0:0:
329,192,12859,1,0,0:0:0:0:
402,192,12859,1,0,0:0:0:0:
475,192,12859,1,8,0:0:0:0:
182,192,13097,1,0,0:0:0:0:
256,192,13336,1,0,0:0:0:0:
329,192,13336,1,2,0:0:0:0:
109,192,13575,1,0,0:0:0:0:
182,192,13814,1,0,0:0:0:0:
475,192,13814,1,0,0:0:0:0:
402,192,13814,1,8,0:0:0:0:
329,192,13973,1,0,0:0:0:0:
256,192,13973,1,0,0:0:0:0:
36,192,13973,1,8,0:0:0:0:
109,192,14053,1,0,0:0:0:0:
402,192,14212,1,0,0:0:0:0:
475,192,14212,1,0,0:0:0:0:
182,192,14531,1,0,0:0:0:0:
329,192,14531,1,2,0:0:0:0:
36,192,14769,1,0,0:0:0:0:
256,192,14769,1,0,0:0:0:0:
109,192,14769,1,8,0:0:0:0:
402,192,14929,1,0,0:0:0:0:
475,192,14929,1,2,0:0:0:0:
182,192,15008,1,0,0:0:0:0:
109,192,15008,1,2,0:0:0:0:
402,192,15247,1,0,0:0:0:0:
36,192,15247,1,0,0:0:0:0:
475,192,15247,1,2,0:0:0:0:
329,192,15247,1,4,0:0:0:0:
182,192,15486,128,0,15725:0:0:0:0:
256,192,15725,1,0,0:0:0:0:
329,192,15725,128,0,15964:0:0:0:0:
402,192,15725,1,8,0:0:0:0:
36,192,15964,1,0,0:0:0:0:
182,192,16123,1,0,0:0:0:0:
256,192,16123,1,0,0:0:0:0:
109,192,16441,128,0,16680:0:0:0:0:
402,192,16441,1,2,0:0:0:0:
256,192,16680,128,0,16919:0:0:0:0:
182,192,16680,1,0,0:0:0:0:
329,192,16680,1,8,0:0:0:0:
402,192,16919,128,0,17158:0:0:0:0:
329,192,17158,128,0,17397:0:0:0:0:
109,192,17158,1,0,0:0:0:0:
36,192,17158,1,2,0:0:0:0:
475,192,17397,1,0,0:0:0:0:
109,192,17636,128,0,17875:0:0:0:0:
182,192,17636,1,0,0:0:0:0:
402,192,17636,1,8,0:0:0:0:
329,192,17795,1,0,0:0:0:0:
475,192,17795,1,8,0:0:0:0:
182,192,17875,128,0,18113:0:0:0:0:
256,192,18034,1,0,0:0:0:0:
402,192,18034,1,0,0:0:0:0:
36,192,18113,128,0,18352:0:0:0:0:
109,192,18352,1,0,0:0:0:0:
182,192,18352,1,2,0:0:0:0:
475,192,18591,1,0,0:0:0:0:
329,192,18591,1,0,0:0:0:0:
402,192,18591,1,8,0:0:0:0:
109,192,18750,1,0,0:0:0:0:
36,192,18750,1,2,0:0:0:0:
182,192,18830,1,0,0:0:0:0:
256,192,18830,1,2,0:0:0:0:
329,192,19069,128,0,19308:0:0:0:0:
475,192,19069,1,2,0:0:0:0:
402,192,19308,1,0,0:0:0:0:
36,192,19546,1,0,0:0:0:0:
182,192,19546,128,0,19785:0:0:0:0:
109,192,19546,1,8,0:0:0:0:
329,192,19785,128,0,20024:0:0:0:0:
256,192,19945,1,0,0:0:0:0:
109,192,19945,1,0,0:0:0:0:
475,192,20024,128,0,20263:0:0:0:0:
402,192,20263,128,0,20502:0:0:0:0:
329,192,20263,1,2,0:0:0:0:
256,192,20502,128,0,20741:0:0:0:0:
36,192,20502,1,0,0:0:0:0:
109,192,20502,1,8,0:0:0:0:
182,192,20741,128,0,20980:0:0:0:0:
36,192,20980,128,0,21218:0:0:0:0:
109,192,20980,1,2,0:0:0:0:
329,192,21218,1,0,0:0:0:0:
36,192,21457,1,0,0:0:0:0:
109,192,21457,1,0,0:0:0:0:
182,192,21457,1,8,0:0:0:0:
402,192,21617,1,0,0:0:0:0:
475,192,21617,1,0,0:0:0:0:
329,192,21617,1,8,0:0:0:0:
256,192,21696,1,0,0:0:0:0:
109,192,21855,1,0,0:0:0:0:
182,192,21855,1,0,0:0:0:0:
329,192,21935,128,0,22174:0:0:0:0:
182,192,22174,128,0,22413:0:0:0:0:
402,192,22174,1,2,0:0:0:0:
475,192,22413,1,0,0:0:0:0:
36,192,22413,1,0,0:0:0:0:
109,192,22413,1,8,0:0:0:0:
402,192,22572,1,0,0:0:0:0:
329,192,22572,1,2,0:0:0:0:
256,192,22652,1,0,0:0:0:0:
182,192,22652,1,2,0:0:0:0:
402,192,22890,128,0,23129:0:0:0:0:
329,192,22890,128,0,23129:0:0:0:0:
182,192,22890,1,4,0:0:0:0:
109,192,22890,1,2,0:0:0:0:
256,192,23129,1,0,0:0:0:0:
329,192,23368,1,0,0:0:0:0:
109,192,23368,1,0,0:0:0:0:
36,192,23368,128,8,23607:0:0:0:0:
109,192,23607,128,0,23846:0:0:0:0:
256,192,23766,1,0,0:0:0:0:
182,192,23766,1,0,0:0:0:0:
402,192,23846,128,0,24085:0:0:0:0:
329,192,24085,128,0,24324:0:0:0:0:
475,192,24085,1,2,0:0:0:0:
256,192,24324,128,0,24562:0:0:0:0:
109,192,24324,1,0,0:0:0:0:
36,192,24324,1,8,0:0:0:0:
182,192,24562,128,0,24801:0:0:0:0:
329,192,24801,1,0,0:0:0:0:
109,192,24801,128,2,25279:0:0:0:0:
402,192,25040,1,0,0:0:0:0:
475,192,25279,1,0,0:0:0:0:
256,192,25279,1,0,0:0:0:0:
329,192,25279,1,8,0:0:0:0:
182,192,25438,1,0,0:0:0:0:
36,192,25438,1,0,0:0:0:0:
109,192,25438,1,8,0:0:0:0:
256,192,25518,1,0,0:0:0:0:
402,192,25677,1,0,0:0:0:0:
475,192,25677,1,0,0:0:0:0:
329,192,25757,1,0,0:0:0:0:
182,192,25996,1,0,0:0:0:0:
109,192,25996,1,2,0:0:0:0:
256,192,26234,1,0,0:0:0:0:
329,192,26234,1,0,0:0:0:0:
402,192,26234,1,8,0:0:0:0:
109,192,26394,1,0,0:0:0:0:
36,192,26394,1,2,0:0:0:0:
182,192,26473,1,0,0:0:0:0:
256,192,26473,1,2,0:0:0:0:
402,192,26712,128,0,26951:0:0:0:0:
36,192,26712,1,2,0:0:0:0:
109,192,26951,128,0,27190:0:0:0:0:
475,192,27190,1,0,0:0:0:0:
329,192,27190,1,0,0:0:0:0:
256,192,27190,128,8,27429:0:0:0:0:
182,192,27429,128,0,27668:0:0:0:0:
402,192,27588,1,0,0:0:0:0:
475,192,27588,1,0,0:0:0:0:
329,192,27668,128,0,27906:0:0:0:0:
256,192,27906,128,0,28145:0:0:0:0:
36,192,27906,1,2,0:0:0:0:
402,192,28145,128,0,28384:0:0:0:0:
182,192,28145,1,0,0:0:0:0:
109,192,28145,1,8,0:0:0:0:
182,192,28384,128,0,28623:0:0:0:0:
256,192,28623,1,0,0:0:0:0:
109,192,28623,128,2,28862:0:0:0:0:
329,192,28862,128,0,29101:0:0:0:0:
402,192,29101,128,0,29339:0:0:0:0:
182,192,29101,1,0,0:0:0:0:
36,192,29101,1,8,0:0:0:0:
256,192,29260,1,0,0:0:0:0:
329,192,29260,1,8,0:0:0:0:
475,192,29339,128,0,29578:0:0:0:0:
109,192,29499,1,0,0:0:0:0:
182,192,29499,1,0,0:0:0:0:
329,192,29578,128,0,29817:0:0:0:0:
402,192,29817,1,0,0:0:0:0:
109,192,29817,128,2,30056:0:0:0:0:
182,192,30056,128,0,30295:0:0:0:0:
475,192,30056,1,0,0:0:0:0:
36,192,30056,1,8,0:0:0:0:
402,192,30215,1,0,0:0:0:0:
329,192,30215,1,2,0:0:0:0:
256,192,30295,128,0,30534:0:0:0:0:
109,192,30295,1,2,0:0:0:0:
475,192,30534,5,0,0:0:0:0:
109,192,30534,128,0,30773:0:0:0:0:
36,192,30534,1,4,0:0:0:0:
402,192,30534,128,2,31011:0:0:0:0:
182,192,30773,1,0,0:0:0:0:
109,192,31011,1,0,0:0:0:0:
36,192,31011,1,0,0:0:0:0:
329,192,31011,1,8,0:0:0:0:
402,192,31250,1,0,0:0:0:0:
256,192,31410,1,0,0:0:0:0:
329,192,31410,1,0,0:0:0:0:
402,192,31489,1,0,0:0:0:0:
256,192,31728,1,0,0:0:0:0:
329,192,31728,1,2,0:0:0:0:
182,192,31808,1,0,0:0:0:0:
109,192,31967,128,0,32206:0:0:0:0:
402,192,31967,1,0,0:0:0:0:
475,192,31967,1,8,0:0:0:0:
36,192,32206,128,0,32445:0:0:0:0:
182,192,32445,1,0,0:0:0:0:
256,192,32445,1,2,0:0:0:0:
329,192,32683,128,0,32922:0:0:0:0:
475,192,32922,1,0,0:0:0:0:
182,192,32922,1,0,0:0:0:0:
402,192,32922,1,8,0:0:0:0:
36,192,33082,1,0,0:0:0:0:
109,192,33082,1,0,0:0:0:0:
256,192,33082,1,8,0:0:0:0:
329,192,33161,1,0,0:0:0:0:
475,192,33320,1,0,0:0:0:0:
182,192,33320,1,0,0:0:0:0:
256,192,33400,1,0,0:0:0:0:
402,192,33639,1,0,0:0:0:0:
329,192,33639,1,2,0:0:0:0:
36,192,33798,1,0,0:0:0:0:
109,192,33878,1,0,0:0:0:0:
256,192,33878,1,0,0:0:0:0:
329,192,33878,1,8,0:0:0:0:
475,192,34037,1,0,0:0:0:0:
402,192,34037,1,2,0:0:0:0:
182,192,34117,1,0,0:0:0:0:
109,192,34117,1,2,0:0:0:0:
256,192,34355,1,0,0:0:0:0:
402,192,34355,128,2,34833:0:0:0:0:
182,192,34594,1,0,0:0:0:0:
329,192,34833,1,0,0:0:0:0:
109,192,34833,1,0,0:0:0:0:
36,192,34833,1,8,0:0:0:0:
402,192,35072,1,0,0:0:0:0:
256,192,35231,1,0,0:0:0:0:
329,192,35231,1,0,0:0:0:0:
402,192,35311,1,0,0:0:0:0:
256,192,35550,1,0,0:0:0:0:
329,192,35550,1,2,0:0:0:0:
182,192,35629,1,0,0:0:0:0:
475,192,35789,1,0,0:0:0:0:
402,192,35789,1,0,0:0:0:0:
109,192,35789,128,8,36027:0:0:0:0:
36,192,36027,128,0,36266:0:0:0:0:
182,192,36266,1,0,0:0:0:0:
256,192,36266,1,2,0:0:0:0:
329,192,36505,128,0,36744:0:0:0:0:
475,192,36744,1,0,0:0:0:0:
182,192,36744,1,0,0:0:0:0:
402,192,36744,1,8,0:0:0:0:
36,192,36903,1,0,0:0:0:0:
109,192,36903,1,0,0:0:0:0:
256,192,36903,1,8,0:0:0:0:
329,192,36983,5,0,0:0:0:0:
475,192,37142,1,0,0:0:0:0:
182,192,37142,1,0,0:0:0:0:
256,192,37222,1,0,0:0:0:0:
402,192,37461,1,0,0:0:0:0:
329,192,37461,1,2,0:0:0:0:
36,192,37620,1,0,0:0:0:0:
109,192,37699,1,0,0:0:0:0:
256,192,37699,1,0,0:0:0:0:
329,192,37699,1,8,0:0:0:0:
475,192,37859,1,0,0:0:0:0:
402,192,37859,1,2,0:0:0:0:
109,192,37938,1,0,0:0:0:0:
182,192,37938,1,2,0:0:0:0:
109,192,38177,5,0,0:0:0:0:
36,192,38177,1,0,0:0:0:0:
402,192,38177,1,4,0:0:0:0:
475,192,38177,1,2,0:0:0:0:
329,192,38416,128,0,38655:0:0:0:0:
402,192,38655,128,0,38894:0:0:0:0:
182,192,38655,1,0,0:0:0:0:
109,192,38655,1,8,0:0:0:0:
475,192,38894,1,0,0:0:0:0:
36,192,39053,1,0,0:0:0:0:
182,192,39053,1,0,0:0:0:0:
256,192,39132,128,0,39371:0:0:0:0:
182,192,39371,128,0,39610:0:0:0:0:
402,192,39371,1,2,0:0:0:0:
109,192,39610,128,0,39849:0:0:0:0:
475,192,39610,1,0,0:0:0:0:
329,192,39610,1,8,0:0:0:0:
36,192,39849,128,0,40088:0:0:0:0:
256,192,40088,128,0,40327:0:0:0:0:
182,192,40088,1,2,0:0:0:0:
402,192,40327,1,0,0:0:0:0:
36,192,40566,1,0,0:0:0:0:
109,192,40566,1,0,0:0:0:0:
182,192,40566,1,8,0:0:0:0:
402,192,40725,1,0,0:0:0:0:
329,192,40725,1,0,0:0:0:0:
475,192,40725,1,8,0:0:0:0:
256,192,40804,1,0,0:0:0:0:
109,192,40964,1,0,0:0:0:0:
329,192,40964,1,0,0:0:0:0:
36,192,41043,128,0,41282:0:0:0:0:
109,192,41282,128,0,41521:0:0:0:0:
182,192,41282,1,2,0:0:0:0:
402,192,41521,1,0,0:0:0:0:
329,192,41521,1,0,0:0:0:0:
256,192,41521,1,8,0:0:0:0:
109,192,41680,1,0,0:0:0:0:
36,192,41680,1,2,0:0:0:0:
256,192,41760,1,0,0:0:0:0:
182,192,41760,1,2,0:0:0:0:
475,192,41999,128,0,42238:0:0:0:0:
402,192,41999,1,2,0:0:0:0:
329,192,42238,128,0,42476:0:0:0:0:
256,192,42476,128,0,42715:0:0:0:0:
109,192,42476,1,0,0:0:0:0:
36,192,42476,1,8,0:0:0:0:
182,192,42715,128,0,42954:0:0:0:0:
329,192,42875,1,0,0:0:0:0:
402,192,42875,1,0,0:0:0:0:
475,192,42954,128,0,43193:0:0:0:0:
109,192,43193,1,0,0:0:0:0:
329,192,43193,128,2,43432:0:0:0:0:
256,192,43432,128,0,43671:0:0:0:0:
402,192,43432,1,0,0:0:0:0:
475,192,43432,1,8,0:0:0:0:
36,192,43671,128,0,43910:0:0:0:0:
182,192,43910,128,0,44148:0:0:0:0:
329,192,43910,1,2,0:0:0:0:
402,192,44148,1,0,0:0:0:0:
109,192,44387,1,0,0:0:0:0:
36,192,44387,1,0,0:0:0:0:
256,192,44387,1,8,0:0:0:0:
402,192,44546,1,0,0:0:0:0:
182,192,44546,1,0,0:0:0:0:
475,192,44546,1,8,0:0:0:0:
329,192,44626,128,0,44865:0:0:0:0:
109,192,44785,1,0,0:0:0:0:
36,192,44785,1,0,0:0:0:0:
182,192,44865,128,0,45104:0:0:0:0:
402,192,45104,128,0,45343:0:0:0:0:
256,192,45104,1,2,0:0:0:0:
475,192,45343,1,0,0:0:0:0:
109,192,45343,1,0,0:0:0:0:
182,192,45343,1,8,0:0:0:0:
329,192,45502,1,0,0:0:0:0:
402,192,45502,1,2,0:0:0:0:
182,192,45582,1,0,0:0:0:0:
256,192,45582,1,2,0:0:0:0:
109,192,45820,128,0,46059:0:0:0:0:
36,192,45820,128,0,46059:0:0:0:0:
402,192,45820,1,4,0:0:0:0:
475,192,45820,1,2,0:0:0:0:
402,192,46059,128,0,46298:0:0:0:0:
329,192,46298,128,0,46537:0:0:0:0:
182,192,46298,1,0,0:0:0:0:
109,192,46298,1,8,0:0:0:0:
256,192,46537,128,0,46776:0:0:0:0:
475,192,46696,1,0,0:0:0:0:
402,192,46696,1,0,0:0:0:0:
36,192,46776,128,0,47015:0:0:0:0:
109,192,47015,128,0,47253:0:0:0:0:
182,192,47015,1,2,0:0:0:0:
182,192,47253,128,0,47492:0:0:0:0:
329,192,47253,1,0,0:0:0:0:
402,192,47253,1,8,0:0:0:0:
256,192,47492,128,0,47731:0:0:0:0:
329,192,47731,128,0,48209:0:0:0:0:
475,192,47731,1,2,0:0:0:0:
182,192,47970,1,0,0:0:0:0:
256,192,48209,1,0,0:0:0:0:
36,192,48209,1,0,0:0:0:0:
109,192,48209,1,8,0:0:0:0:
402,192,48368,1,0,0:0:0:0:
329,192,48368,1,0,0:0:0:0:
182,192,48368,1,8,0:0:0:0:
475,192,48448,128,0,48687:0:0:0:0:
256,192,48607,1,0,0:0:0:0:
329,192,48607,1,0,0:0:0:0:
402,192,48687,128,0,48925:0:0:0:0:
329,192,48925,128,0,49164:0:0:0:0:
109,192,48925,1,2,0:0:0:0:
256,192,49164,1,0,0:0:0:0:
182,192,49164,1,0,0:0:0:0:
36,192,49164,1,8,0:0:0:0:
402,192,49324,1,0,0:0:0:0:
475,192,49324,1,2,0:0:0:0:
329,192,49403,1,0,0:0:0:0:
256,192,49403,1,2,0:0:0:0:
182,192,49642,128,0,49881:0:0:0:0:
402,192,49642,1,2,0:0:0:0:
109,192,49881,128,0,50120:0:0:0:0:
36,192,50120,128,0,50359:0:0:0:0:
475,192,50120,1,0,0:0:0:0:
329,192,50120,1,8,0:0:0:0:
182,192,50359,128,0,50836:0:0:0:0:
256,192,50518,1,0,0:0:0:0:
402,192,50518,1,0,0:0:0:0:
36,192,50836,1,0,0:0:0:0:
256,192,50836,128,2,51075:0:0:0:0:
329,192,51075,1,0,0:0:0:0:
109,192,51075,1,0,0:0:0:0:
475,192,51075,1,8,0:0:0:0:
402,192,51234,128,0,51792:0:0:0:0:
182,192,51553,1,0,0:0:0:0:
36,192,51553,1,2,0:0:0:0:
329,192,51792,128,0,52031:0:0:0:0:
475,192,52031,1,0,0:0:0:0:
182,192,52031,1,0,0:0:0:0:
256,192,52031,1,8,0:0:0:0:
402,192,52190,1,0,0:0:0:0:
329,192,52190,1,0,0:0:0:0:
36,192,52190,1,8,0:0:0:0:
109,192,52269,128,0,52508:0:0:0:0:
256,192,52429,1,0,0:0:0:0:
475,192,52429,1,0,0:0:0:0:
182,192,52747,128,0,52986:0:0:0:0:
329,192,52747,1,2,0:0:0:0:
402,192,52986,1,0,0:0:0:0:
475,192,52986,1,0,0:0:0:0:
109,192,52986,1,8,0:0:0:0:
36,192,53145,1,0,0:0:0:0:
329,192,53145,1,2,0:0:0:0:
182,192,53225,1,0,0:0:0:0:
256,192,53225,128,2,53464:0:0:0:0:
402,192,53464,128,0,53941:0:0:0:0:
109,192,53464,128,0,53703:0:0:0:0:
329,192,53464,1,4,0:0:0:0:
182,192,53464,1,2,0:0:0:0:
36,192,53703,1,0,0:0:0:0:
109,192,53941,1,0,0:0:0:0:
329,192,53941,1,0,0:0:0:0:
182,192,53941,1,8,0:0:0:0:
402,192,54180,1,0,0:0:0:0:
329,192,54339,1,0,0:0:0:0:
256,192,54339,1,0,0:0:0:0:
402,192,54419,1,0,0:0:0:0:
329,192,54658,1,0,0:0:0:0:
256,192,54658,1,2,0:0:0:0:
182,192,54738,1,0,0:0:0:0:
475,192,54897,1,0,0:0:0:0:
402,192,54897,1,0,0:0:0:0:
109,192,54897,128,8,55136:0:0:0:0:
36,192,55136,128,0,55375:0:0:0:0:
256,192,55375,1,0,0:0:0:0:
182,192,55375,1,2,0:0:0:0:
329,192,55613,128,0,55852:0:0:0:0:
475,192,55852,1,0,0:0:0:0:
182,192,55852,1,0,0:0:0:0:
402,192,55852,1,8,0:0:0:0:
256,192,56011,1,0,0:0:0:0:
109,192,56011,1,0,0:0:0:0:
36,192,56011,1,8,0:0:0:0:
329,192,56091,1,0,0:0:0:0:
182,192,56250,1,0,0:0:0:0:
475,192,56250,1,0,0:0:0:0:
256,192,56330,1,0,0:0:0:0:
329,192,56569,1,0,0:0:0:0:
402,192,56569,1,2,0:0:0:0:
36,192,56728,1,0,0:0:0:0:
109,192,56808,1,0,0:0:0:0:
329,192,56808,1,0,0:0:0:0:
256,192,56808,1,8,0:0:0:0:
402,192,56967,1,0,0:0:0:0:
475,192,56967,1,2,0:0:0:0:
109,192,57046,1,0,0:0:0:0:
182,192,57046,1,2,0:0:0:0:
402,192,57285,128,0,57763:0:0:0:0:
256,192,57285,1,2,0:0:0:0:
182,192,57524,1,0,0:0:0:0:
109,192,57763,1,0,0:0:0:0:
329,192,57763,1,0,0:0:0:0:
36,192,57763,1,8,0:0:0:0:
402,192,58002,1,0,0:0:0:0:
256,192,58161,1,0,0:0:0:0:
329,192,58161,1,0,0:0:0:0:
402,192,58241,1,0,0:0:0:0:
256,192,58480,1,0,0:0:0:0:
329,192,58480,1,2,0:0:0:0:
182,192,58559,1,0,0:0:0:0:
109,192,58718,128,0,58957:0:0:0:0:
402,192,58718,1,0,0:0:0:0:
475,192,58718,1,8,0:0:0:0:
36,192,58957,128,0,59196:0:0:0:0:
182,192,59196,1,0,0:0:0:0:
256,192,59196,1,2,0:0:0:0:
329,192,59435,128,0,59674:0:0:0:0:
475,192,59674,1,0,0:0:0:0:
182,192,59674,1,0,0:0:0:0:
402,192,59674,1,8,0:0:0:0:
36,192,59833,1,0,0:0:0:0:
109,192,59833,1,0,0:0:0:0:
256,192,59833,1,8,0:0:0:0:
329,192,59913,1,0,0:0:0:0:
475,192,60072,1,0,0:0:0:0:
182,192,60072,1,0,0:0:0:0:
256,192,60152,1,0,0:0:0:0:
402,192,60390,1,0,0:0:0:0:
329,192,60390,1,2,0:0:0:0:
36,192,60550,1,0,0:0:0:0:
256,192,60629,1,0,0:0:0:0:
329,192,60629,1,0,0:0:0:0:
109,192,60629,1,8,0:0:0:0:
475,192,60789,1,0,0:0:0:0:
402,192,60789,1,2,0:0:0:0:
182,192,60868,1,0,0:0:0:0:
109,192,60868,1,2,0:0:0:0:
256,192,61107,1,0,0:0:0:0:
402,192,61107,1,0,0:0:0:0:
36,192,61107,1,2,0:0:0:0:
475,192,61107,1,4,0:0:0:0:
182,192,61346,1,0,0:0:0:0:
329,192,61585,1,0,0:0:0:0:
109,192,61585,1,0,0:0:0:0:
36,192,61585,1,8,0:0:0:0:
402,192,61824,1,0,0:0:0:0:
329,192,61983,1,0,0:0:0:0:
256,192,61983,1,0,0:0:0:0:
402,192,62062,1,0,0:0:0:0:
329,192,62301,1,0,0:0:0:0:
256,192,62301,1,2,0:0:0:0:
182,192,62381,1,0,0:0:0:0:
475,192,62540,1,0,0:0:0:0:
402,192,62540,1,0,0:0:0:0:
109,192,62540,128,8,62779:0:0:0:0:
36,192,62779,128,0,63018:0:0:0:0:
182,192,63018,1,0,0:0:0:0:
256,192,63018,1,2,0:0:0:0:
329,192,63257,128,0,63496:0:0:0:0:
402,192,63496,1,0,0:0:0:0:
182,192,63496,1,0,0:0:0:0:
475,192,63496,1,8,0:0:0:0:
256,192,63655,1,0,0:0:0:0:
109,192,63655,1,0,0:0:0:0:
36,192,63655,1,8,0:0:0:0:
329,192,63734,1,0,0:0:0:0:
182,192,63894,1,0,0:0:0:0:
475,192,63894,1,0,0:0:0:0:
256,192,63973,1,0,0:0:0:0:
402,192,64212,1,0,0:0:0:0:
329,192,64212,1,2,0:0:0:0:
36,192,64371,1,0,0:0:0:0:
329,192,64451,1,0,0:0:0:0:
256,192,64451,1,0,0:0:0:0:
109,192,64451,1,8,0:0:0:0:
402,192,64610,1,0,0:0:0:0:
475,192,64610,1,2,0:0:0:0:
109,192,64690,1,0,0:0:0:0:
182,192,64690,1,2,0:0:0:0:
402,192,64929,128,0,65406:0:0:0:0:
256,192,64929,1,2,0:0:0:0:
182,192,65168,1,0,0:0:0:0:
36,192,65406,1,0,0:0:0:0:
109,192,65406,1,0,0:0:0:0:
329,192,65406,1,8,0:0:0:0:
402,192,65645,1,0,0:0:0:0:
256,192,65804,1,0,0:0:0:0:
329,192,65804,1,0,0:0:0:0:
402,192,65884,1,0,0:0:0:0:
256,192,66123,1,0,0:0:0:0:
329,192,66123,1,2,0:0:0:0:
182,192,66203,1,0,0:0:0:0:
109,192,66362,128,0,66601:0:0:0:0:
402,192,66362,1,0,0:0:0:0:
475,192,66362,1,8,0:0:0:0:
36,192,66601,128,0,66839:0:0:0:0:
182,192,66839,5,0,0:0:0:0:
256,192,66839,1,2,0:0:0:0:
329,192,67078,128,0,67317:0:0:0:0:
475,192,67317,1,0,0:0:0:0:
182,192,67317,1,0,0:0:0:0:
402,192,67317,1,8,0:0:0:0:
36,192,67476,1,0,0:0:0:0:
109,192,67476,1,0,0:0:0:0:
256,192,67476,1,8,0:0:0:0:
329,192,67556,1,0,0:0:0:0:
475,192,67715,1,0,0:0:0:0:
182,192,67715,1,0,0:0:0:0:
256,192,67795,1,0,0:0:0:0:
36,192,67954,1,0,0:0:0:0:
109,192,68034,1,0,0:0:0:0:
182,192,68273,1,0,0:0:0:0:
256,192,68511,1,0,0:0:0:0:
109,192,68750,1,0,0:0:0:0:
36,192,68750,1,0,0:0:0:0:
402,192,68750,1,2,0:0:0:0:
475,192,68750,1,4,0:0:0:0:
256,192,69017,1,0,0:0:0:0:
329,192,69285,1,0,0:0:0:0:
182,192,69285,1,0,0:0:0:0:
109,192,69285,1,8,0:0:0:0:
402,192,69553,1,0,0:0:0:0:
475,192,69732,1,0,0:0:0:0:
329,192,69732,1,0,0:0:0:0:
182,192,70127,1,0,0:0:0:0:
109,192,70127,1,2,0:0:0:0:
402,192,70407,128,0,70688:0:0:0:0:
329,192,70407,1,0,0:0:0:0:
256,192,70407,1,8,0:0:0:0:
475,192,70688,128,0,70968:0:0:0:0:
182,192,70968,1,0,0:0:0:0:
36,192,70968,1,2,0:0:0:0:
256,192,71249,128,0,71530:0:0:0:0:
475,192,71530,1,0,0:0:0:0:
402,192,71530,1,0,0:0:0:0:
329,192,71530,1,8,0:0:0:0:
109,192,71717,1,0,0:0:0:0:
36,192,71717,1,0,0:0:0:0:
182,192,71717,1,8,0:0:0:0:
256,192,71810,1,0,0:0:0:0:
402,192,71997,1,0,0:0:0:0:
475,192,71997,1,0,0:0:0:0:
182,192,72384,1,0,0:0:0:0:
329,192,72384,1,2,0:0:0:0:
109,192,72663,5,0,0:0:0:0:
256,192,72663,1,0,0:0:0:0:
36,192,72663,1,8,0:0:0:0:
402,192,72849,1,0,0:0:0:0:
475,192,72849,1,2,0:0:0:0:
329,192,72943,1,0,0:0:0:0:
256,192,72943,1,2,0:0:0:0:
109,192,73222,128,0,73502:0:0:0:0:
182,192,73222,1,2,0:0:0:0:
329,192,73502,1,0,0:0:0:0:
475,192,73781,128,0,74061:0:0:0:0:
256,192,73781,1,0,0:0:0:0:
182,192,73781,1,8,0:0:0:0:
402,192,74061,1,0,0:0:0:0:
256,192,74247,1,0,0:0:0:0:
329,192,74247,1,0,0:0:0:0:
182,192,74620,1,0,0:0:0:0:
402,192,74620,1,2,0:0:0:0:
109,192,74900,128,0,75179:0:0:0:0:
256,192,74900,1,0,0:0:0:0:
475,192,74900,1,8,0:0:0:0:
36,192,75179,128,0,75459:0:0:0:0:
329,192,75459,1,0,0:0:0:0:
402,192,75459,1,2,0:0:0:0:
256,192,75739,128,0,76018:0:0:0:0:
109,192,76018,1,0,0:0:0:0:
36,192,76018,1,0,0:0:0:0:
182,192,76018,1,8,0:0:0:0:
329,192,76205,1,0,0:0:0:0:
475,192,76205,1,0,0:0:0:0:
402,192,76205,1,8,0:0:0:0:
182,192,76298,1,0,0:0:0:0:
256,192,76484,1,0,0:0:0:0:
329,192,76857,1,0,0:0:0:0:
402,192,76857,1,2,0:0:0:0:
109,192,77137,1,0,0:0:0:0:
36,192,77137,1,0,0:0:0:0:
182,192,77137,1,8,0:0:0:0:
256,192,77323,1,0,0:0:0:0:
329,192,77323,1,2,0:0:0:0:
109,192,77416,1,0,0:0:0:0:
182,192,77416,1,2,0:0:0:0:
329,192,77716,1,0,0:0:0:0:
402,192,77716,1,2,0:0:0:0:
182,192,77716,1,4,0:0:0:0:
109,192,77996,1,0,0:0:0:0:
256,192,78277,1,0,0:0:0:0:
329,192,78277,1,8,0:0:0:0:
109,192,78557,1,0,0:0:0:0:
182,192,78744,1,0,0:0:0:0:
329,192,79119,1,0,0:0:0:0:
402,192,79119,1,2,0:0:0:0:
182,192,79399,1,0,0:0:0:0:
256,192,79399,1,8,0:0:0:0:
36,192,79680,1,0,0:0:0:0:
109,192,79961,1,0,0:0:0:0:
329,192,79961,1,2,0:0:0:0:
256,192,80241,1,0,0:0:0:0:
402,192,80522,1,0,0:0:0:0:
475,192,80522,1,8,0:0:0:0:
329,192,80709,1,0,0:0:0:0:
256,192,80709,1,8,0:0:0:0:
109,192,80802,1,0,0:0:0:0:
182,192,80990,1,0,0:0:0:0:
402,192,81364,1,0,0:0:0:0:
329,192,81364,1,2,0:0:0:0:
36,192,81644,1,0,0:0:0:0:
182,192,81644,1,8,0:0:0:0:
256,192,81831,1,0,0:0:0:0:
329,192,81831,1,2,0:0:0:0:
402,192,81925,1,0,0:0:0:0:
475,192,81925,1,2,0:0:0:0:
182,192,82206,1,0,0:0:0:0:
109,192,82206,1,2,0:0:0:0:
256,192,82486,1,0,0:0:0:0:
329,192,82767,1,0,0:0:0:0:
109,192,82767,1,8,0:0:0:0:
402,192,83048,1,0,0:0:0:0:
329,192,83235,1,0,0:0:0:0:
402,192,83609,1,2,0:0:0:0:
109,192,83889,1,8,0:0:0:0:
256,192,84170,1,0,0:0:0:0:
402,192,84451,1,2,0:0:0:0:
182,192,84731,1,0,0:0:0:0:
36,192,85012,1,8,0:0:0:0:
182,192,85199,1,8,0:0:0:0:
329,192,85293,1,0,0:0:0:0:
256,192,85480,1,0,0:0:0:0:
402,192,85854,5,2,0:0:0:0:
182,192,86135,1,8,0:0:0:0:
329,192,86322,1,2,0:0:0:0:
402,192,86415,1,2,0:0:0:0:
36,192,86705,1,6,0:0:0:0:
