osu file format v14

[General]
AudioFilename: audio.mp3
AudioLeadIn: 0
PreviewTime: 15367
Countdown: 0
SampleSet: Soft
StackLeniency: 1
Mode: 3
LetterboxInBreaks: 0
SpecialStyle: 0
WidescreenStoryboard: 1

[Editor]
Bookmarks: 30534,38177,53464,68750
DistanceSpacing: 0.1
BeatDivisor: 6
GridSize: 32
TimelineZoom: 1

[Metadata]
Title:Pain
TitleUnicode:Pain
Artist:PinkPantheress
ArtistUnicode:PinkPantheress
Creator:axelowo
Version:4K Easy
Source:
Tags:pink pantheress to hell with it tiktok tik tok Gymnopédie No.1 gymnopedie no. 1 number one erik satie Sweet Female Attitude Flowers uk garage ukg 2-step 2 step pop electronic english
BeatmapID:3356783
BeatmapSetID:1644478

[Difficulty]
HPDrainRate:6
CircleSize:4
OverallDifficulty:7
ApproachRate:5
SliderMultiplier:1.4
SliderTickRate:1

[Events]
//Background and Video events
0,0,"thumb-1920-1160925.jpg",0,0
//Break Periods
//Storyboard Layer 0 (Background)
//Storyboard Layer 1 (Fail)
//Storyboard Layer 2 (Pass)
//Storyboard Layer 3 (Foreground)
//Storyboard Layer 4 (Overlay)
//Storyboard Sound Samples

[TimingPoints]
-39,477.707006369427,4,2,1,65,1,0
68750,535.714285714286,4,2,1,65,1,0
68750,-89.2060660124888,4,2,1,65,0,0
70127,561.272217025257,4,2,1,65,1,0
70127,-85.1788756388416,4,2,1,65,0,0
72384,559.179869524697,4,2,1,65,1,0
72384,-85.4700854700855,4,2,1,65,0,0
76857,-85.4700854700855,4,2,1,55,0,0
77716,561.272217025257,4,2,1,45,1,0
77716,-85.1788756388416,4,2,1,45,0,0
79961,-85.1788756388416,4,2,1,35,0,0
82206,-85.1788756388416,4,2,1,25,0,0
84451,-85.1788756388416,4,2,1,15,0,0
85573,-85.1788756388416,4,2,1,10,0,0
86705,568.181818181818,4,2,1,5,1,0
86705,-84.1042893187552,4,2,1,5,0,0

[HitObjects]
448,192,438,5,8,0:0:0:0:
320,192,836,1,0,0:0:0:0:
64,192,1155,1,2,0:0:0:0:
192,192,1394,1,8,0:0:0:0:
320,192,1871,1,2,0:0:0:0:
64,192,2349,1,8,0:0:0:0:
192,192,2747,1,0,0:0:0:0:
448,192,3066,1,2,0:0:0:0:
320,192,3304,1,8,0:0:0:0:
192,192,3543,1,2,0:0:0:0:
64,192,3782,1,2,0:0:0:0:
448,192,4260,1,8,0:0:0:0:
320,192,4658,1,0,0:0:0:0:
64,192,4976,1,2,0:0:0:0:
192,192,5215,1,8,0:0:0:0:
320,192,5693,1,2,0:0:0:0:
64,192,6171,1,8,0:0:0:0:
192,192,6569,1,0,0:0:0:0:
448,192,6887,1,2,0:0:0:0:
320,192,7126,1,8,0:0:0:0:
192,192,7365,1,2,0:0:0:0:
64,192,7604,1,2,0:0:0:0:
448,192,7604,1,4,0:0:0:0:
448,192,8082,1,8,0:0:0:0:
320,192,8480,1,0,0:0:0:0:
64,192,8798,1,2,0:0:0:0:
192,192,9037,1,8,0:0:0:0:
320,192,9515,1,2,0:0:0:0:
64,192,9992,1,8,0:0:0:0:
192,192,10390,1,0,0:0:0:0:
448,192,10709,1,2,0:0:0:0:
320,192,10948,1,8,0:0:0:0:
192,192,11187,1,2,0:0:0:0:
64,192,11425,1,2,0:0:0:0:
448,192,11903,1,8,0:0:0:0:
320,192,12301,1,0,0:0:0:0:
64,192,12620,1,2,0:0:0:0:
192,192,12859,1,8,0:0:0:0:
320,192,13336,1,2,0:0:0:0:
64,192,13814,1,8,0:0:0:0:
192,192,14212,1,0,0:0:0:0:
448,192,14531,1,2,0:0:0:0:
320,192,14769,1,8,0:0:0:0:
192,192,15008,1,2,0:0:0:0:
64,192,15247,1,2,0:0:0:0:
448,192,15247,1,4,0:0:0:0:
192,192,15725,1,8,0:0:0:0:
64,192,16123,1,0,0:0:0:0:
448,192,16441,1,2,0:0:0:0:
320,192,16680,1,8,0:0:0:0:
192,192,16919,128,0,17158:0:0:0:0:
320,192,17158,1,2,0:0:0:0:
448,192,17636,1,8,0:0:0:0:
320,192,18113,1,0,0:0:0:0:
64,192,18352,1,2,0:0:0:0:
192,192,18591,1,8,0:0:0:0:
320,192,18830,128,2,19069:0:0:0:0:
192,192,19069,1,2,0:0:0:0:
448,192,19546,1,8,0:0:0:0:
192,192,20024,1,0,0:0:0:0:
64,192,20263,1,2,0:0:0:0:
320,192,20502,1,8,0:0:0:0:
192,192,20741,128,0,20980:0:0:0:0:
448,192,20980,1,2,0:0:0:0:
192,192,21457,1,8,0:0:0:0:
64,192,21935,1,0,0:0:0:0:
448,192,22174,1,2,0:0:0:0:
320,192,22413,1,8,0:0:0:0:
192,192,22652,128,2,22890:0:0:0:0:
64,192,22890,1,4,0:0:0:0:
448,192,22890,1,2,0:0:0:0:
192,192,23368,128,8,23846:0:0:0:0:
64,192,23846,128,0,24085:0:0:0:0:
320,192,24085,1,2,0:0:0:0:
192,192,24324,128,8,24562:0:0:0:0:
448,192,24562,1,0,0:0:0:0:
320,192,24801,128,2,25279:0:0:0:0:
64,192,25279,1,8,0:0:0:0:
192,192,25757,1,0,0:0:0:0:
320,192,25996,1,2,0:0:0:0:
192,192,26234,1,8,0:0:0:0:
448,192,26473,128,2,26712:0:0:0:0:
192,192,26712,1,2,0:0:0:0:
64,192,27190,1,8,0:0:0:0:
320,192,27668,1,0,0:0:0:0:
192,192,27906,1,2,0:0:0:0:
448,192,28145,1,8,0:0:0:0:
320,192,28384,128,0,28623:0:0:0:0:
192,192,28623,1,2,0:0:0:0:
320,192,29101,1,8,0:0:0:0:
64,192,29578,1,0,0:0:0:0:
448,192,29817,1,2,0:0:0:0:
192,192,30056,1,8,0:0:0:0:
320,192,30295,128,2,30534:0:0:0:0:
448,192,30534,1,4,0:0:0:0:
64,192,30534,1,2,0:0:0:0:
320,192,31011,1,8,0:0:0:0:
448,192,31250,128,0,31728:0:0:0:0:
320,192,31728,1,2,0:0:0:0:
192,192,31967,128,8,32445:0:0:0:0:
64,192,32445,1,2,0:0:0:0:
448,192,32683,1,0,0:0:0:0:
64,192,33161,128,0,33639:0:0:0:0:
192,192,33639,1,2,0:0:0:0:
448,192,33878,1,8,0:0:0:0:
192,192,34117,1,2,0:0:0:0:
320,192,34355,1,2,0:0:0:0:
320,192,34833,1,8,0:0:0:0:
448,192,35072,128,0,35550:0:0:0:0:
320,192,35550,1,2,0:0:0:0:
192,192,35789,128,8,36266:0:0:0:0:
64,192,36266,1,2,0:0:0:0:
448,192,36505,1,0,0:0:0:0:
64,192,36983,128,0,37461:0:0:0:0:
192,192,37461,1,2,0:0:0:0:
448,192,37699,1,8,0:0:0:0:
192,192,37938,1,2,0:0:0:0:
448,192,38177,1,4,0:0:0:0:
64,192,38177,1,2,0:0:0:0:
320,192,38655,1,8,0:0:0:0:
192,192,39132,1,0,0:0:0:0:
64,192,39371,1,2,0:0:0:0:
320,192,39610,1,8,0:0:0:0:
192,192,39849,128,0,40088:0:0:0:0:
448,192,40088,1,2,0:0:0:0:
192,192,40566,1,8,0:0:0:0:
320,192,41043,1,0,0:0:0:0:
448,192,41282,1,2,0:0:0:0:
192,192,41521,1,8,0:0:0:0:
320,192,41760,128,2,41999:0:0:0:0:
64,192,41999,1,2,0:0:0:0:
448,192,42476,1,8,0:0:0:0:
320,192,42954,1,0,0:0:0:0:
192,192,43193,1,2,0:0:0:0:
320,192,43432,1,8,0:0:0:0:
64,192,43671,128,0,43910:0:0:0:0:
192,192,43910,1,2,0:0:0:0:
320,192,44387,1,8,0:0:0:0:
448,192,44865,1,0,0:0:0:0:
64,192,45104,1,2,0:0:0:0:
192,192,45343,1,8,0:0:0:0:
320,192,45582,128,2,45820:0:0:0:0:
448,192,45820,1,4,0:0:0:0:
64,192,45820,1,2,0:0:0:0:
192,192,46298,1,8,0:0:0:0:
320,192,46776,1,0,0:0:0:0:
192,192,47015,1,2,0:0:0:0:
320,192,47253,1,8,0:0:0:0:
448,192,47492,128,0,47731:0:0:0:0:
192,192,47731,1,2,0:0:0:0:
64,192,48209,1,8,0:0:0:0:
320,192,48448,1,0,0:0:0:0:
192,192,48687,1,0,0:0:0:0:
448,192,48925,1,2,0:0:0:0:
320,192,49164,128,8,49642:0:0:0:0:
64,192,49642,1,2,0:0:0:0:
320,192,50120,1,8,0:0:0:0:
448,192,50359,128,0,50836:0:0:0:0:
320,192,50836,1,2,0:0:0:0:
192,192,51075,1,8,0:0:0:0:
64,192,51314,128,0,51553:0:0:0:0:
448,192,51553,1,2,0:0:0:0:
192,192,52031,1,8,0:0:0:0:
320,192,52269,128,0,52747:0:0:0:0:
192,192,52747,128,2,53225:0:0:0:0:
320,192,53225,1,2,0:0:0:0:
448,192,53464,5,4,0:0:0:0:
64,192,53464,1,2,0:0:0:0:
320,192,53941,1,8,0:0:0:0:
448,192,54180,128,0,54658:0:0:0:0:
320,192,54658,1,2,0:0:0:0:
192,192,54897,128,8,55375:0:0:0:0:
64,192,55375,1,2,0:0:0:0:
448,192,55613,1,0,0:0:0:0:
64,192,56091,128,0,56569:0:0:0:0:
192,192,56569,1,2,0:0:0:0:
448,192,56808,1,8,0:0:0:0:
192,192,57046,1,2,0:0:0:0:
320,192,57285,128,2,57763:0:0:0:0:
192,192,57763,1,8,0:0:0:0:
448,192,58002,128,0,58480:0:0:0:0:
320,192,58480,1,2,0:0:0:0:
192,192,58718,128,8,59196:0:0:0:0:
64,192,59196,1,2,0:0:0:0:
448,192,59435,1,0,0:0:0:0:
64,192,59913,128,0,60390:0:0:0:0:
192,192,60390,1,2,0:0:0:0:
448,192,60629,1,8,0:0:0:0:
192,192,60868,1,2,0:0:0:0:
64,192,61107,5,2,0:0:0:0:
448,192,61107,1,4,0:0:0:0:
320,192,61585,1,8,0:0:0:0:
448,192,61824,128,0,62301:0:0:0:0:
320,192,62301,1,2,0:0:0:0:
192,192,62540,128,8,63018:0:0:0:0:
64,192,63018,1,2,0:0:0:0:
448,192,63257,1,0,0:0:0:0:
64,192,63734,128,0,64212:0:0:0:0:
192,192,64212,1,2,0:0:0:0:
448,192,64451,1,8,0:0:0:0:
192,192,64690,1,2,0:0:0:0:
320,192,64929,1,2,0:0:0:0:
320,192,65406,1,8,0:0:0:0:
448,192,65645,128,0,66123:0:0:0:0:
320,192,66123,1,2,0:0:0:0:
192,192,66362,128,8,66839:0:0:0:0:
64,192,66839,1,2,0:0:0:0:
448,192,67078,1,0,0:0:0:0:
64,192,67556,128,0,68034:0:0:0:0:
448,192,68750,5,2,0:0:0:0:
64,192,68750,1,4,0:0:0:0:
192,192,69285,1,8,0:0:0:0:
64,192,69553,128,0,70127:0:0:0:0:
192,192,70127,1,2,0:0:0:0:
320,192,70407,128,8,70968:0:0:0:0:
448,192,70968,1,2,0:0:0:0:
192,192,71249,1,0,0:0:0:0:
64,192,71810,128,0,72384:0:0:0:0:
448,192,72384,1,2,0:0:0:0:
320,192,72663,1,8,0:0:0:0:
192,192,72943,1,2,0:0:0:0:
64,192,73222,1,2,0:0:0:0:
192,192,73781,1,8,0:0:0:0:
64,192,74061,128,0,74620:0:0:0:0:
192,192,74620,1,2,0:0:0:0:
320,192,74900,128,8,75459:0:0:0:0:
448,192,75459,1,2,0:0:0:0:
192,192,75739,1,0,0:0:0:0:
64,192,76298,128,0,76857:0:0:0:0:
448,192,76857,5,2,0:0:0:0:
320,192,77137,1,8,0:0:0:0:
192,192,77416,1,2,0:0:0:0:
64,192,77716,5,2,0:0:0:0:
448,192,77716,1,4,0:0:0:0:
320,192,78277,1,8,0:0:0:0:
192,192,78744,1,0,0:0:0:0:
320,192,79119,1,2,0:0:0:0:
64,192,79399,1,8,0:0:0:0:
448,192,79961,1,2,0:0:0:0:
320,192,80522,1,8,0:0:0:0:
64,192,80990,1,0,0:0:0:0:
320,192,81364,1,2,0:0:0:0:
448,192,81644,1,8,0:0:0:0:
192,192,81925,1,2,0:0:0:0:
64,192,82206,1,2,0:0:0:0:
320,192,82767,1,8,0:0:0:0:
64,192,83235,1,0,0:0:0:0:
192,192,83609,1,2,0:0:0:0:
448,192,83889,1,8,0:0:0:0:
320,192,84451,1,2,0:0:0:0:
64,192,85012,1,8,0:0:0:0:
320,192,85480,1,0,0:0:0:0:
192,192,85854,1,2,0:0:0:0:
64,192,86135,1,8,0:0:0:0:
320,192,86415,1,2,0:0:0:0:
448,192,86705,1,6,0:0:0:0:
