osu file format v14

[General]
AudioFilename: audio.mp3
AudioLeadIn: 0
PreviewTime: 63448
Countdown: 0
SampleSet: Soft
StackLeniency: 0.4
Mode: 0
LetterboxInBreaks: 0
WidescreenStoryboard: 1

[Editor]
DistanceSpacing: 1.5
BeatDivisor: 4
GridSize: 16
TimelineZoom: 1.7

[Metadata]
Title:Break It Off
TitleUnicode:Break It Off
Artist:PinkPantheress
ArtistUnicode:PinkPantheress
Creator:Sajinn
Version:hard
Source:
Tags:english breakcore dnb drum & and n bass pop pink pantherness tiktok tik tok adam f kalibe toybot mimari anfeargorm xiqingwa vikala ABSOLUTE EPIC 4
BeatmapID:3141731
BeatmapSetID:1534842

[Difficulty]
HPDrainRate:4.5
CircleSize:3.6
OverallDifficulty:6
ApproachRate:7.5
SliderMultiplier:1.42
SliderTickRate:1

[Events]
//Background and Video events
0,0,"kasia-wanner-Pi7R19E3_QQ-unsplash.jpg",0,0
//Break Periods
//Storyboard Layer 0 (Background)
//Storyboard Layer 1 (Fail)
//Storyboard Layer 2 (Pass)
//Storyboard Layer 3 (Foreground)
//Storyboard Layer 4 (Overlay)
//Storyboard Sound Samples

[TimingPoints]
15,343.839541547278,4,2,1,70,1,0
10977,342.857142857143,4,2,1,35,1,0
10977,-138.888888888889,4,2,1,35,0,0
21955,343.839541547278,4,2,1,35,1,0
21955,-138.888888888889,4,2,1,35,0,0
27456,342.857142857143,4,2,1,35,1,0
27456,-138.888888888889,4,2,1,35,0,0
32941,350.877192982456,4,2,1,70,1,0
32941,-108.695652173913,4,2,1,70,0,0
34593,-108.695652173913,4,2,1,5,0,0
34694,-108.695652173913,4,2,1,70,0,0
35387,346.820809248555,4,2,1,70,1,0
35733,346.820809248555,4,2,1,70,1,0
35733,-108.695652173913,4,2,1,70,0,0
35984,-108.695652173913,4,2,1,5,0,0
36079,-108.695652173913,4,2,1,70,0,0
38160,357.142857142857,4,2,1,70,1,0
38517,348.837209302326,4,2,1,70,1,0
38517,-108.695652173913,4,2,1,70,0,0
38767,-108.695652173913,4,2,1,5,0,0
38865,-108.695652173913,4,2,1,70,0,0
40162,-108.695652173913,4,2,1,5,0,0
40260,-108.695652173913,4,2,1,70,0,0
41307,346.820809248555,4,2,1,70,1,0
41307,-108.695652173913,4,2,1,70,0,0
41558,-108.695652173913,4,2,1,5,0,0
41653,-108.695652173913,4,2,1,70,0,0
44087,-108.695652173913,4,2,1,70,0,0
46856,349.854227405248,4,2,1,70,1,0
46856,-108.695652173913,4,2,1,70,0,0
49635,-108.695652173913,4,2,1,70,0,0
50704,338.983050847458,4,2,1,70,1,0
51042,343.839541547278,4,2,1,70,1,0
51042,-108.695652173913,4,2,1,70,0,0
52417,346.820809248555,4,2,1,70,1,0
52417,-108.695652173913,4,2,1,70,0,0
55191,357.142857142857,4,2,1,70,1,0
55191,-108.695652173913,4,2,1,70,0,0
56262,338.983050847458,4,2,1,70,1,0
56262,-108.695652173913,4,2,1,70,0,0
56600,346.820809248555,4,2,1,70,1,0
56600,-108.695652173913,4,2,1,70,0,0
56846,-108.695652173913,4,2,1,5,0,0
56946,-108.695652173913,4,2,1,70,0,0
59371,-108.695652173913,4,2,1,70,0,0
60761,350.877192982456,4,2,1,70,1,0
60761,-108.695652173913,4,2,1,70,0,0
62164,343.839541547278,4,2,1,70,1,0
62164,-108.695652173913,4,2,1,70,0,0
62410,-108.695652173913,4,2,1,5,0,0
62507,-108.695652173913,4,2,1,70,0,0
63534,343.347639484979,4,2,1,45,1,0
63534,-138.888888888889,4,2,1,45,0,0
64907,368.098159509202,4,2,1,45,1,0
64907,-138.888888888889,4,2,1,45,0,0
65091,333.333333333333,4,2,1,70,1,0
65257,335.195530726257,4,2,1,70,1,0
65424,-100,4,2,1,45,0,0
65593,359.281437125748,4,2,1,45,1,0
65593,-138.888888888889,4,2,1,45,0,0
65952,346.820809248555,4,2,1,70,1,0
65952,-138.888888888889,4,2,1,70,0,0
66298,346.820809248555,4,2,1,70,1,0
66298,-138.888888888889,4,2,1,50,0,0
68292,-138.888888888889,4,2,1,5,0,0
68378,-138.888888888889,4,2,1,50,0,0
69073,350.877192982456,4,2,1,65,1,0
69073,-98.0392156862745,4,2,1,65,0,0
70476,347.826086956522,4,2,1,65,1,0
70476,-98.0392156862745,4,2,1,65,0,0
70544,-98.0392156862745,4,2,1,5,0,0
70823,-98.0392156862745,4,2,1,65,0,0
71519,324.324324324324,4,2,1,65,1,0
71843,351.906158357771,4,2,1,65,1,0
71843,-98.0392156862745,4,2,1,65,0,0
73250,343.839541547278,4,2,1,65,1,0
73250,-98.0392156862745,4,2,1,65,0,0
73321,-98.0392156862745,4,2,1,5,0,0
73593,-98.0392156862745,4,2,1,65,0,0
74625,352.941176470588,4,2,1,65,1,0
74625,-98.0392156862745,4,2,1,65,0,0
76036,344.827586206897,4,2,1,65,1,0
76036,-98.0392156862745,4,2,1,65,0,0
76098,-98.0392156862745,4,2,1,5,0,0
76380,-98.0392156862745,4,2,1,65,0,0
77415,347.826086956522,4,2,1,65,1,0
77415,-108.695652173913,4,2,1,65,0,0
77661,-108.695652173913,4,2,1,5,0,0
77762,-108.695652173913,4,2,1,65,0,0
78272,-108.695652173913,4,2,1,55,0,0
78534,-108.695652173913,4,2,1,5,0,0
78631,-108.695652173913,4,2,1,55,0,0
79058,-108.695652173913,4,2,1,5,0,0
79145,-108.695652173913,4,2,1,45,0,0
80197,352.941176470588,4,2,1,35,1,0
81432,333.333333333333,4,2,1,30,1,0
81598,346.820809248555,4,2,1,25,1,0
82965,-100,4,2,1,15,0,0

[Colours]
Combo1 : 128,255,0
Combo2 : 0,128,0
Combo3 : 253,197,2
Combo4 : 253,225,130

[HitObjects]
99,114,10977,6,0,P|139:104|220:83,1,102.240002496094,2|2,1:2|2:0,0:0:0:0:
262,130,11491,1,2,1:2:0:0:
262,130,11662,2,0,P|290:137|328:147,1,51.1200012480469,2|2,2:0|2:0,0:0:0:0:
375,186,12005,1,2,2:0:0:0:
470,28,12348,6,0,P|431:56|449:118,1,102.240002496094,0|0,1:0|0:0,0:0:0:0:
487,163,12862,1,2,1:2:0:0:
487,163,13034,2,0,P|479:191|470:229,1,51.1200012480469,2|2,2:0|2:0,0:0:0:0:
398,227,13377,2,0,P|405:255|415:293,1,51.1200012480469,2|2,2:0|2:0,0:0:0:0:
461,334,13719,6,0,P|421:324|340:303,1,102.240002496094,2|2,1:2|2:0,0:0:0:0:
320,244,14234,2,0,P|270:256|220:269,1,102.240002496094,2|2,1:2|2:0,0:0:0:0:
191,340,14748,1,2,2:0:0:0:
41,375,15091,6,0,P|47:350|53:325,1,51.1200012480469,0|2,1:2|2:0,0:0:0:0:
87,252,15434,2,0,P|74:218|80:193,1,51.1200012480469,2|2,2:0|1:2,0:0:0:0:
115,137,15777,2,0,P|139:130|164:124,1,51.1200012480469,2|2,2:0|2:0,0:0:0:0:
207,188,16119,2,0,P|231:194|256:200,1,51.1200012480469,2|2,2:0|2:0,0:0:0:0:
317,248,16462,6,0,P|304:198|291:148,1,102.240002496094,2|2,1:2|2:0,0:0:0:0:
367,140,16977,2,0,P|379:90|392:40,1,102.240002496094,2|2,1:2|2:0,0:0:0:0:
457,0,17491,1,2,2:0:0:0:
309,42,17834,6,0,P|259:54|209:67,1,102.240002496094,0|2,1:0|2:0,0:0:0:0:
139,35,18348,1,2,1:2:0:0:
139,35,18519,2,0,P|114:28|89:22,1,51.1200012480469,2|2,2:0|2:0,0:0:0:0:
17,49,18862,2,0,P|2:70|5:104,1,51.1200012480469,2|2,2:0|2:0,0:0:0:0:
56,149,19205,6,0,B|95:164|95:164|109:181|109:181|153:198,1,102.240002496094,2|2,1:2|2:0,0:0:0:0:
169,268,19719,2,0,P|218:255|268:242,1,102.240002496094,2|2,1:2|2:0,0:0:0:0:
308,177,20234,1,2,2:0:0:0:
437,258,20577,6,0,P|430:282|424:307,1,51.1200012480469,0|2,1:0|2:0,0:0:0:0:
365,357,20919,2,0,P|339:344|312:349,1,51.1200012480469,2|2,2:0|1:2,0:0:0:0:
246,375,21262,2,0,P|221:368|196:362,1,51.1200012480469,2|2,2:0|2:0,0:0:0:0:
153,298,21605,2,0,P|128:304|103:310,1,51.1200012480469,2|2,2:0|2:0,0:0:0:0:
36,375,21955,6,0,B|10:328|51:296|63:314|102:268|67:224,1,153.360003744141,4|0,1:2|1:2,0:0:0:0:
274,110,22986,1,2,2:0:0:0:
286,99,23330,2,0,B|312:146|271:178|259:160|220:206|255:250,1,153.360003744141,2|0,1:2|1:0,0:0:0:0:
412,325,24361,1,2,2:0:0:0:
421,339,24705,6,0,P|396:332|371:326,1,51.1200012480469,2|2,1:2|2:0,0:0:0:0:
326,263,25049,2,0,P|301:268|276:275,1,51.1200012480469,2|2,2:0|1:2,0:0:0:0:
238,342,25393,2,0,P|213:335|188:329,1,51.1200012480469,2|2,2:0|2:0,0:0:0:0:
143,266,25737,2,0,P|118:271|93:278,1,51.1200012480469,2|2,2:0|2:0,0:0:0:0:
35,330,26081,6,0,P|47:280|60:231,1,102.240002496094,2|2,1:2|2:0,0:0:0:0:
122,184,26596,2,0,P|109:134|96:85,1,102.240002496094,2|2,1:2|2:0,0:0:0:0:
35,36,27112,1,2,2:0:0:0:
180,85,27456,6,0,B|227:59|259:100|241:112|287:151|331:116,1,153.360003744141,4|0,1:2|1:2,0:0:0:0:
455,307,28484,1,2,2:0:0:0:
469,322,28827,2,0,B|422:348|390:307|408:295|362:256|318:291,1,153.360003744141,2|0,1:2|1:2,0:0:0:0:
170,343,29856,1,0,0:0:0:0:
156,358,30198,6,0,P|163:333|169:308,1,51.1200012480469,2|2,1:2|2:0,0:0:0:0:
232,263,30542,2,0,P|226:238|219:213,1,51.1200012480469,2|2,2:0|1:2,0:0:0:0:
153,175,30884,2,0,P|160:150|166:125,1,51.1200012480469,2|2,2:0|2:0,0:0:0:0:
229,80,31227,2,0,P|223:55|216:30,1,51.1200012480469,2|2,2:0|2:0,0:0:0:0:
145,3,31570,5,2,1:2:0:0:
312,160,32084,1,2,1:2:0:0:
312,160,32256,2,0,P|361:147|411:134,1,102.240002496094,2|2,2:0|2:0,0:0:0:0:
490,310,32941,6,0,P|458:271|379:279,1,130.639995614502,4|8,1:2|2:0,0:0:0:0:
310,340,33467,1,0,3:2:0:0:
310,340,33555,1,0,3:2:0:0:
310,340,33642,2,0,L|256:326,2,32.6599989036255,0|0|0,3:0|3:2|1:2,0:0:0:0:
222,257,33993,2,0,P|190:265|158:273,1,65.319997807251,8|0,2:0|3:0,0:0:0:0:
87,341,34344,6,0,P|105:273|122:207,1,130.639995614502,0|10,1:2|2:0,0:0:0:0:
195,150,34870,1,0,3:2:0:0:
195,150,35046,2,0,P|226:141|258:133,1,65.319997807251,2|2,2:0|1:2,0:0:0:0:
339,188,35387,1,10,2:0:0:0:
351,200,35733,6,0,P|403:194|409:113,1,130.639995614502,4|8,1:2|2:0,0:0:0:0:
348,73,36253,1,0,3:0:0:0:
348,73,36339,1,0,3:0:0:0:
348,73,36426,2,0,L|294:87,2,32.6599989036255,0|0|2,3:0|3:0|1:2,0:0:0:0:
253,21,36773,2,0,P|221:12|189:4,1,65.319997807251,10|2,2:0|3:2,0:0:0:0:
110,62,37120,6,0,P|121:101|136:152,1,65.319997807251,2|0,1:2|0:0,0:0:0:0:
226,130,37467,2,0,P|214:169|193:245,1,97.9799967108766,10|0,2:0|3:2,0:0:0:0:
184,271,37813,2,0,P|217:289|248:284,1,65.319997807251,2|2,2:0|1:2,0:0:0:0:
316,219,38160,1,10,2:0:0:0:
327,206,38517,6,0,P|400:187|437:242,1,130.639995614502,4|8,1:2|2:0,0:0:0:0:
388,312,39040,1,0,3:2:0:0:
388,312,39127,1,0,3:2:0:0:
388,312,39214,2,0,L|334:298,2,32.6599989036255,0|0|0,3:0|3:2|1:2,0:0:0:0:
281,365,39563,2,0,P|249:372|217:381,1,65.319997807251,8|0,2:0|3:2,0:0:0:0:
154,306,39912,6,0,P|189:278|175:199,1,130.639995614502,0|10,1:2|2:0,0:0:0:0:
102,136,40435,1,0,3:2:0:0:
102,136,40610,2,0,P|81:105|101:57,1,65.319997807251,2|2,2:0|1:2,0:0:0:0:
165,25,40958,1,10,2:0:0:0:
181,14,41307,6,0,P|243:33|319:56,1,130.639995614502,4|8,1:2|2:0,0:0:0:0:
403,44,41827,1,0,3:0:0:0:
403,44,41913,1,0,3:0:0:0:
403,44,42000,2,0,L|416:81,2,32.6599989036255,0|0|2,3:0|3:0|1:2,0:0:0:0:
363,142,42347,2,0,P|343:167|344:199,1,65.319997807251,10|2,2:0|3:2,0:0:0:0:
421,259,42694,6,0,P|372:241|323:304,1,130.639995614502,2|10,1:2|2:0,0:0:0:0:
243,348,43214,1,0,3:2:0:0:
243,348,43387,2,0,P|211:339|179:332,1,65.319997807251,2|2,2:0|1:2,0:0:0:0:
92,377,43734,2,0,P|83:345|76:313,1,65.319997807251,10|0,2:0|3:2,0:0:0:0:
12,245,44081,5,4,1:2:0:0:
12,245,44254,1,2,2:0:0:0:
62,160,44428,2,0,P|103:143|138:155,1,65.319997807251,10|2,2:0|3:2,0:0:0:0:
184,221,44775,2,0,P|225:238|261:225,1,65.319997807251,2|2,2:0|1:2,0:0:0:0:
317,169,45122,1,10,2:0:0:0:
266,96,45295,1,2,3:2:0:0:
266,96,45382,1,0,3:2:0:0:
266,96,45468,6,0,P|220:107|169:36,1,130.639995614502,0|10,1:2|2:0,0:0:0:0:
81,6,45989,2,0,P|43:6|14:37,1,65.319997807251,2|0,3:2|0:0,0:0:0:0:
3,118,46335,1,2,1:2:0:0:
3,118,46509,2,0,P|14:157|22:190,1,65.319997807251,10|2,2:0|3:2,0:0:0:0:
0,276,46856,6,0,P|32:230|110:245,1,130.639995614502,6|10,1:2|2:0,0:0:0:0:
170,303,47380,1,2,3:2:0:0:
170,303,47468,1,0,3:2:0:0:
170,303,47555,2,0,P|209:313|241:320,1,65.319997807251,2|0,2:0|1:2,0:0:0:0:
310,378,47905,1,10,2:0:0:0:
481,282,48255,6,0,P|505:252|490:207,1,65.319997807251,2|2,1:2|2:0,0:0:0:0:
424,170,48605,1,10,2:0:0:0:
339,219,48780,2,0,P|307:211|275:203,1,65.319997807251,2|0,3:2|3:0,0:0:0:0:
228,191,49042,1,0,3:2:0:0:
228,191,49130,1,0,1:2:0:0:
159,121,49304,2,0,P|151:85|173:52,1,65.319997807251,8|0,2:0|3:2,0:0:0:0:
252,20,49654,6,0,B|293:5|320:37|300:52|334:80|384:62,1,130.639995614502,4|10,1:2|2:0,0:0:0:0:
438,129,50179,1,2,3:2:0:0:
438,129,50354,2,0,P|426:168|418:196,1,65.319997807251,2|2,2:0|1:2,0:0:0:0:
474,272,50704,1,10,2:0:0:0:
407,344,50873,1,2,3:2:0:0:
407,344,50958,1,0,3:2:0:0:
407,344,51042,6,0,P|370:304|300:325,1,130.639995614502,0|8,1:2|2:0,0:0:0:0:
215,365,51557,2,0,P|184:354|152:345,1,65.319997807251,2|0,3:2|0:0,0:0:0:0:
78,281,51901,1,2,1:2:0:0:
78,281,52073,2,0,P|62:255|85:202,1,65.319997807251,10|2,2:0|3:2,0:0:0:0:
149,169,52417,6,0,B|190:184|217:152|197:137|231:109|281:127,1,130.639995614502,6|10,1:2|2:0,0:0:0:0:
334,186,52937,1,2,3:2:0:0:
334,186,53023,1,0,3:2:0:0:
334,186,53110,2,0,P|365:194|396:205,1,65.319997807251,2|0,2:0|1:2,0:0:0:0:
451,286,53457,1,10,2:0:0:0:
273,368,53804,6,0,P|264:336|253:305,1,65.319997807251,2|2,1:2|2:0,0:0:0:0:
175,245,54151,1,10,2:0:0:0:
234,167,54324,2,0,P|242:135|253:104,1,65.319997807251,2|2,3:2|2:0,0:0:0:0:
207,17,54671,1,2,1:2:0:0:
136,84,54844,2,0,P|84:70|41:115,1,97.9799967108766,10|0,2:0|3:2,0:0:0:0:
27,137,55191,6,0,P|43:201|61:279,1,130.639995614502,4|8,1:2|2:0,0:0:0:0:
120,338,55726,1,0,3:2:0:0:
120,338,55816,1,0,3:2:0:0:
120,338,55905,2,0,P|150:327|182:318,1,65.319997807251,0|0,0:0|1:2,0:0:0:0:
233,235,56262,2,0,P|264:243|295:254,1,65.319997807251,10|0,2:0|3:2,0:0:0:0:
345,339,56600,6,0,P|382:347|432:270,1,130.639995614502,2|8,1:2|2:0,0:0:0:0:
379,214,57120,1,0,3:2:0:0:
379,214,57206,1,0,3:2:0:0:
379,214,57293,2,0,P|368:183|359:151,1,65.319997807251,0|2,0:0|1:2,0:0:0:0:
418,72,57640,1,10,2:0:0:0:
250,173,57987,6,0,P|209:171|186:139,1,65.319997807251,2|2,1:2|2:0,0:0:0:0:
130,79,58334,2,0,P|89:81|66:113,1,65.319997807251,10|2,2:0|3:2,0:0:0:0:
31,186,58680,2,0,P|39:217|50:248,1,65.319997807251,2|2,2:0|1:2,0:0:0:0:
20,341,59027,1,10,2:0:0:0:
20,341,59201,1,2,3:2:0:0:
116,321,59374,6,0,B|170:331|170:331|190:353|190:353|251:363,1,130.639995614502,2|10,1:2|2:0,0:0:0:0:
312,298,59894,1,2,3:2:0:0:
312,298,59981,1,0,3:2:0:0:
312,298,60068,2,0,P|342:287|379:277,1,65.319997807251,2|2,2:0|1:2,0:0:0:0:
471,264,60415,2,0,P|488:222|477:193,1,65.319997807251,10|0,2:0|3:2,0:0:0:0:
401,151,60761,6,0,B|360:167|334:133|352:121|317:94|272:112,1,130.639995614502,4|8,1:2|2:0,0:0:0:0:
223,180,61287,1,0,3:2:0:0:
223,180,61375,1,0,3:2:0:0:
223,180,61462,2,0,P|193:169|156:159,1,65.319997807251,0|0,0:0|1:2,0:0:0:0:
74,208,61813,1,10,2:0:0:0:
10,20,62164,6,0,P|40:59|125:39,1,130.639995614502,2|10,1:2|2:0,0:0:0:0:
210,14,62679,1,0,3:2:0:0:
210,14,62765,1,0,3:2:0:0:
210,14,62851,2,0,P|240:25|277:35,1,65.319997807251,2|0,2:0|1:2,0:0:0:0:
314,122,63195,2,0,P|367:109|416:98,1,97.9799967108766,8|0,2:0|0:0,0:0:0:0:
447,92,63534,6,0,P|455:117|465:146,1,51.1200012480469,2|2,2:0|2:0,0:0:0:0:
398,181,63877,2,0,P|389:207|380:235,1,51.1200012480469,2|2,2:0|2:0,0:0:0:0:
337,292,64220,2,0,P|307:305|284:303,1,51.1200012480469,2|2,2:0|2:0,0:0:0:0:
239,245,64564,2,0,P|209:232|186:234,1,51.1200012480469,2|2,2:0|2:0,0:0:0:0:
135,285,64907,1,2,2:0:0:0:
48,71,65424,5,2,2:0:0:0:
96,125,65593,2,0,P|134:135|173:82,1,102.240002496094,2|2,2:0|2:0,0:0:0:0:
453,94,68032,6,0,P|413:81|377:70,1,76.6800018720704,2|0,2:0|0:0,0:0:0:0:
345,87,68378,2,0,P|301:99|279:105,2,51.1200012480469,2|2|2,2:0|2:0|2:0,0:0:0:0:
444,281,69073,6,0,B|408:252|362:285|387:302|345:333|298:296,1,144.840000884033,4|8,1:2|2:0,0:0:0:0:
236,234,69599,1,0,3:2:0:0:
236,234,69687,1,0,3:2:0:0:
236,234,69774,2,0,P|194:247|164:256,1,72.4200004420166,0|0,0:0|1:2,0:0:0:0:
65,230,70125,2,0,P|26:200|46:131,1,108.630000663025,8|0,2:0|3:2,0:0:0:0:
67,108,70476,6,0,B|103:137|149:104|124:87|166:56|209:92,1,144.840000884033,0|8,1:2|2:0,0:0:0:0:
282,27,70997,1,0,3:2:0:0:
282,27,71084,1,0,3:2:0:0:
282,27,71171,2,0,P|324:40|356:49,1,72.4200004420166,0|0,3:0|1:2,0:0:0:0:
453,26,71519,1,2,2:0:0:0:
491,238,71843,6,0,P|447:214|378:271,1,144.840000884033,0|8,1:2|2:0,0:0:0:0:
307,347,72370,1,0,3:2:0:0:
307,347,72546,2,0,P|265:334|233:325,1,72.4200004420166,0|0,0:0|1:2,0:0:0:0:
139,375,72898,1,8,2:0:0:0:
53,308,73074,1,0,3:2:0:0:
53,308,73162,1,0,3:2:0:0:
53,308,73250,6,0,P|72:248|98:161,1,144.840000884033,0|10,1:2|2:0,0:0:0:0:
33,79,73765,1,0,3:2:0:0:
33,79,73851,1,0,3:2:0:0:
33,79,73937,2,0,P|61:55|102:58,1,72.4200004420166,2|2,2:0|1:2,0:0:0:0:
188,112,74281,2,0,P|222:121|257:132,1,72.4200004420166,10|0,2:0|3:2,0:0:0:0:
358,91,74625,6,0,P|299:120|316:202,1,144.840000884033,4|8,1:2|2:0,0:0:0:0:
369,277,75154,1,0,3:2:0:0:
369,277,75242,1,0,3:2:0:0:
369,277,75330,2,0,P|357:323|349:359,1,72.4200004420166,0|0,0:0|1:2,0:0:0:0:
243,364,75683,2,0,P|210:330|141:351,1,108.630000663025,8|0,2:0|3:2,0:0:0:0:
113,322,76036,6,0,B|85:294|114:245|137:265|164:224|130:171,1,144.840000884033,0|8,1:2|2:0,0:0:0:0:
63,115,76553,1,0,3:2:0:0:
63,115,76639,1,0,3:2:0:0:
63,115,76725,2,0,P|99:90|131:93,1,72.4200004420166,0|0,0:0|1:2,0:0:0:0:
228,129,77070,1,8,2:0:0:0:
312,304,77415,6,0,P|329:246|351:167,1,130.639995614502,0|8,1:2|2:0,0:0:0:0:
420,112,77936,1,0,3:2:0:0:
420,112,78023,1,0,3:2:0:0:
420,112,78110,2,0,P|405:69|393:34,1,65.319997807251,0|2,0:0|1:2,0:0:0:0:
303,25,78458,2,0,P|273:49|243:48,1,65.319997807251,10|2,2:0|3:2,0:0:0:0:
153,77,78806,6,0,P|170:139|188:202,1,130.639995614502,2|10,1:2|2:0,0:0:0:0:
236,294,79328,1,0,3:2:0:0:
236,294,79501,2,0,P|270:306|311:319,1,65.319997807251,2|2,2:0|1:2,0:0:0:0:
382,365,79849,2,0,P|424:318|505:344,1,130.639995614502,10|6,2:0|1:2,0:0:0:0:
256,192,80285,12,0,85759,0:0:0:0:
