osu file format v14

[General]
AudioFilename: audio.mp3
AudioLeadIn: 0
PreviewTime: 30244
Countdown: 0
SampleSet: Soft
StackLeniency: 0.7
Mode: 2
LetterboxInBreaks: 0
WidescreenStoryboard: 1

[Editor]
Bookmarks: 11831,66132,85806,86641,89422
DistanceSpacing: 2.1
BeatDivisor: 4
GridSize: 32
TimelineZoom: 1.6

[Metadata]
Title:Break It Off
TitleUnicode:Break It Off
Artist:PinkPantheress
ArtistUnicode:PinkPantheress
Creator:Juansy-
Version:Platter
Source:
Tags:chatie golo- electronic adam f circle moon sky english dnb drum & and n bass pop pink pantherness tiktok tik tok
BeatmapID:3354271
BeatmapSetID:1446113

[Difficulty]
HPDrainRate:4
CircleSize:3.5
OverallDifficulty:8
ApproachRate:8
SliderMultiplier:1.6
SliderTickRate:1

[Events]
//Background and Video events
0,0,"GOOOD.png",0,0
//Break Periods
//Storyboard Layer 0 (Background)
//Storyboard Layer 1 (Fail)
//Storyboard Layer 2 (Pass)
//Storyboard Layer 3 (Foreground)
//Storyboard Layer 4 (Overlay)
//Storyboard Sound Samples

[TimingPoints]
75,343.347639484979,4,2,1,55,1,0
488,-100,4,2,1,55,0,0
504,-100,4,2,1,5,0,0
574,-100,4,2,1,5,0,0
590,-100,4,2,1,55,0,0
1348,-100,4,2,1,55,0,0
1362,-100,4,2,1,5,0,0
1434,-100,4,2,1,5,0,0
1448,-100,4,2,1,55,0,0
1864,-100,4,2,1,55,0,0
1877,-100,4,2,1,5,0,0
1950,-100,4,2,1,5,0,0
1963,-100,4,2,1,55,0,0
2723,-100,4,2,1,55,0,0
2735,-100,4,2,1,5,0,0
2809,-100,4,2,1,5,0,0
2821,-100,4,2,1,55,0,0
3239,-100,4,2,1,55,0,0
3250,-100,4,2,1,5,0,0
3325,-100,4,2,1,5,0,0
3336,-100,4,2,1,55,0,0
4099,-100,4,2,1,55,0,0
4109,-100,4,2,1,5,0,0
4185,-100,4,2,1,5,0,0
4195,-100,4,2,1,55,0,0
4614,-100,4,2,1,55,0,0
4624,-100,4,2,1,5,0,0
4700,-100,4,2,1,5,0,0
4710,-100,4,2,1,55,0,0
5474,-100,4,2,1,55,0,0
5482,-100,4,2,1,5,0,0
5560,-100,4,2,1,5,0,0
5568,-100,4,2,1,55,0,0
5990,-100,4,2,1,55,0,0
5997,-100,4,2,1,5,0,0
6076,-100,4,2,1,5,0,0
6083,-100,4,2,1,55,0,0
6849,-100,4,2,1,55,0,0
6856,-100,4,2,1,5,0,0
6935,-100,4,2,1,5,0,0
6941,-100,4,2,1,55,0,0
7365,-100,4,2,1,55,0,0
7371,-100,4,2,1,5,0,0
7451,-100,4,2,1,5,0,0
7456,-100,4,2,1,55,0,0
8225,-100,4,2,1,55,0,0
8229,-100,4,2,1,5,0,0
8311,-100,4,2,1,5,0,0
8315,-100,4,2,1,55,0,0
8740,-100,4,2,1,55,0,0
8744,-100,4,2,1,5,0,0
8826,-100,4,2,1,5,0,0
8830,-100,4,2,1,55,0,0
9600,-100,4,2,1,55,0,0
9602,-100,4,2,1,5,0,0
9686,-100,4,2,1,5,0,0
9688,-100,4,2,1,55,0,0
10116,-100,4,2,1,55,0,0
10117,-100,4,2,1,5,0,0
10202,-100,4,2,1,5,0,0
10203,-100,4,2,1,55,0,0
11017,343.347639484979,4,2,2,55,1,0
14021,-100,4,2,2,55,0,0
14022,-100,4,2,2,5,0,0
14106,-100,4,2,2,5,0,0
14107,-100,4,2,2,55,0,0
21999,-100,4,2,2,55,0,0
22004,-100,4,3,1,55,0,0
22084,-100,4,3,1,55,0,0
22089,-100,4,2,2,55,0,0
22514,-100,4,2,2,55,0,0
22519,-100,4,3,3,55,0,0
22600,-100,4,3,3,55,0,0
22604,-100,4,2,2,55,0,0
22858,-100,4,2,2,55,0,0
26381,-100,4,2,2,5,0,0
26382,-100,4,2,2,5,0,0
26467,-100,4,2,2,55,0,0
26468,-100,4,2,2,55,0,0
27497,-100,4,3,1,55,0,0
27583,-100,4,2,2,55,0,0
27585,-100,4,2,2,55,0,0
29385,-100,4,2,2,55,0,0
29386,-100,4,3,3,55,0,0
29471,-100,4,3,3,55,0,0
29472,-100,4,2,2,55,0,0
32647,338.028169014085,4,2,2,55,1,0
32985,347.826086956522,4,2,3,65,1,1
32985,-100,4,2,3,65,0,1
35419,352.941176470588,4,3,1,65,1,0
35684,-100,4,2,3,65,0,0
35691,-100,4,2,3,65,0,0
35771,347.826086956522,4,2,3,65,1,1
35777,-100,4,2,3,65,0,1
38205,358.208955223881,4,3,1,65,1,0
38473,-100,4,3,1,65,0,0
38476,-100,4,2,3,65,0,0
38563,347.826086956522,4,2,3,65,1,1
40997,-100,4,3,1,65,0,1
41002,-100,4,3,1,65,0,1
41084,-100,4,2,3,65,0,1
41090,-100,4,2,3,65,0,1
43778,-100,4,2,3,65,0,1
43779,-100,4,3,1,65,0,1
43865,-100,4,3,1,65,0,1
43866,-100,4,2,3,65,0,1
44128,-100,4,2,3,55,0,0
44212,-100,4,2,3,55,0,0
44213,-100,4,2,4,55,0,0
46206,-100,4,2,4,55,0,0
46215,-100,4,2,3,55,0,0
46293,-100,4,2,3,55,0,0
46302,-100,4,2,4,55,0,0
46563,338.028169014085,4,2,3,65,1,0
46901,347.826086956522,4,2,3,55,1,0
46987,-100,4,2,3,55,0,0
46988,-100,4,2,4,55,0,0
49683,-100,4,2,3,55,0,0
49698,-100,4,2,3,55,0,0
49770,-100,4,2,4,55,0,0
49786,-100,4,2,4,55,0,0
50727,358.208955223881,4,2,4,55,1,0
51085,343.839541547278,4,2,4,55,1,0
51773,-100,4,2,4,55,0,0
51774,-100,4,2,3,55,0,0
51859,-100,4,2,3,55,0,0
51860,-100,4,2,4,55,0,0
52460,347.826086956522,4,2,3,55,1,0
52547,-100,4,2,3,55,0,0
52548,-100,4,2,4,55,0,0
55242,352.941176470588,4,2,3,55,1,0
55324,-100,4,2,3,55,0,0
55330,-100,4,2,4,55,0,0
56300,342.857142857143,4,2,4,55,1,0
56642,347.826086956522,4,2,4,55,1,0
57684,-100,4,2,4,55,0,0
57685,-100,4,3,1,55,0,0
57771,-100,4,3,1,55,0,0
57772,-100,4,2,4,55,0,0
58031,-100,4,2,4,55,0,0
58032,-100,4,2,3,55,0,0
58117,-100,4,2,3,55,0,0
58118,-100,4,2,4,55,0,0
60815,-100,4,2,3,55,0,0
60892,-100,4,2,3,55,0,0
60902,-100,4,2,4,55,0,0
63239,-100,4,2,4,55,0,0
63250,-100,4,3,1,55,0,0
63325,-100,4,3,1,55,0,0
63337,-100,4,2,4,55,0,0
63576,343.347639484979,4,2,3,55,1,0
63663,-100,4,2,3,55,0,0
63664,-100,4,2,4,55,0,0
64951,358.20895522388,4,2,4,55,1,0
65309,328.767123287671,4,2,4,55,1,0
65468,-100,4,2,4,55,0,0
65637,358.20895522388,4,2,4,55,1,0
65995,375,4,2,4,55,1,0
66371,343.347639484979,4,2,4,50,1,0
66688,-100,4,2,4,50,0,0
66714,-100,4,2,4,45,0,0
67035,-100,4,2,4,45,0,0
67057,-100,4,2,4,40,0,0
67382,-100,4,2,4,40,0,0
67401,-100,4,2,4,35,0,0
67729,-100,4,2,4,35,0,0
67744,-100,4,2,4,30,0,0
68076,-100,4,2,4,30,0,0
68087,-100,4,2,4,40,0,0
69117,347.826086956522,4,2,3,65,1,1
71551,342.857142857142,4,3,1,65,1,0
71563,-100,4,3,1,65,0,0
71644,-100,4,3,1,65,0,0
71893,347.826086956522,4,2,3,65,1,1
74327,-100,4,3,1,65,0,0
74411,-100,4,3,1,65,0,0
74412,-100,4,2,3,65,0,0
74675,-100,4,2,3,65,0,1
77110,-100,4,3,1,65,0,1
77114,-100,4,3,1,65,0,1
77197,-100,4,2,3,65,0,1
77200,-100,4,2,3,65,0,1
79198,-100,4,2,3,65,0,1
79199,-100,4,2,5,65,0,1
80240,-100,4,2,3,65,0,0
80417,-100,4,2,3,65,0,0
80418,-100,4,2,3,63,0,0
80770,-100,4,2,3,63,0,0
80771,-100,4,2,3,61,0,0
81123,-100,4,2,3,61,0,0
81124,-100,4,2,3,59,0,0
81815,-100,4,2,3,59,0,0
81816,-100,4,2,3,55,0,0
82162,-100,4,2,3,55,0,0
82163,-100,4,2,3,53,0,0
82509,-100,4,2,3,53,0,0
82510,-100,4,2,3,51,0,0
82855,-100,4,2,3,51,0,0
82856,-100,4,2,3,49,0,0
83202,-100,4,2,3,49,0,0
83203,-100,4,2,3,47,0,0
83549,-100,4,2,3,47,0,0
83550,-100,4,2,3,45,0,0
83896,-100,4,2,3,45,0,0
83897,-100,4,2,3,43,0,0
84243,-100,4,2,3,43,0,0
84244,-100,4,2,3,41,0,0
84589,-100,4,2,3,41,0,0
84590,-100,4,2,3,39,0,0
84936,-100,4,2,3,39,0,0
84937,-100,4,2,3,37,0,0
85283,-100,4,2,3,37,0,0
85284,-100,4,2,3,35,0,0
85630,-100,4,2,3,35,0,0
85631,-100,4,2,3,33,0,0
85803,-100,4,2,3,33,0,0
85804,-100,4,2,3,5,0,0

[Colours]
Combo1 : 78,91,139
Combo2 : 200,114,207
Combo3 : 5,168,197
Combo4 : 102,198,188
Combo5 : 183,121,234

[HitObjects]
155,242,75,5,4,0:0:0:0:
370,243,590,2,0,L|381:-2,1,240,2|0,0:0|0:0,0:0:0:0:
235,135,1448,5,4,0:0:0:0:
451,137,1963,2,0,L|198:129,1,240,2|0,0:0|0:0,0:0:0:0:
195,272,2821,5,4,0:0:0:0:
413,207,3336,2,0,P|493:243|393:316,1,240,2|0,0:0|0:0,0:0:0:0:
271,315,4195,5,4,0:0:0:0:
55,316,4710,2,0,L|328:317,1,240,2|0,0:0|0:0,0:0:0:0:
153,286,5568,5,4,0:0:0:0:
369,285,6083,2,0,P|368:181|252:179,1,240,2|0,0:0|0:0,0:0:0:0:
110,177,6941,5,4,0:0:0:0:
326,170,7456,2,0,P|447:132|446:6,1,240,2|0,0:0|0:0,0:0:0:0:
321,193,8315,5,4,0:0:0:0:
105,190,8830,2,0,L|379:190,1,240,2|0,0:0|0:0,0:0:0:0:
201,177,9688,5,4,0:0:0:0:
413,89,10203,2,0,P|488:122|415:221,1,240,2|0,0:0|0:0,0:0:0:0:
164,195,11017,6,0,P|224:260|309:260,1,160,6|2,0:0|0:0,0:0:0:0:
376,194,11532,1,6,0:3:0:0:
288,194,11703,1,2,0:0:0:0:
199,191,11875,1,2,0:0:0:0:
187,103,12047,1,2,0:0:0:0:
359,191,12390,6,0,L|359:373,1,160,4|0,0:0|0:0,0:0:0:0:
279,293,12904,1,6,0:3:0:0:
110,292,13076,1,2,0:0:0:0:
36,260,13247,1,2,0:0:0:0:
36,260,13419,1,2,0:0:0:0:
110,287,13592,1,2,0:0:0:0:
285,284,13763,6,0,P|354:238|313:193,1,160,6|2,0:0|0:0,0:0:0:0:
229,193,14278,1,6,0:3:0:0:
141,192,14450,2,0,L|29:194,2,80,2|2|2,0:0|0:0|0:0,0:0:0:0:
317,154,15137,6,0,L|338:258,1,80,6|2,0:0|0:0,0:0:0:0:
264,244,15480,2,0,L|156:245,1,80,2|6,0:0|0:3,0:0:0:0:
352,243,15823,1,2,0:0:0:0:
436,218,15995,1,2,0:0:0:0:
436,130,16167,1,2,0:0:0:0:
352,100,16338,1,2,0:0:0:0:
176,104,16510,6,0,P|127:138|193:186,1,160,6|2,0:0|0:0,0:0:0:0:
273,185,17025,1,6,0:3:0:0:
281,272,17197,1,2,0:0:0:0:
193,276,17368,1,2,0:0:0:0:
178,363,17540,1,2,0:0:0:0:
388,304,17883,6,0,L|388:131,1,160,4|0,0:0|0:0,0:0:0:0:
299,138,18398,1,6,0:3:0:0:
131,142,18570,1,2,0:0:0:0:
45,164,18742,1,2,0:0:0:0:
45,164,18913,1,2,0:0:0:0:
131,142,19085,1,2,0:0:0:0:
306,154,19257,6,0,P|359:125|290:73,1,160,6|2,0:0|0:0,0:0:0:0:
220,68,19772,2,0,L|135:75,1,80,6|2,0:3|0:0,0:0:0:0:
228,71,20115,2,0,L|317:69,1,80,2|2,0:0|0:0,0:0:0:0:
131,75,20630,6,0,P|77:105|143:157,1,160,6|2,0:0|0:0,0:0:0:0:
215,171,21145,1,6,0:3:0:0:
294,175,21317,1,2,0:0:0:0:
303,95,21489,1,2,0:0:0:0:
215,91,21660,2,0,L|106:89,1,80,2|2,0:0|0:0,0:0:0:0:
384,91,22004,6,0,P|428:137|350:169,1,160,6|0,0:0|0:0,0:0:0:0:
276,180,22519,2,0,P|223:210|286:271,1,160,4|0,0:0|0:0,0:0:0:0:
357,271,23034,1,2,0:0:0:0:
165,252,23377,6,0,P|89:233|90:145,1,160,6|0,0:0|0:0,0:0:0:0:
166,182,23892,2,0,P|234:166|223:75,1,160,4|0,0:3|0:0,0:0:0:0:
148,80,24407,1,2,0:0:0:0:
340,82,24750,5,6,0:0:0:0:
433,107,24922,1,2,0:0:0:0:
434,203,25094,1,2,0:0:0:0:
344,236,25265,1,6,0:3:0:0:
176,239,25437,2,0,L|176:135,1,80,2|2,0:0|0:0,0:0:0:0:
265,157,25780,2,0,L|357:151,1,80,2|2,0:0|0:0,0:0:0:0:
180,221,26124,6,0,P|127:198|191:142,1,160,6|2,0:0|0:0,0:0:0:0:
334,135,26810,1,2,0:0:0:0:
245,135,26982,1,2,0:0:0:0:
156,136,27154,1,2,0:0:0:0:
153,48,27326,1,0,0:0:0:0:
393,48,27497,6,0,P|414:120|345:145,1,160,6|0,0:0|0:0,0:0:0:0:
258,236,28012,2,0,P|211:253|258:324,1,160,4|0,0:0|0:0,0:0:0:0:
342,319,28526,1,2,0:0:0:0:
154,237,28871,6,0,P|107:214|178:155,1,160,6|2,0:0|0:0,0:0:0:0:
330,154,29557,2,0,L|138:146,1,160,2|2,0:0|0:0,0:0:0:0:
426,153,30244,5,6,0:0:0:0:
431,241,30416,1,2,0:0:0:0:
343,241,30587,1,2,0:0:0:0:
431,241,30759,1,6,0:3:0:0:
265,112,30931,2,0,L|173:113,1,80,2|2,0:0|0:0,0:0:0:0:
273,111,31274,2,0,L|378:111,1,80,2|2,0:0|0:0,0:0:0:0:
176,252,31617,6,0,P|124:225|188:173,1,160,6|0,0:0|0:0,0:0:0:0:
254,172,32132,1,6,0:3:0:0:
422,174,32304,2,0,L|422:-2,1,160,2|2,0:0|0:0,0:0:0:0:
335,15,32816,1,0,0:0:0:0:
93,24,32985,6,0,L|94:123,1,80,4|2,1:2|1:2,0:0:0:0:
269,106,33332,1,8,0:0:0:0:
365,105,33506,1,2,1:2:0:0:
269,105,33680,1,2,1:2:0:0:
172,106,33854,1,2,1:2:0:0:
347,104,34028,2,0,L|348:193,1,80,8|2,0:0|1:2,0:0:0:0:
100,211,34376,6,0,P|43:247|106:282,1,160,2|8,1:2|0:0,0:0:0:0:
275,287,34898,2,0,L|277:189,1,80,2|2,1:2|1:2,0:0:0:0:
180,208,35245,1,2,1:2:0:0:
88,205,35419,1,10,0:0:0:0:
357,233,35771,6,0,L|464:232,1,80,4|2,1:2|1:2,0:0:0:0:
261,232,36118,1,8,0:0:0:0:
164,232,36292,1,2,1:2:0:0:
259,230,36466,1,2,1:2:0:0:
261,133,36640,1,2,1:2:0:0:
85,124,36814,2,0,L|83:217,1,80,8|2,0:0|1:2,0:0:0:0:
331,223,37162,6,0,L|145:230,1,160,2|8,1:2|0:0,0:0:0:0:
339,221,37684,1,2,1:2:0:0:
432,198,37857,1,2,1:2:0:0:
432,104,38031,1,2,1:2:0:0:
342,78,38205,1,10,0:0:0:0:
63,78,38563,6,0,L|65:178,1,80,4|2,1:2|1:2,0:0:0:0:
240,160,38910,1,8,0:0:0:0:
336,157,39084,1,2,1:2:0:0:
240,156,39258,1,2,1:2:0:0:
143,157,39431,1,2,1:2:0:0:
318,158,39606,2,0,L|421:158,1,80,8|2,0:0|1:2,0:0:0:0:
149,152,39954,6,0,L|148:266,1,80,2|0,1:2|1:0,0:0:0:0:
324,242,40302,1,8,0:0:0:0:
321,146,40476,1,2,1:2:0:0:
242,90,40649,1,2,1:2:0:0:
146,84,40823,1,2,1:2:0:0:
321,89,40997,2,0,L|428:88,1,80,10|2,0:0|1:2,0:0:0:0:
154,190,41345,6,0,L|48:190,1,80,4|2,1:2|1:2,0:0:0:0:
249,189,41693,1,8,0:0:0:0:
247,285,41867,1,2,1:2:0:0:
151,291,42041,1,2,1:2:0:0:
247,287,42215,1,2,1:2:0:0:
422,292,42389,2,0,L|423:186,1,80,8|2,0:0|1:2,0:0:0:0:
174,203,42736,6,0,L|367:197,1,160,2|8,1:2|0:0,0:0:0:0:
173,145,43258,2,0,L|69:148,2,80,2|2|2,1:2|1:2|1:2,0:0:0:0:
349,142,43780,2,0,L|454:137,1,80,10|2,0:0|1:2,0:0:0:0:
188,141,44128,5,4,1:2:0:0:
108,177,44302,1,6,1:2:0:0:
107,265,44476,1,10,0:0:0:0:
191,289,44649,1,6,1:2:0:0:
287,285,44823,2,0,L|286:193,1,80,6|6,1:2|1:2,0:0:0:0:
117,204,45171,2,0,L|119:109,1,80,10|6,0:0|1:2,0:0:0:0:
285,113,45519,6,0,P|364:129|361:228,1,160,4|10,1:2|0:0,0:0:0:0:
283,211,46041,2,0,P|219:217|196:309,1,160,6|6,1:2|1:2,0:0:0:0:
359,315,46563,2,0,L|361:208,1,80,10|2,0:0|1:2,0:0:0:0:
122,218,46901,6,0,P|63:261|141:301,1,160,4|8,1:2|0:0,0:0:0:0:
197,316,47422,1,6,1:2:0:0:
277,317,47596,1,6,1:2:0:0:
196,315,47770,1,4,1:2:0:0:
28,188,47944,2,0,L|31:297,1,80,10|4,0:0|1:2,0:0:0:0:
196,212,48292,5,6,1:2:0:0:
242,137,48466,1,6,1:2:0:0:
183,71,48640,1,10,0:0:0:0:
95,64,48814,1,6,1:2:0:0:
263,64,48987,2,0,L|364:66,1,80,2|6,1:2|1:2,0:0:0:0:
175,64,49335,2,0,L|173:159,1,80,10|0,0:0|0:0,0:0:0:0:
414,152,49683,6,0,P|466:194|394:231,1,160,4|10,1:2|0:0,0:0:0:0:
320,237,50205,1,6,1:2:0:0:
267,176,50379,1,6,1:2:0:0:
326,122,50553,1,6,1:2:0:0:
499,114,50727,2,0,L|390:113,1,80,10|6,0:0|1:2,0:0:0:0:
253,113,51085,6,0,P|165:129|155:198,1,160,4|10,1:2|0:0,0:0:0:0:
247,196,51600,2,0,P|309:203|316:301,1,160,6|6,1:2|1:2,0:0:0:0:
166,299,52116,2,0,L|147:195,1,80,10|6,0:0|1:2,0:0:0:0:
388,206,52460,6,0,P|395:142|299:111,1,160,4|8,1:2|0:0,0:0:0:0:
230,106,52981,1,6,1:2:0:0:
144,124,53155,1,6,1:2:0:0:
231,110,53329,1,4,1:2:0:0:
398,106,53503,2,0,L|392:217,1,80,10|4,0:0|1:2,0:0:0:0:
225,185,53851,5,6,1:2:0:0:
217,272,54025,1,6,1:2:0:0:
282,330,54199,1,10,0:0:0:0:
369,336,54373,1,6,1:2:0:0:
281,332,54546,1,2,1:2:0:0:
193,324,54720,1,6,1:2:0:0:
25,328,54894,2,0,L|130:328,1,80,10|4,0:0|1:2,0:0:0:0:
346,321,55242,6,0,P|400:288|331:246,1,160,4|8,1:2|0:0,0:0:0:0:
257,240,55771,1,4,1:2:0:0:
338,206,55947,1,4,1:2:0:0:
378,128,56124,1,4,1:2:0:0:
209,122,56300,2,0,L|101:118,1,80,10|0,0:0|0:0,0:0:0:0:
283,124,56642,6,0,P|338:147|270:198,1,160,6|8,1:2|0:0,0:0:0:0:
202,207,57163,1,4,1:2:0:0:
156,282,57337,1,0,1:2:0:0:
212,350,57511,1,4,1:2:0:0:
379,351,57685,2,0,L|385:251,1,80,2|6,0:0|1:2,0:0:0:0:
143,260,58033,5,4,1:2:0:0:
140,172,58207,1,6,1:2:0:0:
228,174,58381,1,10,0:0:0:0:
140,173,58555,1,6,1:2:0:0:
307,176,58728,1,6,1:2:0:0:
395,177,58902,1,6,1:2:0:0:
307,177,59076,1,10,0:0:0:0:
218,178,59250,1,6,1:2:0:0:
50,175,59424,6,0,L|246:181,1,160,6|10,1:2|0:0,0:0:0:0:
370,187,60120,1,2,1:2:0:0:
367,99,60294,1,6,1:2:0:0:
278,97,60468,1,10,0:0:0:0:
365,98,60642,1,4,1:2:0:0:
128,96,60815,6,0,P|70:136|145:164,1,160,4|8,1:2|0:0,0:0:0:0:
211,178,61337,1,4,1:2:0:0:
298,177,61511,1,4,1:2:0:0:
303,88,61685,1,4,1:2:0:0:
135,81,61859,2,0,L|138:179,1,80,10|4,0:0|1:2,0:0:0:0:
301,164,62207,6,0,L|301:263,1,80,6|0,1:2|0:0,0:0:0:0:
212,245,62555,2,0,L|119:242,1,80,10|4,0:0|1:2,0:0:0:0:
301,240,62902,2,0,L|386:242,2,80,2|4|2,1:2|1:2|0:0,0:0:0:0:
31,248,63576,6,0,L|35:145,1,80,4|6,1:2|1:2,0:0:0:0:
122,167,63919,1,10,0:0:0:0:
210,168,64091,2,0,L|224:68,1,80,6|6,1:2|1:2,0:0:0:0:
133,76,64434,1,6,1:2:0:0:
221,76,64606,2,0,L|332:76,1,80,10|6,0:0|1:2,0:0:0:0:
218,78,64951,5,0,0:0:0:0:
224,261,65309,1,0,0:0:0:0:
311,270,65473,1,6,0:2:0:0:
228,270,65637,2,0,P|168:264|162:164,1,160,6|6,0:2|0:2,0:0:0:0:
256,192,66371,12,6,67744,0:2:0:0:
325,233,68087,6,0,L|334:57,1,160,2|2,0:0|0:0,0:0:0:0:
245,74,68602,1,2,0:0:0:0:
158,77,68774,1,2,0:0:0:0:
419,24,69117,6,0,L|418:123,1,80,4|2,1:2|1:2,0:0:0:0:
250,107,69464,1,8,0:0:0:0:
154,106,69638,1,2,1:2:0:0:
250,106,69812,1,2,1:2:0:0:
347,107,69986,1,2,1:2:0:0:
179,110,70160,2,0,L|169:200,1,80,8|2,0:0|1:2,0:0:0:0:
412,211,70508,6,0,P|469:247|406:282,1,160,2|8,1:2|0:0,0:0:0:0:
244,288,71030,2,0,L|239:188,1,80,2|2,1:2|1:2,0:0:0:0:
332,208,71377,1,2,1:2:0:0:
424,205,71551,1,10,0:0:0:0:
155,233,71893,6,0,L|48:232,1,80,4|2,1:2|1:2,0:0:0:0:
243,233,72240,1,8,0:0:0:0:
340,233,72414,1,2,1:2:0:0:
245,231,72588,1,2,1:2:0:0:
243,134,72762,1,2,1:2:0:0:
411,134,72936,2,0,L|416:228,1,80,8|2,0:0|1:2,0:0:0:0:
168,222,73284,6,0,P|119:249|184:308,1,160,2|8,1:2|0:0,0:0:0:0:
337,322,73806,1,2,1:2:0:0:
334,234,73979,1,2,1:2:0:0:
245,232,74153,1,2,1:2:0:0:
333,231,74327,1,2,0:0:0:0:
83,235,74675,6,0,L|245:213,2,160,4|8|2,1:2|0:0|1:2,0:0:0:0:
338,255,75719,2,0,L|337:153,1,80,8|2,0:0|1:2,0:0:0:0:
90,173,76066,6,0,P|41:215|111:258,1,160,2|8,1:2|0:0,0:0:0:0:
267,262,76588,1,2,1:2:0:0:
315,188,76762,1,2,1:2:0:0:
263,116,76936,1,2,1:2:0:0:
95,106,77110,2,0,L|92:215,1,80,2|2,0:0|1:2,0:0:0:0:
331,195,77458,6,0,P|383:220|326:280,1,160,4|8,1:2|0:0,0:0:0:0:
173,286,77979,1,2,1:2:0:0:
252,279,78153,1,2,1:2:0:0:
331,275,78327,1,2,1:2:0:0:
163,280,78501,2,0,L|148:164,1,80,8|2,0:0|1:2,0:0:0:0:
393,177,78849,6,0,P|443:140|375:97,1,160,2|10,1:2|1:2,0:0:0:0:
215,100,79371,2,0,L|121:104,2,80,4|6|6,1:2|1:2|1:2,0:0:0:0:
352,196,79893,2,0,L|359:304,1,80,10|0,1:2|1:0,0:0:0:0:
108,99,80240,5,4,1:2:0:0:
256,192,80414,12,0,85806,0:0:0:0:
