osu file format v14

[General]
AudioFilename: audio.mp3
AudioLeadIn: 0
PreviewTime: 63448
Countdown: 0
SampleSet: Soft
StackLeniency: 0.4
Mode: 0
LetterboxInBreaks: 0
WidescreenStoryboard: 0

[Editor]
Bookmarks: 32941
DistanceSpacing: 1.3
BeatDivisor: 4
GridSize: 8
TimelineZoom: 2

[Metadata]
Title:Break It Off
TitleUnicode:Break It Off
Artist:PinkPantheress
ArtistUnicode:PinkPantheress
Creator:DoIon
Version:i hate you
Source:
Tags:english breakcore dnb drum & and n bass pop pink pantherness tiktok tik tok adam f dolon -nenu-_4 xahlt gweon sua kuon- Sajinn Circles female vocals vocalist, d'n'b
BeatmapID:4015566
BeatmapSetID:1941451

[Difficulty]
HPDrainRate:5
CircleSize:4.2
OverallDifficulty:8.6
ApproachRate:9.1
SliderMultiplier:1.78
SliderTickRate:1

[Events]
//Background and Video events
0,0,"BG ROSE.jpg",0,0
//Break Periods
//Storyboard Layer 0 (Background)
//Storyboard Layer 1 (Fail)
//Storyboard Layer 2 (Pass)
//Storyboard Layer 3 (Foreground)
//Storyboard Layer 4 (Overlay)
//Storyboard Sound Samples

[TimingPoints]
15,343.839541547278,4,2,1,70,1,0
10977,342.857142857143,4,2,1,35,1,0
10977,-153.846153846153,4,2,1,35,0,0
13462,-153.846153846153,4,2,1,5,0,0
13548,-153.846153846153,4,2,1,35,0,0
13634,-153.846153846153,4,2,1,5,0,0
13719,-80,4,2,1,35,0,0
14234,-153.846153846154,4,2,1,35,0,0
16462,-80.0000000000001,4,2,1,35,0,0
17834,-153.846153846154,4,2,1,35,0,0
18348,-117.64705882353,4,2,1,35,0,0
18948,-117.64705882353,4,2,1,5,0,0
19034,-117.64705882353,4,2,1,35,0,0
19119,-117.64705882353,4,2,1,5,0,0
19205,-79.9256505576211,4,2,1,35,0,0
19719,-153.846153846154,4,2,1,35,0,0
21955,343.839541547278,4,2,1,35,1,0
21955,-80,4,2,1,35,0,0
22470,-125,4,2,1,35,0,0
22986,-142.857142857143,4,2,1,35,0,0
23330,-142.857142857143,4,2,1,35,0,0
23932,-100,4,2,1,40,0,0
24189,-100,4,2,1,35,0,0
24361,-153.846153846154,4,2,1,35,0,0
24447,-153.846153846154,4,2,1,5,0,0
24533,-153.846153846154,4,2,1,35,0,0
24619,-153.846153846154,4,2,1,5,0,0
24705,-153.846153846154,4,2,1,35,0,0
27370,-153.846153846154,4,2,1,40,0,0
27456,342.857142857143,4,2,1,35,1,0
27456,-80,4,2,1,35,0,0
27970,-153.846153846154,4,2,1,35,0,0
28484,-125,4,2,1,35,0,0
28741,-125,4,2,1,35,0,0
28827,-125,4,2,1,35,0,0
29170,-125,4,2,1,35,0,0
32598,-100,4,2,1,35,0,0
32684,-100,4,2,1,5,0,0
32941,350.877192982456,4,2,1,70,1,0
32941,-55.5555555555556,4,2,1,70,0,0
33201,-55.5555555555556,4,2,1,5,0,0
33288,-55.5555555555556,4,2,1,70,0,0
33291,-62.5,4,2,1,70,0,0
33375,-62.5,4,2,1,5,0,0
33462,-62.5,4,2,1,70,0,0
33905,-62.5,4,2,1,5,0,0
33993,-62.5,4,2,1,70,0,0
34256,-62.5,4,2,1,5,0,0
34344,-62.5,4,2,1,70,0,0
34607,-62.5,4,2,1,5,0,0
34695,-71.4285714285714,4,2,1,70,0,0
34870,-71.4285714285714,4,2,1,5,0,0
34958,-71.4285714285714,4,2,1,70,0,0
35309,-71.4285714285714,4,2,1,5,0,0
35387,346.820809248555,4,2,1,70,1,0
35387,-100,4,2,1,70,0,0
35647,-100,4,2,1,5,0,0
35733,346.820809248555,4,2,1,70,1,0
35733,-55.5555555555556,4,2,1,70,0,0
35993,-55.5555555555556,4,2,1,5,0,0
36079,-62.5,4,2,1,70,0,0
36158,-62.5,4,2,1,5,0,0
36245,-62.5,4,2,1,70,0,0
36686,-62.5,4,2,1,5,0,0
36773,-62.5,4,2,1,70,0,0
36860,-62.5,4,2,1,5,0,0
36946,-62.5,4,2,1,70,0,0
37033,-62.5,4,2,1,5,0,0
37120,-62.5,4,2,1,70,0,0
37375,-62.5,4,2,1,5,0,0
37462,-62.5,4,2,1,70,0,0
37553,-62.5,4,2,1,5,0,0
37640,-62.5,4,2,1,70,0,0
37813,-62.5,4,2,1,5,0,0
37900,-62.5,4,2,1,70,0,0
38071,-62.5,4,2,1,70,0,0
38160,357.142857142857,4,2,1,70,1,0
38160,-100,4,2,1,70,0,0
38419,-100,4,2,1,5,0,0
38517,348.837209302326,4,2,1,70,1,0
38517,-55.5555555555556,4,2,1,70,0,0
38778,-55.5555555555556,4,2,1,5,0,0
38865,-62.5,4,2,1,70,0,0
38953,-62.5,4,2,1,5,0,0
39029,-62.5,4,2,1,70,0,0
39476,-62.5,4,2,1,5,0,0
39563,-62.5,4,2,1,70,0,0
39825,-62.5,4,2,1,5,0,0
39912,-62.5,4,2,1,70,0,0
40173,-62.5,4,2,1,5,0,0
40261,-71.4285714285714,4,2,1,70,0,0
40348,-71.4285714285714,4,2,1,5,0,0
40435,-71.4285714285714,4,2,1,70,0,0
40610,-71.4285714285714,4,2,1,5,0,0
40697,-71.4285714285714,4,2,1,70,0,0
40871,-71.4285714285714,4,2,1,5,0,0
40958,-100,4,2,1,70,0,0
41220,-100,4,2,1,5,0,0
41307,346.820809248555,4,2,1,70,1,0
41307,-55.5555555555556,4,2,1,70,0,0
41567,-55.5555555555556,4,2,1,5,0,0
41653,-62.5,4,2,1,70,0,0
41740,-62.5,4,2,1,5,0,0
41827,-62.5,4,2,1,70,0,0
42260,-62.5,4,2,1,5,0,0
42347,-62.5,4,2,1,70,0,0
42434,-62.5,4,2,1,5,0,0
42520,-62.5,4,2,1,70,0,0
42607,-62.5,4,2,1,5,0,0
42694,-62.5,4,2,1,70,0,0
42953,-62.5,4,2,1,5,0,0
43041,-55.5555555555556,4,2,1,70,0,0
43301,-62.5,4,2,1,70,0,0
43387,-62.5,4,2,1,5,0,0
43474,-62.5,4,2,1,70,0,0
43648,-62.5,4,2,1,5,0,0
43651,-62.5,4,2,1,5,0,0
43734,-71.4285714285714,4,2,1,70,0,0
43994,-71.4285714285714,4,2,1,5,0,0
44081,-55.5555555555556,4,2,1,70,0,0
44688,-71.4285714285714,4,2,1,70,0,0
45815,-71.4285714285714,4,2,1,70,0,0
46596,-71.4285714285714,4,2,1,5,0,0
46682,-71.4285714285714,4,2,1,70,0,0
46768,-71.4285714285714,4,2,1,5,0,0
46856,349.854227405248,4,2,1,70,1,0
46856,-71.4285714285714,4,2,1,70,0,0
47117,-71.4285714285714,4,2,1,70,0,0
47205,-71.4285714285714,4,2,1,70,0,0
47555,-83.3333333333333,4,2,1,70,0,0
47905,-66.6666666666667,4,2,1,70,0,0
48167,-66.6666666666667,4,2,1,5,0,0
48255,-71.4285714285714,4,2,1,70,0,0
48342,-71.4285714285714,4,2,1,5,0,0
48430,-71.4285714285714,4,2,1,70,0,0
48692,-71.4285714285714,4,2,1,5,0,0
48780,-71.4285714285714,4,2,1,70,0,0
49654,-71.4285714285714,4,2,1,70,0,0
49917,-71.4285714285714,4,2,1,5,0,0
50004,-71.4285714285714,4,2,1,70,0,0
50092,-71.4285714285714,4,2,1,5,0,0
50179,-71.4285714285714,4,2,1,70,0,0
50442,-71.4285714285714,4,2,1,5,0,0
50529,-71.4285714285714,4,2,1,70,0,0
50619,-71.4285714285714,4,2,1,5,0,0
50704,338.983050847458,4,2,1,70,1,0
50704,-100,4,2,1,70,0,0
51042,343.839541547278,4,2,1,70,1,0
51042,-71.4285714285714,4,2,1,70,0,0
51299,-71.4285714285714,4,2,1,5,0,0
51385,-71.4285714285714,4,2,1,70,0,0
51471,-71.4285714285714,4,2,1,5,0,0
51557,-71.4285714285714,4,2,1,70,0,0
51643,-100,4,2,1,70,0,0
51815,-100,4,2,1,5,0,0
51901,-100,4,2,1,70,0,0
52159,-100,4,2,1,5,0,0
52245,-100,4,2,1,70,0,0
52331,-100,4,2,1,5,0,0
52417,346.820809248555,4,2,1,70,1,0
52417,-83.3333333333333,4,2,1,70,0,0
54584,-83.3333333333333,4,2,1,5,0,0
54671,-83.3333333333333,4,2,1,70,0,0
54758,-83.3333333333333,4,2,1,5,0,0
54844,-83.3333333333333,4,2,1,70,0,0
55191,357.142857142857,4,2,1,70,1,0
55191,-83.3333333333333,4,2,1,70,0,0
55453,-83.3333333333333,4,2,1,5,0,0
55540,-83.3333333333333,4,2,1,70,0,0
55637,-83.3333333333333,4,2,1,5,0,0
55726,-83.3333333333333,4,2,1,70,0,0
55905,-83.3333333333333,4,2,1,5,0,0
55994,-83.3333333333333,4,2,1,70,0,0
56177,-83.3333333333333,4,2,1,5,0,0
56262,338.983050847458,4,2,1,70,1,0
56262,-83.3333333333333,4,2,1,70,0,0
56600,346.820809248555,4,2,1,70,1,0
56600,-71.4285714285714,4,2,1,70,0,0
56860,-71.4285714285714,4,2,1,5,0,0
56946,-71.4285714285714,4,2,1,70,0,0
57640,-83.3333333333333,4,2,1,70,0,0
57900,-83.3333333333333,4,2,1,5,0,0
57987,-83.3333333333333,4,2,1,70,0,0
59631,-83.3333333333333,4,2,1,5,0,0
59717,-83.3333333333333,4,2,1,70,0,0
60154,-83.3333333333333,4,2,1,5,0,0
60241,-83.3333333333333,4,2,1,70,0,0
60324,-83.3333333333333,4,2,1,5,0,0
60415,-83.3333333333333,4,2,1,70,0,0
60761,350.877192982456,4,2,1,70,1,0
60761,-55.5555555555556,4,2,1,70,0,0
61019,-55.5555555555556,4,2,1,5,0,0
61111,-55.5555555555556,4,2,1,70,0,0
61287,-83.3333333333333,4,2,1,70,0,0
61462,-83.3333333333333,4,2,1,5,0,0
61550,-83.3333333333333,4,2,1,70,0,0
61725,-83.3333333333333,4,2,1,5,0,0
61813,-83.3333333333333,4,2,1,70,0,0
62076,-83.3333333333333,4,2,1,5,0,0
62164,343.839541547278,4,2,1,70,1,0
62164,-90.9090909090909,4,2,1,70,0,0
62421,-90.9090909090909,4,2,1,5,0,0
62507,-90.9090909090909,4,2,1,70,0,0
62851,-90.9090909090909,4,2,1,5,0,0
62937,-90.9090909090909,4,2,1,70,0,0
63109,-90.9090909090909,4,2,1,5,0,0
63195,-90.9090909090909,4,2,1,70,0,0
63534,343.347639484979,4,2,1,45,1,0
64907,368.098159509202,4,2,1,45,1,0
64907,-100,4,2,1,45,0,0
65091,333.333333333333,4,2,1,70,1,0
65257,335.195530726257,4,2,1,70,1,0
65424,-100,4,2,1,45,0,0
65593,359.281437125748,4,2,1,45,1,0
65593,-166.666666666667,4,2,1,45,0,0
65952,346.820809248555,4,2,1,70,1,0
66298,346.820809248555,4,2,1,50,1,0
66644,-100,4,2,1,45,0,0
66991,-100,4,2,1,40,0,0
67338,-100,4,2,1,35,0,0
67685,-100,4,2,1,30,0,0
68032,-100,4,2,1,40,0,0
68378,-250,4,2,1,50,0,0
69073,350.877192982456,4,2,1,65,1,0
69073,-55.5555555555556,4,2,1,65,0,0
69336,-55.5555555555556,4,2,1,5,0,0
69419,-55.5555555555556,4,2,1,65,0,0
69423,-71.4285714285714,4,2,1,65,0,0
69511,-71.4285714285714,4,2,1,5,0,0
69599,-71.4285714285714,4,2,1,65,0,0
70389,-71.4285714285714,4,2,1,5,0,0
70476,347.826086956522,4,2,1,65,1,0
70476,-71.4285714285714,4,2,1,65,0,0
70562,-71.4285714285714,4,2,1,5,0,0
70649,-71.4285714285714,4,2,1,65,0,0
70736,-71.4285714285714,4,2,1,5,0,0
70823,-62.5,4,2,1,65,0,0
71171,-71.4285714285714,4,2,1,65,0,0
71258,-71.4285714285714,4,2,1,5,0,0
71345,-71.4285714285714,4,2,1,65,0,0
71519,324.324324324324,4,2,1,65,1,0
71843,351.906158357771,4,2,1,65,1,0
71843,-55.5555555555556,4,2,1,65,0,0
72106,-55.5555555555556,4,2,1,5,0,0
72194,-71.4285714285714,4,2,1,65,0,0
72282,-71.4285714285714,4,2,1,5,0,0
72370,-71.4285714285714,4,2,1,65,0,0
73164,-71.4285714285714,4,2,1,5,0,0
73250,343.839541547278,4,2,1,65,1,0
73250,-71.4285714285714,4,2,1,65,0,0
73335,-71.4285714285714,4,2,1,5,0,0
73421,-71.4285714285714,4,2,1,65,0,0
73507,-71.4285714285714,4,2,1,5,0,0
73593,-71.4285714285714,4,2,1,65,0,0
73851,-83.3333333333333,4,2,1,65,0,0
74023,-83.3333333333333,4,2,1,5,0,0
74109,-83.3333333333333,4,2,1,65,0,0
74195,-83.3333333333333,4,2,1,5,0,0
74281,-71.4285714285714,4,2,1,65,0,0
74536,-71.4285714285714,4,2,1,5,0,0
74625,352.941176470588,4,2,1,65,1,0
74625,-55.5555555555556,4,2,1,65,0,0
74885,-55.5555555555556,4,2,1,5,0,0
74977,-71.4285714285714,4,2,1,65,0,0
75066,-71.4285714285714,4,2,1,5,0,0
75154,-71.4285714285714,4,2,1,65,0,0
75683,-83.3333333333333,4,2,1,65,0,0
75948,-83.3333333333333,4,2,1,5,0,0
76036,344.827586206897,4,2,1,65,1,0
76036,-71.4285714285714,4,2,1,65,0,0
76122,-71.4285714285714,4,2,1,5,0,0
76208,-71.4285714285714,4,2,1,65,0,0
76294,-71.4285714285714,4,2,1,5,0,0
76380,-71.4285714285714,4,2,1,65,0,0
76811,-71.4285714285714,4,2,1,5,0,0
76898,-71.4285714285714,4,2,1,65,0,0
76984,-71.4285714285714,4,2,1,5,0,0
77070,-62.5,4,2,1,65,0,0
77328,-62.5,4,2,1,5,0,0
77415,347.826086956522,4,2,1,65,1,0
77415,-62.5,4,2,1,65,0,0
77675,-62.5,4,2,1,5,0,0
77748,-62.5,4,2,1,65,0,0
77849,-62.5,4,2,1,5,0,0
77936,-62.5,4,2,1,65,0,0
78284,-62.5,4,2,1,55,0,0
78371,-62.5,4,2,1,5,0,0
78458,-62.5,4,2,1,55,0,0
78545,-62.5,4,2,1,5,0,0
78632,-62.5,4,2,1,55,0,0
78719,-62.5,4,2,1,5,0,0
78806,-83.3333333333333,4,2,1,55,0,0
79067,-83.3333333333333,4,2,1,5,0,0
79154,-83.3333333333333,4,2,1,45,0,0
79241,-83.3333333333333,4,2,1,5,0,0
79328,-83.3333333333333,4,2,1,45,0,0
79849,-90.9090909090909,4,2,1,45,0,0
80110,-90.9090909090909,4,2,1,5,0,0
80197,352.941176470588,4,2,1,35,1,0
81432,333.333333333333,4,2,1,30,1,0
81598,346.820809248555,4,2,1,25,1,0
82965,-100,4,2,1,15,0,0

[Colours]
Combo1 : 255,191,223
Combo2 : 255,186,180
Combo3 : 255,108,255
Combo4 : 255,151,203

[HitObjects]
382,138,10977,5,2,1:2:0:0:
471,165,11148,2,0,P|430:172|397:187,1,57.8499973518373,2|2,2:0|2:0,0:0:0:0:
299,236,11491,2,0,B|396:225|362:292|479:285,1,173.549992055512,2|2,1:2|2:0,0:0:0:0:
250,384,12348,6,0,P|232:345|232:268,1,115.699994703675,0|0,1:0|0:0,0:0:0:0:
332,165,12862,2,0,P|364:113|320:67,1,115.699994703675,2|2,1:2|2:0,0:0:0:0:
221,152,13377,6,0,L|182:163,1,28.9249986759186,2|0,2:0|0:0,0:0:0:0:
71,51,13548,2,0,L|112:63,1,28.9249986759186,2|0,2:0|0:0,0:0:0:0:
210,77,13719,6,0,B|243:48|220:11|167:7|121:43|122:106|122:106|111:128|86:143,1,222.5,6|2,1:2|2:0,0:0:0:0:
0,206,14234,2,0,P|94:217|174:235,1,173.549992055512,2|2,1:2|2:0,0:0:0:0:
170,234,15091,5,0,1:2:0:0:
218,290,15262,1,2,2:0:0:0:
201,338,15434,1,2,2:0:0:0:
304,384,15605,5,2,1:2:0:0:
296,367,15777,1,2,2:0:0:0:
303,356,15948,1,2,2:0:0:0:
319,355,16119,2,0,L|331:306,1,28.9249986759186,2|0,2:0|0:0,0:0:0:0:
497,273,16291,5,0,0:0:0:0:
486,242,16377,1,2,2:0:0:0:
500,225,16462,2,0,B|377:197|416:277|285:248,1,222.5,6|2,1:2|2:0,0:0:0:0:
107,165,16977,5,2,1:2:0:0:
168,123,17148,1,2,0:0:0:0:
227,178,17319,1,2,2:0:0:0:
100,91,17491,1,2,2:0:0:0:
100,91,17834,6,0,L|113:27,1,57.8499973518373,0|0,1:0|0:0,0:0:0:0:
92,10,18177,1,2,2:0:0:0:
218,70,18348,2,0,B|302:69|282:109|376:112,1,151.300002885819,2|2,1:2|2:0,0:0:0:0:
512,164,18862,6,0,P|488:159|462:153,1,37.8250007214546,2|0,2:0|0:0,0:0:0:0:
330,204,19034,2,0,P|354:199|380:193,1,37.8250007214546,2|0,2:0|0:0,0:0:0:0:
466,252,19205,6,0,B|502:228|470:155|394:180|366:231|400:298,1,222.706973978178,6|2,1:2|2:0,0:0:0:0:
476,377,19719,2,0,P|434:333|310:337,1,173.549992055512,2|2,1:2|2:0,0:0:0:0:
326,327,20405,1,0,0:0:0:0:
204,384,20577,38,0,P|212:345|216:314,1,57.8499973518373,0|2,1:0|2:0,0:0:0:0:
233,309,20919,1,2,2:0:0:0:
73,312,21091,2,0,P|58:243|52:196,1,115.699994703675,2|2,1:2|2:0,0:0:0:0:
191,35,21605,6,0,P|187:52|185:66,1,28.9249986759186,2|0,2:0|0:0,0:0:0:0:
0,144,21862,1,2,2:0:0:0:
0,144,21955,2,0,P|52:112|186:186,1,222.5,4|0,1:2|0:0,0:0:0:0:
153,267,22470,6,0,P|225:255|317:239,1,142.4,0|0,1:2|0:0,0:0:0:0:
374,129,22986,2,0,P|313:118|252:108,2,124.59999619751,2|2|0,2:0|1:2|0:0,0:0:0:0:
456,211,23846,5,0,1:0:0:0:
456,211,23932,1,2,0:0:0:0:
456,211,24018,2,0,B|475:251|475:251|451:298,1,89,0|2,0:0|2:0,0:0:0:0:
240,384,24361,6,0,L|233:338,1,28.9249986759186,2|0,2:0|0:0,0:0:0:0:
292,256,24533,2,0,L|299:210,1,28.9249986759186
430,121,24705,5,2,1:2:0:0:
373,169,24876,1,2,2:0:0:0:
325,151,25048,1,2,2:0:0:0:
225,58,25221,5,2,1:2:0:0:
293,19,25393,1,2,2:0:0:0:
356,64,25565,1,2,2:0:0:0:
234,76,25737,1,2,2:0:0:0:
155,18,25909,1,2,2:0:0:0:
53,65,26081,6,0,B|93:73|93:73|116:92|116:92|166:106,1,115.699994703675,2|2,1:2|2:0,0:0:0:0:
159,104,26768,6,0,P|165:141|171:173,1,57.8499973518373,2|2,2:0|2:0,0:0:0:0:
45,241,27026,1,0,0:0:0:0:
46,231,27112,2,0,P|73:220|116:217,1,57.8499973518373,2|0,2:0|0:0,0:0:0:0:
282,330,27370,5,2,0:0:0:0:
292,340,27456,2,0,B|303:390|218:424|178:342|196:278|287:247,1,222.5,4|0,1:2|0:0,0:0:0:0:
371,252,27970,2,0,P|405:194|367:150,1,115.699994703675,0|0,1:2|0:0,0:0:0:0:
485,71,28484,6,0,P|441:79|394:87,1,71.2,2|0,2:0|0:0,0:0:0:0:
292,171,28741,1,2,0:0:0:0:
284,178,28827,2,0,P|243:167|193:162,1,71.2,2|0,1:2|0:0,0:0:0:0:
95,15,29170,6,0,P|157:18|181:100,1,142.4,2|2,2:0|2:0,0:0:0:0:
178,96,29684,1,0,0:0:0:0:
46,306,29856,2,0,L|34:218,1,71.2
300,203,30198,5,2,1:2:0:0:
243,248,30370,1,2,2:0:0:0:
180,211,30541,1,2,2:0:0:0:
114,341,30713,5,2,1:2:0:0:
175,293,30884,1,2,2:0:0:0:
232,332,31055,1,2,2:0:0:0:
172,279,31228,1,2,2:0:0:0:
242,236,31398,1,2,2:0:0:0:
367,361,31570,6,0,P|404:311|356:238,1,142.4,2|0,1:2|0:0,0:0:0:0:
208,80,32084,1,2,1:2:0:0:
218,89,32256,2,0,B|213:130|208:163,1,71.2,2|0,2:0|0:0,0:0:0:0:
43,384,32598,6,0,P|39:353|33:318,1,44.5,2|0,2:0|0:0,0:0:0:0:
72,271,32941,6,0,B|51:306|12:308|12:308|51:346|123:359|167:272,1,240.299992666626,4|0,1:2|0:0,0:0:0:0:
252,368,33291,2,0,P|237:325|238:283,1,71.2,8|0,2:0|0:0,0:0:0:0:
280,220,33467,1,0,3:2:0:0:
272,207,33555,1,0,3:2:0:0:
400,269,33730,5,0,3:2:0:0:
408,262,33818,2,0,P|423:219|422:177,1,71.2,0|0,1:2|0:0,0:0:0:0:
331,86,33993,6,0,B|354:17|408:2|477:36|449:108|408:99,1,213.6,8|0,2:0|3:0,0:0:0:0:
330,195,34344,2,0,B|323:196|304:180|304:180|273:112|219:111|165:137|201:213|245:191,1,213.6,0|0,1:2|0:0,0:0:0:0:
93,281,34695,6,0,B|129:259|176:254|176:254|148:242|130:226,1,124.59999619751,10|0,2:0|3:2,0:0:0:0:
91,125,34958,2,0,P|83:165|73:208,1,62.2999980987549,0|2,3:2|2:0,0:0:0:0:
165,342,35133,1,0,3:2:0:0:
174,331,35221,2,0,B|202:340|202:340|207:338|207:338|237:345,1,62.2999980987549,2|0,1:2|0:0,0:0:0:0:
368,384,35387,6,0,P|336:335|377:273,1,133.5,10|0,2:0|0:0,0:0:0:0:
470,287,35733,6,0,B|446:285|425:299|425:299|376:255|396:187|451:182|451:182|427:204|426:230,1,240.299992666626,4|0,1:2|0:0,0:0:0:0:
512,127,36079,6,0,P|487:106|449:102,1,71.2,8|0,2:0|0:0,0:0:0:0:
344,159,36253,1,0,3:0:0:0:
331,175,36339,1,0,3:0:0:0:
259,76,36513,5,0,3:0:0:0:
252,67,36600,2,0,P|239:33|231:-6,1,71.2,2|0,1:2|0:0,0:0:0:0:
170,128,36773,2,0,P|134:122|92:107,1,71.2,10|0,2:0|0:0,0:0:0:0:
204,216,36946,2,0,P|182:245|149:278,1,71.2,2|0,3:2|3:2,0:0:0:0:
7,214,37120,6,0,B|44:168|105:175|127:222|127:222|116:271|174:296,1,213.6,2|0,1:2|0:0,0:0:0:0:
76,384,37467,2,0,P|62:347|69:306,1,71.2,10|0,2:0|0:0,0:0:0:0:
259,316,37640,5,0,3:2:0:0:
271,309,37727,2,0,P|285:272|278:231,1,71.2,0|2,3:2|0:0,0:0:0:0:
432,206,37900,5,0,3:2:0:0:
420,196,37987,1,2,1:2:0:0:
366,5,38160,6,0,B|308:30|308:30|323:115,1,133.5,10|0,2:0|0:0,0:0:0:0:
397,116,38517,6,0,B|326:123|258:79|258:79|304:119|297:163,1,240.299992666626,4|0,1:2|0:0,0:0:0:0:
207,214,38865,2,0,P|215:166|212:122,1,71.2,8|0,2:0|0:0,0:0:0:0:
122,98,39040,5,0,3:2:0:0:
113,90,39127,1,0,3:2:0:0:
237,2,39301,5,0,3:2:0:0:
248,9,39389,2,0,P|196:32|152:34,1,71.2,0|0,1:2|0:0,0:0:0:0:
44,7,39563,6,0,B|15:71|80:115|79:87|140:126|106:203,1,213.6,8|0,2:0|3:2,0:0:0:0:
20,315,39912,2,0,B|55:295|31:204|31:204|45:254|93:271,1,213.6,0|0,1:2|0:0,0:0:0:0:
165,384,40261,6,0,P|146:358|147:321,1,62.2999980987549,10|0,2:0|0:0,0:0:0:0:
314,216,40435,1,0,3:2:0:0:
320,229,40522,2,0,P|306:258|284:276,1,62.2999980987549,0|2,3:2|3:2,0:0:0:0:
179,135,40697,5,0,3:2:0:0:
189,131,40784,2,0,B|215:137|215:137|220:135|220:135|248:144,1,62.2999980987549,2|0,1:2|0:0,0:0:0:0:
475,29,40958,6,0,P|407:21|388:83,1,133.5,10|0,2:0|3:2,0:0:0:0:
435,148,41307,6,0,B|393:63|299:89|299:89|361:112|345:172,1,240.299992666626,4|0,1:2|0:0,0:0:0:0:
308,10,41653,2,0,P|267:20|222:38,1,71.2,8|0,2:0|0:0,0:0:0:0:
178,142,41827,1,0,3:0:0:0:
165,133,41913,1,0,3:0:0:0:
34,90,42087,5,0,3:0:0:0:
24,84,42174,2,0,P|49:58|104:49,1,71.2,2|0,1:2|0:0,0:0:0:0:
97,225,42347,2,0,P|84:185|90:140,1,71.2,10|0,2:0|0:0,0:0:0:0:
270,203,42520,2,0,P|228:210|187:243,1,71.2,2|0,3:2|3:2,0:0:0:0:
87,343,42694,6,0,B|24:335|43:236|145:248|180:326,1,213.6,2|0,1:2|0:0,0:0:0:0:
291,356,43041,2,0,B|273:308|315:275|328:290|359:259|353:202,1,160.199995111084,10|0,2:0|3:2,0:0:0:0:
461,235,43301,2,0,P|450:202|440:161,1,71.2,0|2,3:2|2:0,0:0:0:0:
491,27,43474,5,0,3:2:0:0:
502,34,43562,2,0,P|450:57|406:59,1,71.2,2|0,1:2|0:0,0:0:0:0:
264,51,43734,6,0,P|300:36|346:155,1,186.899994296265,10|0,2:0|3:2,0:0:0:0:
273,198,44081,5,4,1:2:0:0:
45,188,44254,1,2,2:0:0:0:
138,102,44428,1,10,2:0:0:0:
145,316,44601,5,2,3:2:0:0:
135,310,44688,1,0,3:2:0:0:
131,296,44775,2,0,P|142:258|148:224,1,62.2999980987549,2|0,0:0|3:2,0:0:0:0:
353,171,44948,5,2,1:2:0:0:
238,282,45122,1,10,2:0:0:0:
374,384,45295,5,2,0:0:0:0:
374,384,45382,1,0,3:2:0:0:
374,384,45468,2,0,B|432:359|432:359|416:277,1,124.59999619751,0|0,1:2|0:0,0:0:0:0:
347,178,45815,1,10,2:0:0:0:
456,65,45989,5,2,3:2:0:0:
467,62,46075,2,0,L|471:10,4,31.1499990493775,0|0|0|0|0,3:2|0:0|0:0|0:0|3:2,0:0:0:0:
512,131,46335,1,2,1:2:0:0:
360,101,46509,6,0,P|330:87|300:78,1,62.2999980987549,10|0,2:0|0:0,0:0:0:0:
260,174,46682,2,0,P|228:182|199:194,1,62.2999980987549,2|0,3:2|3:2,0:0:0:0:
66,119,46856,6,0,B|78:29|149:3|245:37|189:144|132:107,1,249.19999239502,6|10,1:2|2:0,0:0:0:0:
54,318,47380,1,2,3:2:0:0:
40,302,47468,1,0,0:0:0:0:
48,292,47555,2,0,B|36:240|36:240|40:230|40:230|22:174,1,106.799996740723,2|0,2:0|1:2,0:0:0:0:
257,245,47905,6,0,B|224:274|246:356|246:356|232:306|185:290,1,200.250007638932,10|0,2:0|3:2,0:0:0:0:
99,378,48255,6,0,P|136:371|171:364,1,62.2999980987549,2|0,1:2|0:0,0:0:0:0:
346,351,48430,1,2,2:0:0:0:
346,351,48517,1,2,0:0:0:0:
346,351,48605,2,0,P|322:307|316:277,1,62.2999980987549,10|0,2:0|0:0,0:0:0:0:
218,180,48780,1,2,3:2:0:0:
313,113,48955,5,0,3:0:0:0:
267,58,49130,1,0,1:2:0:0:
293,34,49304,1,8,2:0:0:0:
293,34,49654,6,0,B|404:27|350:97|482:84,1,186.899994296265,4|0,1:2|0:0,0:0:0:0:
512,205,50004,2,0,P|485:199|441:182,1,62.2999980987549,10|0,2:0|0:0,0:0:0:0:
396,261,50179,1,2,3:2:0:0:
398,271,50267,2,0,P|348:227|294:237,1,124.59999619751,0|0,3:2|3:2,0:0:0:0:
235,296,50529,2,0,P|245:337|248:369,1,62.2999980987549,2|0,1:2|0:0,0:0:0:0:
107,384,50704,6,0,B|49:359|49:359|63:277,1,133.5,10|0,2:0|3:2,0:0:0:0:
180,229,51042,2,0,B|199:177|154:142|140:158|107:125|113:64,1,186.899994296265,0|0,1:2|0:0,0:0:0:0:
17,214,51385,2,0,P|49:204|88:195,1,62.2999980987549,8|0,2:0|0:0,0:0:0:0:
195,61,51557,5,2,3:2:0:0:
205,56,51643,2,0,B|298:77,1,89,0|0,3:2|3:2,0:0:0:0:
384,155,51901,1,2,1:2:0:0:
495,88,52073,6,0,P|489:111|485:132,1,44.5,10|0,2:0|0:0,0:0:0:0:
354,0,52245,2,0,P|357:23|361:50,1,44.5,2|0,3:2|3:2,0:0:0:0:
359,258,52417,6,0,B|317:267|288:195|357:162|411:177|437:253,1,213.599993481446,6|10,1:2|2:0,0:0:0:0:
510,349,52937,1,2,3:2:0:0:
510,349,53023,1,0,3:2:0:0:
510,349,53110,2,0,P|429:326|381:325,1,107.5,2|0,2:0|1:2,0:0:0:0:
273,384,53457,5,10,2:0:0:0:
278,378,53804,5,2,1:2:0:0:
229,294,53977,1,2,2:0:0:0:
264,103,54151,5,10,2:0:0:0:
301,200,54324,1,2,3:2:0:0:
187,84,54497,6,0,P|173:126|148:158,1,53.75,2|0,2:0|3:2,0:0:0:0:
376,261,54671,2,0,P|383:214|387:190,1,53.3999983703614,2|0,1:2|0:0,0:0:0:0:
245,16,54844,5,10,2:0:0:0:
429,40,55018,5,2,3:2:0:0:
480,71,55104,1,0,3:2:0:0:
502,49,55191,2,0,P|430:51|370:121,1,160.199995111084,4|0,1:2|0:0,0:0:0:0:
302,207,55548,6,0,P|271:215|236:222,1,53.3999983703614,8|0,2:0|0:0,0:0:0:0:
60,289,55726,5,0,3:2:0:0:
66,285,55816,2,0,P|76:243|72:219,1,53.3999983703614,0|0,3:2|0:0,0:0:0:0:
245,347,55994,5,0,3:2:0:0:
239,343,56084,2,0,P|229:301|233:277,1,53.3999983703614,0|0,1:2|0:0,0:0:0:0:
102,39,56262,2,0,B|54:66|54:66|67:116,1,106.799996740723,10|0,2:0|3:2,0:0:0:0:
3,155,56516,5,0,3:2:0:0:
3,155,56600,2,0,B|122:131|87:198|195:183,1,186.899994296265,2|0,1:2|0:0,0:0:0:0:
255,130,56946,1,8,2:0:0:0:
416,31,57120,1,0,3:2:0:0:
395,20,57206,1,0,3:2:0:0:
378,27,57293,2,0,P|386:68|394:103,1,62.2999980987549,0|0,3:0|3:2,0:0:0:0:
344,164,57467,5,2,1:2:0:0:
512,186,57640,2,0,B|434:173|434:173|412:261,1,160.199995111084,10|0,2:0|3:0,0:0:0:0:
402,382,57987,1,2,1:2:0:0:
465,325,58160,1,2,2:0:0:0:
204,267,58334,5,10,2:0:0:0:
296,373,58507,1,2,3:2:0:0:
316,370,58594,1,0,3:2:0:0:
324,358,58680,2,0,L|311:285,1,53.3999983703614,2|0,3:2|3:2,0:0:0:0:
209,144,58854,5,2,1:2:0:0:
364,189,59027,2,0,B|302:191|313:218|251:223,1,106.799996740723,10|2,2:0|3:2,0:0:0:0:
0,281,59374,6,0,B|96:288|63:337|158:344,1,160.199995111084,2|0,1:2|0:0,0:0:0:0:
159,325,59721,1,10,2:0:0:0:
70,186,59894,5,2,3:2:0:0:
62,178,59981,1,0,3:2:0:0:
58,169,60068,2,0,P|53:126|47:93,1,53.3999983703614,2|0,3:2|3:2,0:0:0:0:
217,4,60241,2,0,P|212:47|206:80,1,53.3999983703614,2|0,1:2|0:0,0:0:0:0:
27,32,60415,6,0,P|88:39|142:76,1,106.799996740723,10|0,2:0|3:2,0:0:0:0:
269,211,60675,5,0,3:2:0:0:
277,222,60761,2,0,B|288:272|203:306|163:224|181:160|272:129,1,240.299992666626,4|0,1:2|0:0,0:0:0:0:
359,71,61111,1,8,2:0:0:0:
495,128,61287,5,0,3:2:0:0:
505,135,61375,2,0,P|464:155|436:159,1,53.3999983703614,0|0,3:2|3:0,0:0:0:0:
393,289,61550,5,0,3:2:0:0:
383,281,61638,2,0,P|375:233|377:206,1,53.3999983703614,0|0,1:2|0:0,0:0:0:0:
261,384,61813,2,0,B|298:353|301:318|301:318|321:352|366:373,1,160.199995111084,10|0,2:0|3:2,0:0:0:0:
230,291,62164,6,0,P|192:276|83:284,1,146.850004481506,2|0,1:2|0:0,0:0:0:0:
50,344,62507,1,10,2:0:0:0:
5,189,62679,1,0,3:2:0:0:
18,181,62765,2,0,P|32:148|34:119,1,48.9500014938355,0|2,3:2|2:0,0:0:0:0:
203,137,62937,5,0,3:2:0:0:
190,129,63023,2,0,P|176:96|174:67,1,48.9500014938355,0|0,1:2|0:0,0:0:0:0:
30,18,63195,5,8,2:0:0:0:
30,18,63534,5,2,2:0:0:0:
104,95,63706,1,2,2:0:0:0:
133,188,63877,1,2,2:0:0:0:
21,312,64049,5,2,2:0:0:0:
88,269,64220,1,2,2:0:0:0:
162,318,64391,1,2,2:0:0:0:
107,258,64564,1,2,2:0:0:0:
200,215,64734,1,2,2:0:0:0:
291,384,64907,6,0,P|329:360|291:237,1,170,2|0,2:0|0:0,0:0:0:0:
272,72,65424,5,2,2:0:0:0:
182,24,65593,2,0,P|172:89|168:134,1,106.799996740723,2|2,2:0|2:0,0:0:0:0:
168,129,66298,5,2,0:0:0:0:
167,123,66644,5,2,0:0:0:0:
166,117,66991,5,2,0:0:0:0:
165,111,67338,5,2,0:0:0:0:
164,105,67685,5,2,0:0:0:0:
51,73,68032,5,2,2:0:0:0:
51,73,68378,2,0,L|57:115,2,35.6,2|2|2,2:0|2:0|2:0,0:0:0:0:
51,73,69073,6,0,B|96:-13|194:28|194:28|148:42|134:90,1,240.299992666626,4|0,1:2|0:0,0:0:0:0:
291,131,69423,2,0,B|250:120|209:105,1,62.2999980987549,8|0,2:0|0:0,0:0:0:0:
315,25,69599,5,0,3:2:0:0:
335,11,69687,1,0,3:2:0:0:
371,162,69862,5,0,3:2:0:0:
390,176,69950,1,0,1:2:0:0:
512,33,70125,6,0,B|423:1|423:1|396:104,1,186.899994296265,8|0,2:0|3:2,0:0:0:0:
467,171,70476,2,0,P|473:199|482:234,1,62.2999980987549,0|0,1:2|0:0,0:0:0:0:
365,260,70649,2,0,P|359:290|350:323,1,62.2999980987549
114,384,70823,6,0,B|144:355|153:322|153:322|169:353|215:373,1,142.4,8|0,2:0|3:2,0:0:0:0:
286,254,71084,5,0,3:2:0:0:
278,262,71171,2,0,P|237:272|207:281,1,62.2999980987549,0|0,0:0|3:2,0:0:0:0:
29,200,71345,6,0,B|96:194|82:232|158:237,1,124.59999619751,0|2,1:2|2:0,0:0:0:0:
145,235,71843,6,0,B|96:251|53:170|131:121|196:133|236:220,1,240.299992666626,0|0,1:2|0:0,0:0:0:0:
368,307,72194,2,0,P|379:268|388:231,1,62.2999980987549,8|0,2:0|0:0,0:0:0:0:
294,162,72370,5,0,3:2:0:0:
285,145,72458,1,0,3:2:0:0:
436,78,72634,5,0,3:2:0:0:
445,61,72722,1,0,1:2:0:0:
316,0,72898,6,0,B|296:63|343:92|348:79|382:120|360:185,1,186.899994296265,8|0,2:0|3:2,0:0:0:0:
244,278,73250,6,0,P|272:267|305:261,1,62.2999980987549,0|0,1:2|0:0,0:0:0:0:
445,332,73421,2,0,P|417:321|384:315,1,62.2999980987549,0|0,3:0|0:0,0:0:0:0:
162,384,73593,6,0,P|126:331|152:274,1,124.59999619751,10|0,2:0|3:2,0:0:0:0:
38,261,73851,5,0,3:2:0:0:
42,252,73937,2,0,P|37:215|29:184,1,53.3999983703614,2|0,0:0|3:2,0:0:0:0:
203,203,74109,2,0,P|208:166|216:135,1,53.3999983703614,2|0,1:2|0:0,0:0:0:0:
0,113,74281,6,0,B|19:71|69:70|97:91|97:91|100:133|140:160,1,186.899994296265,10|0,2:0|3:2,0:0:0:0:
267,79,74625,6,0,B|314:80|329:-5|246:-28|189:-1|179:81,1,240.299992666626,4|0,1:2|0:0,0:0:0:0:
293,173,74977,2,0,P|329:180|376:199,1,62.2999980987549,8|0,2:0|0:0,0:0:0:0:
445,143,75154,5,0,3:2:0:0:
464,132,75242,1,0,3:2:0:0:
374,281,75419,5,0,3:2:0:0:
393,292,75507,1,0,1:2:0:0:
232,384,75683,6,0,B|269:353|272:318|272:318|291:353|340:372,1,160.199995111084,8|0,2:0|0:0,0:0:0:0:
242,233,76036,6,0,P|200:223|165:208,1,62.2999980987549,0|0,1:2|0:0,0:0:0:0:
118,348,76208,2,0,P|88:358|58:364,1,62.2999980987549
0,210,76380,6,0,B|68:211|46:248|121:258,1,124.59999619751,8|0,2:0|3:2,0:0:0:0:
231,150,76639,5,0,3:2:0:0:
238,139,76725,2,0,P|244:105|242:62,1,62.2999980987549,0|0,0:0|3:2,0:0:0:0:
101,22,76898,2,0,P|132:33|175:40,1,62.2999980987549,0|0,1:2|0:0,0:0:0:0:
400,75,77070,6,0,B|439:61|426:-14|350:-8|311:32|327:103,1,213.6,8|0,2:0|3:2,0:0:0:0:
443,239,77415,6,0,B|400:155|306:193|306:193|353:222|357:262,1,213.6,0|0,1:2|0:0,0:0:0:0:
346,336,77762,2,0,B|314:306|283:298,1,71.2,8|0,2:0|0:0,0:0:0:0:
188,374,77936,5,0,3:2:0:0:
178,384,78023,1,0,3:2:0:0:
110,266,78197,5,0,3:2:0:0:
98,266,78284,2,0,P|64:280|31:303,1,71.2,2|0,1:2|0:0,0:0:0:0:
83,180,78458,2,0,P|53:158|14:139,1,71.2,10|0,2:0|0:0,0:0:0:0:
150,133,78632,2,0,P|154:96|154:54,1,71.2,2|0,3:2|3:2,0:0:0:0:
269,28,78806,6,0,P|343:18|374:101,1,160.199995111084,2|0,1:2|0:0,0:0:0:0:
487,158,79154,2,0,P|451:168|422:177,1,53.3999983703614,10|0,2:0|0:0,0:0:0:0:
376,268,79328,5,0,3:2:0:0:
376,268,79415,1,0,3:2:0:0:
376,268,79501,2,0,P|340:258|309:254,1,53.3999983703614,2|0,2:0|3:2,0:0:0:0:
257,170,79675,1,2,1:2:0:0:
166,291,79849,6,0,B|249:281|219:338|318:337,1,146.850004481506,10|0,2:0|0:0,0:0:0:0:
310,329,80197,1,14,1:2:0:0:
256,192,80285,12,0,85759,0:0:0:0:
