osu file format v14

[General]
AudioFilename: audio.mp3
AudioLeadIn: 0
PreviewTime: 63448
Countdown: 0
SampleSet: Soft
StackLeniency: 0.4
Mode: 0
LetterboxInBreaks: 0
WidescreenStoryboard: 1

[Editor]
DistanceSpacing: 1.3
BeatDivisor: 4
GridSize: 8
TimelineZoom: 2

[Metadata]
Title:Break It Off
TitleUnicode:Break It Off
Artist:PinkPantheress
ArtistUnicode:PinkPantheress
Creator:DoIon
Version:hard
Source:
Tags:english breakcore dnb drum & and n bass pop pink pantherness tiktok tik tok adam f dolon -nenu-_4 xahlt gweon sua kuon- Sajinn Circles female vocals vocalist, d'n'b
BeatmapID:4026877
BeatmapSetID:1941451

[Difficulty]
HPDrainRate:4
CircleSize:4
OverallDifficulty:6
ApproachRate:7.5
SliderMultiplier:1.4
SliderTickRate:1

[Events]
//Background and Video events
0,0,"BG JAUNE.png",0,0
//Break Periods
//Storyboard Layer 0 (Background)
//Storyboard Layer 1 (Fail)
//Storyboard Layer 2 (Pass)
//Storyboard Layer 3 (Foreground)
//Storyboard Layer 4 (Overlay)
//Storyboard Sound Samples

[TimingPoints]
15,343.839541547278,4,2,1,70,1,0
10977,342.857142857143,4,2,1,35,1,0
10977,-142.857142857143,4,2,1,35,0,0
21955,343.839541547278,4,2,1,35,1,0
21955,-142.857142857143,4,2,1,35,0,0
27456,342.857142857143,4,2,1,35,1,0
27456,-142.857142857143,4,2,1,35,0,0
32941,350.877192982456,4,2,1,70,1,0
32941,-111.111111111111,4,2,1,70,0,0
34593,-111.111111111111,4,2,1,5,0,0
34694,-111.111111111111,4,2,1,70,0,0
35387,346.820809248555,4,2,1,70,1,0
35733,346.820809248555,4,2,1,70,1,0
35733,-111.111111111111,4,2,1,70,0,0
35984,-111.111111111111,4,2,1,5,0,0
36079,-111.111111111111,4,2,1,70,0,0
38160,357.142857142857,4,2,1,70,1,0
38517,348.837209302326,4,2,1,70,1,0
38517,-111.111111111111,4,2,1,70,0,0
38767,-111.111111111111,4,2,1,5,0,0
38865,-111.111111111111,4,2,1,70,0,0
40162,-111.111111111111,4,2,1,5,0,0
40260,-111.111111111111,4,2,1,70,0,0
41307,346.820809248555,4,2,1,70,1,0
41307,-111.111111111111,4,2,1,70,0,0
41558,-111.111111111111,4,2,1,5,0,0
41653,-111.111111111111,4,2,1,70,0,0
46856,349.854227405248,4,2,1,70,1,0
46856,-111.111111111111,4,2,1,70,0,0
50704,338.983050847458,4,2,1,70,1,0
51042,343.839541547278,4,2,1,70,1,0
51042,-111.111111111111,4,2,1,70,0,0
52417,346.820809248555,4,2,1,70,1,0
52417,-111.111111111111,4,2,1,70,0,0
55191,357.142857142857,4,2,1,70,1,0
55191,-111.111111111111,4,2,1,70,0,0
56262,338.983050847458,4,2,1,70,1,0
56262,-111.111111111111,4,2,1,70,0,0
56600,346.820809248555,4,2,1,70,1,0
56600,-111.111111111111,4,2,1,70,0,0
60761,350.877192982456,4,2,1,70,1,0
60761,-111.111111111111,4,2,1,70,0,0
62164,343.839541547278,4,2,1,70,1,0
62164,-111.111111111111,4,2,1,70,0,0
63534,343.347639484979,4,2,1,45,1,0
63534,-142.857142857143,4,2,1,45,0,0
64907,368.098159509202,4,2,1,45,1,0
65091,333.333333333333,4,2,1,70,1,0
65257,335.195530726257,4,2,1,70,1,0
65424,-100,4,2,1,45,0,0
65593,359.281437125748,4,2,1,45,1,0
65593,-142.857142857143,4,2,1,45,0,0
65952,346.820809248555,4,2,1,70,1,0
66298,346.820809248555,4,2,1,50,1,0
68032,-142.857142857143,4,2,1,50,0,0
69073,350.877192982456,4,2,1,65,1,0
69073,-100,4,2,1,65,0,0
70476,347.826086956522,4,2,1,65,1,0
70476,-100,4,2,1,65,0,0
71519,324.324324324324,4,2,1,65,1,0
71843,351.906158357771,4,2,1,65,1,0
71843,-100,4,2,1,65,0,0
73250,343.839541547278,4,2,1,65,1,0
73250,-100,4,2,1,65,0,0
74625,352.941176470588,4,2,1,65,1,0
74625,-100,4,2,1,65,0,0
76036,344.827586206897,4,2,1,65,1,0
76036,-100,4,2,1,65,0,0
77415,347.826086956522,4,2,1,65,1,0
77415,-111.111111111111,4,2,1,65,0,0
78272,-111.111111111111,4,2,1,55,0,0
79145,-111.111111111111,4,2,1,45,0,0
80197,352.941176470588,4,2,1,35,1,0
81432,333.333333333333,4,2,1,30,1,0
81598,346.820809248555,4,2,1,25,1,0
82965,-100,4,2,1,15,0,0

[Colours]
Combo1 : 145,255,34
Combo2 : 255,255,174
Combo3 : 193,255,193
Combo4 : 244,244,0

[HitObjects]
114,378,10977,6,0,P|75:350|86:291,1,97.9999970092774,2|2,1:2|2:0,0:0:0:0:
31,240,11491,1,2,1:2:0:0:
31,240,11662,2,0,P|59:233|102:226,1,48.9999985046387,2|2,2:0|2:0,0:0:0:0:
147,266,12005,1,2,2:0:0:0:
252,382,12348,6,0,P|291:354|280:295,1,97.9999970092774,0|0,1:0|0:0,0:0:0:0:
228,266,12862,1,2,1:2:0:0:
228,266,13034,2,0,P|235:238|238:199,1,48.9999985046387,2|2,2:0|2:0,0:0:0:0:
315,205,13377,2,0,P|308:177|305:138,1,48.9999985046387,2|2,2:0|2:0,0:0:0:0:
308,78,13719,6,0,B|364:80|351:108|409:111,1,97.9999970092774,6|2,1:2|2:0,0:0:0:0:
473,133,14234,2,0,P|457:202|451:239,1,97.9999970092774,2|2,1:2|2:0,0:0:0:0:
380,259,14748,1,2,2:0:0:0:
230,307,15091,6,0,P|293:309|366:361,2,146.999995513916,0|2|2,1:2|1:2|2:0,0:0:0:0:
92,382,16462,6,0,P|70:333|97:287,1,97.9999970092774,6|2,1:2|2:0,0:0:0:0:
157,260,16977,2,0,P|152:218|143:152,1,97.9999970092774,2|2,1:2|2:0,0:0:0:0:
89,106,17491,1,2,2:0:0:0:
217,16,17834,6,0,B|276:17|257:38|316:43,1,97.9999970092774,0|2,1:0|2:0,0:0:0:0:
385,20,18348,1,2,1:2:0:0:
385,20,18519,2,0,P|389:53|393:73,1,48.9999985046387,2|2,2:0|2:0,0:0:0:0:
464,100,18862,2,0,P|460:133|456:153,1,48.9999985046387,2|2,2:0|2:0,0:0:0:0:
417,216,19205,6,0,P|375:184|321:182,1,97.9999970092774,6|2,1:2|2:0,0:0:0:0:
286,115,19719,2,0,P|239:124|182:135,1,97.9999970092774,2|2,1:2|2:0,0:0:0:0:
134,189,20234,1,2,2:0:0:0:
83,40,20577,6,0,P|77:65|74:91,1,48.9999985046387,0|2,1:0|2:0,0:0:0:0:
14,138,20919,2,0,P|20:163|23:189,1,48.9999985046387,2|2,2:0|1:2,0:0:0:0:
34,263,21262,2,0,P|59:256|85:250,1,48.9999985046387,2|2,2:0|2:0,0:0:0:0:
132,307,21605,2,0,P|157:314|181:320,1,48.9999985046387,2|2,2:0|2:0,0:0:0:0:
240,371,21955,6,0,P|314:330|303:266,1,146.999995513916,4|0,1:2|1:2,0:0:0:0:
416,67,22986,5,2,2:0:0:0:
291,162,23330,2,0,B|378:156|356:204|444:199,1,146.999995513916,2|0,1:2|1:0,0:0:0:0:
240,371,24361,1,2,2:0:0:0:
392,333,24705,6,0,P|369:325|342:320,1,48.9999985046387,2|2,1:2|2:0,0:0:0:0:
305,251,25049,2,0,P|282:259|255:264,1,48.9999985046387,2|2,2:0|1:2,0:0:0:0:
197,314,25393,2,0,P|182:285|178:263,1,48.9999985046387,2|2,2:0|2:0,0:0:0:0:
214,199,25737,2,0,P|229:170|233:148,1,48.9999985046387,2|2,2:0|2:0,0:0:0:0:
153,153,26081,6,0,P|110:129|111:78,1,97.9999970092774,2|2,1:2|2:0,0:0:0:0:
106,5,26596,2,0,P|159:14|223:28,1,97.9999970092774,2|2,1:2|2:0,0:0:0:0:
263,72,27112,1,2,2:0:0:0:
421,30,27456,6,0,P|477:90|444:142,1,146.999995513916,4|0,1:2|1:2,0:0:0:0:
231,259,28484,1,2,2:0:0:0:
341,380,28827,2,0,P|347:288|351:219,1,146.999995513916,2|0,1:2|1:2,0:0:0:0:
224,16,29856,1,0,0:0:0:0:
290,165,30198,6,0,P|269:158|234:149,1,48.9999985046387,2|2,1:2|2:0,0:0:0:0:
188,89,30541,2,0,P|167:96|132:102,1,48.9999985046387,2|2,2:0|1:2,0:0:0:0:
67,142,30884,2,0,P|74:167|77:192,1,48.9999985046387,2|2,2:0|2:0,0:0:0:0:
24,255,31227,1,2,2:0:0:0:
24,255,31398,1,2,2:0:0:0:
78,316,31570,5,2,1:2:0:0:
323,360,32084,5,2,1:2:0:0:
323,360,32256,2,0,P|346:314|320:266,1,97.9999970092774,2|2,2:0|2:0,0:0:0:0:
195,158,32941,6,0,B|277:151|247:191|320:190,1,125.999996154785,4|8,1:2|2:0,0:0:0:0:
373,126,33467,1,0,3:2:0:0:
373,126,33555,1,0,3:2:0:0:
373,126,33642,2,0,P|408:118|439:114,1,62.9999980773926,0|0,3:0|1:2,0:0:0:0:
492,47,33993,2,0,P|457:39|426:35,1,62.9999980773926,8|0,2:0|3:0,0:0:0:0:
342,43,34344,6,0,P|277:24|231:62,1,125.999996154785,0|10,1:2|2:0,0:0:0:0:
162,13,34870,1,0,3:2:0:0:
162,13,35046,2,0,P|154:44|149:77,1,62.9999980773926,2|2,2:0|1:2,0:0:0:0:
71,126,35387,1,10,2:0:0:0:
62,137,35733,6,0,B|138:139|115:173|198:188,1,125.999996154785,4|8,1:2|2:0,0:0:0:0:
258,142,36253,1,0,3:0:0:0:
258,142,36339,1,0,3:0:0:0:
258,142,36426,1,0,3:0:0:0:
286,225,36600,5,2,1:2:0:0:
206,265,36773,2,0,P|194:234|196:204,1,62.9999980773926,10|2,2:0|3:2,0:0:0:0:
366,187,37120,2,0,P|377:217|375:248,1,62.9999980773926,2|0,1:2|0:0,0:0:0:0:
290,326,37467,6,0,P|323:330|374:347,1,62.9999980773926,10|0,2:0|0:0,0:0:0:0:
451,370,37813,2,0,P|436:336|432:301,1,62.9999980773926,2|2,2:0|1:2,0:0:0:0:
493,237,38160,1,10,2:0:0:0:
494,225,38517,6,0,P|481:142|473:79,1,125.999996154785,4|8,1:2|2:0,0:0:0:0:
498,12,39040,1,0,3:2:0:0:
498,12,39127,1,0,3:2:0:0:
498,12,39214,2,0,P|461:24|426:29,1,62.9999980773926,0|0,3:0|1:2,0:0:0:0:
386,105,39563,2,0,P|349:93|313:88,1,62.9999980773926,8|0,2:0|3:2,0:0:0:0:
255,27,39912,6,0,B|181:17|202:60|118:55,1,125.999996154785,0|10,1:2|2:0,0:0:0:0:
66,7,40435,1,0,3:2:0:0:
66,7,40610,2,0,P|47:40|65:86,1,62.9999980773926,2|2,2:0|1:2,0:0:0:0:
93,137,40958,1,10,2:0:0:0:
4,298,41307,6,0,P|44:260|124:262,1,125.999996154785,4|8,1:2|2:0,0:0:0:0:
189,317,41827,1,0,3:0:0:0:
189,317,41913,1,0,3:0:0:0:
189,317,42000,1,0,3:0:0:0:
274,273,42174,5,2,1:2:0:0:
256,185,42347,2,0,P|224:194|202:214,1,62.9999980773926,10|2,2:0|3:2,0:0:0:0:
293,359,42694,2,0,P|324:349|346:328,1,62.9999980773926,2|0,1:2|0:0,0:0:0:0:
439,341,43041,6,0,P|421:302|423:276,1,62.9999980773926,10|0,2:0|3:2,0:0:0:0:
487,223,43387,1,2,2:0:0:0:
487,223,43561,1,2,1:2:0:0:
445,145,43734,2,0,P|407:104|321:119,1,125.999996154785,10|4,2:0|1:2,0:0:0:0:
275,35,44254,5,2,2:0:0:0:
275,35,44428,2,0,P|233:45|199:51,1,62.9999980773926,10|2,2:0|3:2,0:0:0:0:
158,117,44775,2,0,P|116:107|83:101,1,62.9999980773926,2|2,2:0|1:2,0:0:0:0:
30,162,45122,1,10,2:0:0:0:
54,255,45295,5,2,3:2:0:0:
54,255,45382,1,0,3:2:0:0:
54,255,45468,2,0,B|129:252|109:291|189:291,1,125.999996154785,0|10,1:2|2:0,0:0:0:0:
242,362,45989,2,0,P|257:329|257:297,1,62.9999980773926,2|0,3:2|0:0,0:0:0:0:
336,260,46335,1,2,1:2:0:0:
336,260,46509,2,0,P|321:227|320:195,1,62.9999980773926,10|2,2:0|0:0,0:0:0:0:
410,203,46856,6,0,P|463:179|453:102,1,125.999996154785,6|10,1:2|0:0,0:0:0:0:
500,25,47380,1,2,3:2:0:0:
500,25,47468,1,0,3:2:0:0:
500,25,47555,2,0,P|460:32|426:39,1,62.9999980773926,2|0,2:0|1:0,0:0:0:0:
371,103,47905,1,10,2:0:0:0:
217,2,48255,6,0,P|211:34|203:65,1,62.9999980773926,2|2,1:2|0:0,0:0:0:0:
276,123,48605,1,10,2:0:0:0:
211,187,48780,6,0,P|178:192|148:200,1,62.9999980773926,2|0,3:2|0:0,0:0:0:0:
131,214,49042,1,0,3:2:0:0:
131,214,49130,1,0,1:2:0:0:
60,271,49304,2,0,P|58:304|74:339,1,62.9999980773926,8|0,2:0|0:0,0:0:0:0:
153,370,49654,6,0,B|224:365|209:328|277:327,1,125.999996154785,4|10,1:2|2:0,0:0:0:0:
354,380,50179,1,2,3:2:0:0:
354,380,50354,2,0,P|360:341|362:312,1,62.9999980773926,2|2,2:0|1:2,0:0:0:0:
447,263,50704,1,10,2:0:0:0:
464,173,50873,5,2,3:2:0:0:
464,173,50958,1,0,3:2:0:0:
464,173,51042,2,0,P|429:125|344:124,1,125.999996154785,0|8,1:2|2:0,0:0:0:0:
336,31,51557,2,0,P|306:39|272:47,1,62.9999980773926,2|0,3:2|0:0,0:0:0:0:
198,12,51901,1,2,1:2:0:0:
113,37,52073,2,0,P|97:63|117:117,1,62.9999980773926,10|2,2:0|0:0,0:0:0:0:
16,157,52417,6,0,B|92:159|65:198|148:199,1,125.999996154785,6|10,1:2|2:0,0:0:0:0:
222,175,52937,1,2,3:2:0:0:
222,175,53023,1,0,3:2:0:0:
222,175,53110,2,0,P|212:211|205:240,1,62.9999980773926,2|0,2:0|1:2,0:0:0:0:
132,285,53457,1,10,2:0:0:0:
278,383,53804,6,0,P|308:375|338:366,1,62.9999980773926,2|2,1:2|2:0,0:0:0:0:
408,311,54151,1,10,2:0:0:0:
408,311,54324,1,2,3:2:0:0:
367,238,54497,1,2,2:0:0:0:
367,238,54671,1,2,1:2:0:0:
431,177,54844,5,10,2:0:0:0:
391,109,55018,1,2,3:2:0:0:
391,109,55104,1,0,3:2:0:0:
391,109,55191,2,0,P|337:66|261:82,1,125.999996154785,4|8,1:2|2:0,0:0:0:0:
212,35,55726,5,0,3:2:0:0:
212,35,55816,1,0,3:2:0:0:
212,35,55905,2,0,P|181:44|149:51,1,62.9999980773926,0|0,0:0|1:2,0:0:0:0:
81,3,56262,2,0,P|63:41|61:68,1,62.9999980773926,10|0,2:0|3:2,0:0:0:0:
15,134,56600,6,0,P|29:209|39:274,1,125.999996154785,2|8,1:2|2:0,0:0:0:0:
22,351,57120,1,0,3:2:0:0:
22,351,57206,1,0,3:2:0:0:
22,351,57293,2,0,P|51:340|85:331,1,62.9999980773926,0|2,0:0|1:2,0:0:0:0:
128,256,57640,1,10,2:0:0:0:
251,382,57987,6,0,P|264:349|263:320,1,62.9999980773926,2|2,1:2|2:0,0:0:0:0:
213,248,58334,2,0,P|200:215|201:186,1,62.9999980773926,10|2,2:0|3:2,0:0:0:0:
185,101,58680,2,0,P|218:108|251:117,1,62.9999980773926,2|2,2:0|1:2,0:0:0:0:
318,174,59027,1,10,2:0:0:0:
318,174,59201,1,2,3:2:0:0:
395,132,59374,6,0,P|432:90|387:33,1,125.999996154785,2|10,1:2|2:0,0:0:0:0:
325,11,59894,1,2,3:2:0:0:
325,11,59981,1,0,3:2:0:0:
325,11,60068,2,0,P|297:19|258:24,1,62.9999980773926,2|2,2:0|1:2,0:0:0:0:
197,82,60415,2,0,P|169:74|130:69,1,62.9999980773926,10|0,2:0|3:2,0:0:0:0:
65,18,60761,6,0,P|26:72|57:133,1,125.999996154785,4|8,1:2|2:0,0:0:0:0:
20,213,61287,1,0,3:2:0:0:
20,213,61375,1,0,3:2:0:0:
20,213,61462,2,0,P|53:205|90:201,1,62.9999980773926,0|0,0:0|1:2,0:0:0:0:
152,148,61813,1,10,2:0:0:0:
48,295,62164,6,0,B|129:285|106:323|186:320,1,125.999996154785,2|10,1:2|2:0,0:0:0:0:
252,371,62679,1,0,3:2:0:0:
252,371,62765,1,0,3:2:0:0:
252,371,62851,2,0,P|282:360|317:352,1,62.9999980773926,2|0,2:0|1:2,0:0:0:0:
396,380,63195,1,8,2:0:0:0:
504,243,63534,6,0,P|470:237|439:227,1,48.9999985046387,2|2,2:0|2:0,0:0:0:0:
412,298,63877,2,0,P|386:274|366:249,1,48.9999985046387,2|2,2:0|2:0,0:0:0:0:
303,291,64220,2,0,P|294:257|291:225,1,48.9999985046387,2|2,2:0|2:0,0:0:0:0:
214,231,64564,2,0,P|225:198|239:169,1,48.9999985046387,2|2,2:0|2:0,0:0:0:0:
301,149,64907,1,2,2:0:0:0:
49,36,65424,5,2,2:0:0:0:
49,36,65593,2,0,B|103:33|94:63|155:56,1,97.9999970092774,2|2,2:0|2:0,0:0:0:0:
512,47,68032,6,0,P|478:37|448:32,1,48.9999985046387,2|0,2:0|0:0,0:0:0:0:
404,75,68378,2,0,P|370:85|340:90,2,48.9999985046387,2|2|2,2:0|2:0|2:0,0:0:0:0:
205,11,69073,6,0,P|140:38|156:125,1,140,4|8,1:2|2:0,0:0:0:0:
66,170,69599,1,0,3:2:0:0:
66,170,69687,1,0,3:2:0:0:
66,170,69774,2,0,P|101:174|143:183,1,70,0|0,0:0|1:2,0:0:0:0:
184,266,70125,2,0,P|219:262|261:253,1,70,8|0,2:0|0:0,0:0:0:0:
302,168,70476,6,0,B|385:169|364:208|437:209,1,140,0|8,1:2|2:0,0:0:0:0:
487,130,70997,1,0,3:2:0:0:
487,130,71084,1,0,3:2:0:0:
487,130,71171,2,0,P|492:91|473:59,1,70,0|0,3:0|1:2,0:0:0:0:
394,0,71519,1,2,2:0:0:0:
213,0,71843,6,0,P|218:69|225:146,1,140,0|8,1:2|2:0,0:0:0:0:
237,240,72370,1,0,3:2:0:0:
237,240,72546,2,0,P|195:227|162:223,1,70,0|0,0:0|1:2,0:0:0:0:
90,282,72898,1,8,2:0:0:0:
29,218,73074,5,0,3:2:0:0:
29,218,73162,1,0,3:2:0:0:
29,218,73250,2,0,P|1:164|57:94,1,140,0|10,1:2|2:0,0:0:0:0:
15,14,73765,1,0,3:2:0:0:
15,14,73851,1,0,3:2:0:0:
15,14,73937,2,0,P|52:22|91:29,1,70,2|2,2:0|1:2,0:0:0:0:
118,119,74281,2,0,P|164:110|194:104,1,70,10|0,2:0|3:2,0:0:0:0:
277,73,74625,6,0,P|318:29|410:48,1,140,4|8,1:2|2:0,0:0:0:0:
473,107,75154,1,0,3:2:0:0:
473,107,75242,1,0,3:2:0:0:
473,107,75330,2,0,P|465:152|457:187,1,70,0|0,0:0|1:2,0:0:0:0:
364,176,75683,2,0,P|370:222|376:259,1,70,8|0,2:0|0:0,0:0:0:0:
445,316,76036,6,0,B|370:317|387:354|310:357,1,140,0|8,1:2|2:0,0:0:0:0:
280,274,76553,1,0,3:2:0:0:
280,274,76639,1,0,3:2:0:0:
280,274,76725,2,0,P|238:285|205:292,1,70,0|0,0:0|1:2,0:0:0:0:
146,364,77070,1,8,2:0:0:0:
31,231,77415,6,0,P|7:177|47:114,1,125.999996154785,0|8,1:2|2:0,0:0:0:0:
124,95,77936,1,0,3:2:0:0:
124,95,78023,1,0,3:2:0:0:
124,95,78110,1,0,0:0:0:0:
203,57,78284,5,2,1:2:0:0:
283,97,78458,2,0,P|295:66|293:36,1,62.9999980773926,10|2,2:0|3:2,0:0:0:0:
123,19,78806,2,0,P|112:49|114:80,1,62.9999980773926,2|0,1:2|0:0,0:0:0:0:
192,136,79154,6,0,P|199:183|203:209,1,62.9999980773926,10|0,2:0|3:2,0:0:0:0:
152,273,79501,1,2,2:0:0:0:
152,273,79675,1,2,1:2:0:0:
212,343,79849,2,0,P|257:308|335:322,1,125.999996154785,10|14,2:0|1:2,0:0:0:0:
256,192,80285,12,0,85759,0:0:0:0:
