osu file format v14

[General]
AudioFilename: audio.mp3
AudioLeadIn: 0
PreviewTime: 341243
Countdown: 0
SampleSet: Normal
StackLeniency: 0.7
Mode: 3
LetterboxInBreaks: 0
SpecialStyle: 0
WidescreenStoryboard: 0

[Editor]
Bookmarks: 288101,329243,373089,463089,493089,581778,609206,742221
DistanceSpacing: 0.6
BeatDivisor: 2
GridSize: 4
TimelineZoom: 1.999999

[Metadata]
Title:PINK SEASON: THE PROPHECY (FT. GETTER, BORGORE, AXEL BOY, TASTYTREAT)
TitleUnicode:PINK SEASON: THE PROPHECY (FT. GETTER, BORGORE, AXEL BOY, TASTYTREAT)
Artist:Pink Omega
ArtistUnicode:Pink Omega
Creator:Stats-Kun
Version:Highest Grade of Filth
Source:TVFilthyFrank
Tags:rip
BeatmapID:1716363
BeatmapSetID:818590

[Difficulty]
HPDrainRate:6
CircleSize:4
OverallDifficulty:7
ApproachRate:5
SliderMultiplier:1.4
SliderTickRate:1

[Events]
//Background and Video events
0,0,"background_marathon.png",0,0
//Break Periods
2,178587,184044
2,260873,266330
2,267730,273187
2,558089,580578
2,664263,676470
//Storyboard Layer 0 (Background)
//Storyboard Layer 1 (Fail)
//Storyboard Layer 2 (Pass)
//Storyboard Layer 3 (Foreground)
//Storyboard Sound Samples

[TimingPoints]
41245,428.571428571429,4,1,0,100,1,0
96102,428.571428571429,4,1,0,100,1,0
150959,428.571428571429,4,1,0,100,1,0
260673,428.571428571429,4,1,0,100,1,0
288101,428.571428571429,4,1,0,100,1,0
340386,-111.111111111111,4,1,0,100,0,0
340601,-125,4,1,0,100,0,0
340815,-142.857142857143,4,1,0,100,0,0
341029,-166.666666666667,4,1,0,100,0,0
341243,923.076923076923,4,1,0,100,1,0
341243,-100,4,1,0,100,0,0
341704,-114.285714285714,4,1,0,100,0,0
342166,-133.333333333333,4,1,0,100,0,0
342627,-160,4,1,0,100,0,0
342743,-100,4,1,0,100,0,0
342858,-80,4,1,0,100,0,0
342973,-66.6666666666667,4,1,0,100,0,0
343089,468.75,4,1,0,100,1,0
433089,468.75,4,1,0,100,1,0
463089,468.75,4,1,0,100,1,0
553089,468.75,4,1,0,100,1,0
581778,428.571428571429,4,1,0,100,1,0
609206,428.571428571429,4,1,0,100,1,0
677670,413.793103448276,4,1,0,100,1,0

[HitObjects]
64,192,41245,128,0,44673:0:0:0:0:
448,192,41245,1,0,0:0:0:0:
448,192,42959,1,0,0:0:0:0:
192,192,44673,128,0,48102:0:0:0:0:
320,192,44673,1,0,0:0:0:0:
320,192,46387,1,0,0:0:0:0:
448,192,48102,128,0,51530:0:0:0:0:
64,192,48102,1,0,0:0:0:0:
64,192,49816,1,0,0:0:0:0:
320,192,51530,128,0,54959:0:0:0:0:
192,192,51530,1,0,0:0:0:0:
192,192,53245,1,0,0:0:0:0:
192,192,54959,128,0,63530:0:0:0:0:
64,192,54959,1,0,0:0:0:0:
320,192,56673,128,0,65245:0:0:0:0:
64,192,58387,128,0,61816:0:0:0:0:
448,192,60102,128,0,65245:0:0:0:0:
192,192,65245,128,0,68673:0:0:0:0:
64,192,68673,128,0,68887:0:0:0:0:
192,192,68887,128,0,69102:0:0:0:0:
448,192,69102,128,0,69316:0:0:0:0:
320,192,69316,128,0,69530:0:0:0:0:
64,192,69959,128,0,70173:0:0:0:0:
192,192,70173,128,0,70387:0:0:0:0:
448,192,70387,128,0,70602:0:0:0:0:
320,192,70602,128,0,70816:0:0:0:0:
192,192,70816,128,0,71030:0:0:0:0:
64,192,71030,128,0,71245:0:0:0:0:
448,192,71245,128,0,71459:0:0:0:0:
320,192,71245,1,0,0:0:0:0:
64,192,71459,128,0,71673:0:0:0:0:
448,192,71673,128,0,71887:0:0:0:0:
320,192,71673,1,0,0:0:0:0:
64,192,71887,128,0,72102:0:0:0:0:
320,192,72102,128,0,72316:0:0:0:0:
192,192,72316,128,0,72530:0:0:0:0:
448,192,72530,128,0,72745:0:0:0:0:
320,192,72745,128,0,72959:0:0:0:0:
64,192,73387,128,0,73602:0:0:0:0:
192,192,73602,128,0,73816:0:0:0:0:
448,192,73816,128,0,74030:0:0:0:0:
320,192,74030,128,0,74245:0:0:0:0:
192,192,74245,128,0,74459:0:0:0:0:
64,192,74459,128,0,74673:0:0:0:0:
320,192,74673,1,0,0:0:0:0:
448,192,74673,1,0,0:0:0:0:
64,192,74887,1,0,0:0:0:0:
320,192,75102,1,0,0:0:0:0:
448,192,75102,1,0,0:0:0:0:
64,192,75316,1,0,0:0:0:0:
320,192,75530,128,0,75745:0:0:0:0:
192,192,75745,128,0,75959:0:0:0:0:
448,192,75959,128,0,76173:0:0:0:0:
320,192,76173,128,0,76387:0:0:0:0:
448,192,76816,128,0,77030:0:0:0:0:
320,192,77030,128,0,77245:0:0:0:0:
64,192,77245,128,0,77459:0:0:0:0:
192,192,77459,128,0,77673:0:0:0:0:
320,192,77673,128,0,77887:0:0:0:0:
448,192,77887,128,0,78102:0:0:0:0:
320,192,78102,128,0,78316:0:0:0:0:
192,192,78102,1,0,0:0:0:0:
192,192,78316,128,0,78530:0:0:0:0:
320,192,78530,128,0,78745:0:0:0:0:
448,192,78530,1,0,0:0:0:0:
192,192,78745,128,0,78959:0:0:0:0:
64,192,78959,128,0,79173:0:0:0:0:
448,192,79173,128,0,79387:0:0:0:0:
192,192,79387,128,0,79602:0:0:0:0:
320,192,79602,128,0,79816:0:0:0:0:
448,192,80245,128,0,80459:0:0:0:0:
320,192,80459,128,0,80673:0:0:0:0:
192,192,80673,128,0,80887:0:0:0:0:
320,192,80887,128,0,81102:0:0:0:0:
192,192,81102,128,0,81316:0:0:0:0:
64,192,81316,128,0,81530:0:0:0:0:
192,192,81530,1,0,0:0:0:0:
320,192,81530,1,0,0:0:0:0:
64,192,81745,1,0,0:0:0:0:
448,192,81745,1,0,0:0:0:0:
192,192,81959,1,0,0:0:0:0:
320,192,81959,1,0,0:0:0:0:
64,192,82173,1,0,0:0:0:0:
448,192,82173,1,0,0:0:0:0:
64,192,82387,128,0,82602:0:0:0:0:
192,192,82602,128,0,82816:0:0:0:0:
448,192,82816,128,0,83030:0:0:0:0:
320,192,83030,128,0,83245:0:0:0:0:
192,192,83245,1,0,0:0:0:0:
192,192,83459,1,0,0:0:0:0:
64,192,83673,128,0,83887:0:0:0:0:
192,192,83887,128,0,84102:0:0:0:0:
448,192,84102,128,0,84316:0:0:0:0:
320,192,84316,128,0,84530:0:0:0:0:
192,192,84530,128,0,84745:0:0:0:0:
64,192,84745,128,0,84959:0:0:0:0:
448,192,84959,128,0,85173:0:0:0:0:
320,192,84959,1,0,0:0:0:0:
64,192,85173,128,0,85387:0:0:0:0:
192,192,85173,1,0,0:0:0:0:
448,192,85387,128,0,85602:0:0:0:0:
320,192,85387,1,0,0:0:0:0:
64,192,85602,128,0,85816:0:0:0:0:
192,192,85602,1,0,0:0:0:0:
320,192,85816,128,0,86030:0:0:0:0:
192,192,86030,128,0,86245:0:0:0:0:
64,192,86245,128,0,86459:0:0:0:0:
192,192,86459,128,0,86673:0:0:0:0:
320,192,86673,1,0,0:0:0:0:
320,192,86887,1,0,0:0:0:0:
64,192,87102,128,0,87316:0:0:0:0:
192,192,87316,128,0,87530:0:0:0:0:
448,192,87530,128,0,87745:0:0:0:0:
320,192,87745,128,0,87959:0:0:0:0:
192,192,87959,128,0,88173:0:0:0:0:
64,192,88173,128,0,88387:0:0:0:0:
320,192,88387,1,0,0:0:0:0:
192,192,88387,1,0,0:0:0:0:
64,192,88602,1,0,0:0:0:0:
320,192,88816,1,0,0:0:0:0:
192,192,88816,1,0,0:0:0:0:
64,192,89030,1,0,0:0:0:0:
64,192,89245,128,0,89459:0:0:0:0:
320,192,89245,1,0,0:0:0:0:
192,192,89459,128,0,89673:0:0:0:0:
448,192,89673,128,0,89887:0:0:0:0:
320,192,89673,1,0,0:0:0:0:
320,192,89887,128,0,90102:0:0:0:0:
64,192,90102,1,0,0:0:0:0:
192,192,90316,1,0,0:0:0:0:
64,192,90530,128,0,90745:0:0:0:0:
320,192,90530,1,0,0:0:0:0:
192,192,90745,128,0,90959:0:0:0:0:
448,192,90959,128,0,91173:0:0:0:0:
320,192,90959,1,0,0:0:0:0:
320,192,91173,128,0,91387:0:0:0:0:
192,192,91387,128,0,91602:0:0:0:0:
64,192,91387,1,0,0:0:0:0:
64,192,91602,128,0,91816:0:0:0:0:
448,192,91816,128,0,92030:0:0:0:0:
192,192,91816,1,0,0:0:0:0:
64,192,92030,128,0,92245:0:0:0:0:
448,192,92245,128,0,92459:0:0:0:0:
192,192,92245,1,0,0:0:0:0:
64,192,92459,128,0,92673:0:0:0:0:
320,192,92673,128,0,92887:0:0:0:0:
192,192,92673,1,0,0:0:0:0:
192,192,92887,128,0,93102:0:0:0:0:
448,192,93102,128,0,93316:0:0:0:0:
320,192,93102,1,0,0:0:0:0:
320,192,93316,128,0,93530:0:0:0:0:
448,192,93530,1,0,0:0:0:0:
64,192,93745,1,0,0:0:0:0:
192,192,93745,1,0,0:0:0:0:
64,192,93959,128,0,94173:0:0:0:0:
448,192,93959,1,0,0:0:0:0:
192,192,94173,128,0,94387:0:0:0:0:
448,192,94387,128,0,94602:0:0:0:0:
320,192,94387,1,0,0:0:0:0:
320,192,94602,128,0,94816:0:0:0:0:
192,192,94816,128,0,95030:0:0:0:0:
448,192,94816,1,0,0:0:0:0:
64,192,95030,128,0,95245:0:0:0:0:
320,192,95245,128,0,96102:0:0:0:0:
192,192,95245,1,0,0:0:0:0:
64,192,95673,1,0,0:0:0:0:
192,192,95887,1,0,0:0:0:0:
64,192,96102,128,0,96316:0:0:0:0:
192,192,96102,1,0,0:0:0:0:
448,192,96316,128,0,96530:0:0:0:0:
320,192,96316,1,0,0:0:0:0:
64,192,96530,128,0,96744:0:0:0:0:
192,192,96530,1,0,0:0:0:0:
448,192,96744,128,0,96959:0:0:0:0:
320,192,96744,1,0,0:0:0:0:
192,192,96959,128,0,97387:0:0:0:0:
320,192,96959,128,0,97387:0:0:0:0:
64,192,97387,128,0,97602:0:0:0:0:
448,192,97602,128,0,97816:0:0:0:0:
320,192,97602,1,0,0:0:0:0:
320,192,97816,128,0,98030:0:0:0:0:
192,192,98030,128,0,98244:0:0:0:0:
320,192,98244,128,0,98459:0:0:0:0:
192,192,98459,128,0,98673:0:0:0:0:
64,192,98673,128,0,99102:0:0:0:0:
448,192,98673,128,0,99102:0:0:0:0:
320,192,98887,1,0,0:0:0:0:
192,192,98887,1,0,0:0:0:0:
320,192,99102,128,0,99530:0:0:0:0:
448,192,99316,1,0,0:0:0:0:
192,192,99530,1,0,0:0:0:0:
64,192,99530,128,0,99744:0:0:0:0:
320,192,99744,1,0,0:0:0:0:
448,192,99744,128,0,99959:0:0:0:0:
192,192,99959,1,0,0:0:0:0:
64,192,99959,128,0,100173:0:0:0:0:
320,192,100173,1,0,0:0:0:0:
448,192,100173,128,0,100387:0:0:0:0:
320,192,100387,128,0,100816:0:0:0:0:
192,192,100387,128,0,100816:0:0:0:0:
64,192,100816,128,0,101030:0:0:0:0:
320,192,101030,1,0,0:0:0:0:
448,192,101030,128,0,101244:0:0:0:0:
320,192,101244,128,0,101459:0:0:0:0:
192,192,101459,128,0,101673:0:0:0:0:
320,192,101673,128,0,101887:0:0:0:0:
192,192,101887,128,0,102102:0:0:0:0:
448,192,102102,128,0,102530:0:0:0:0:
64,192,102102,128,0,102530:0:0:0:0:
192,192,102316,1,0,0:0:0:0:
320,192,102316,1,0,0:0:0:0:
320,192,102530,128,0,102959:0:0:0:0:
448,192,102744,1,0,0:0:0:0:
64,192,102959,128,0,103173:0:0:0:0:
192,192,102959,1,0,0:0:0:0:
448,192,103173,128,0,103387:0:0:0:0:
320,192,103173,1,0,0:0:0:0:
64,192,103387,128,0,103602:0:0:0:0:
192,192,103387,1,0,0:0:0:0:
448,192,103602,128,0,103816:0:0:0:0:
320,192,103602,1,0,0:0:0:0:
192,192,103816,128,0,104244:0:0:0:0:
320,192,103816,128,0,104244:0:0:0:0:
64,192,104244,128,0,104459:0:0:0:0:
448,192,104459,128,0,104673:0:0:0:0:
320,192,104459,1,0,0:0:0:0:
320,192,104673,128,0,104887:0:0:0:0:
192,192,104887,128,0,105102:0:0:0:0:
320,192,105102,128,0,105316:0:0:0:0:
192,192,105316,128,0,105530:0:0:0:0:
64,192,105530,128,0,105959:0:0:0:0:
448,192,105530,128,0,105959:0:0:0:0:
320,192,105744,1,0,0:0:0:0:
192,192,105744,1,0,0:0:0:0:
320,192,105959,128,0,106387:0:0:0:0:
448,192,106173,1,0,0:0:0:0:
192,192,106387,1,0,0:0:0:0:
64,192,106387,128,0,106602:0:0:0:0:
320,192,106602,1,0,0:0:0:0:
448,192,106602,128,0,106816:0:0:0:0:
192,192,106816,1,0,0:0:0:0:
64,192,106816,128,0,107030:0:0:0:0:
320,192,107030,1,0,0:0:0:0:
448,192,107030,128,0,107244:0:0:0:0:
320,192,107244,128,0,107673:0:0:0:0:
192,192,107244,128,0,107673:0:0:0:0:
64,192,107673,128,0,107887:0:0:0:0:
320,192,107887,1,0,0:0:0:0:
448,192,107887,128,0,108102:0:0:0:0:
320,192,108102,128,0,108316:0:0:0:0:
192,192,108316,128,0,108530:0:0:0:0:
320,192,108530,128,0,108744:0:0:0:0:
192,192,108744,128,0,108959:0:0:0:0:
448,192,108959,128,0,109387:0:0:0:0:
64,192,108959,128,0,109387:0:0:0:0:
192,192,109173,1,0,0:0:0:0:
320,192,109173,1,0,0:0:0:0:
320,192,109387,128,0,109816:0:0:0:0:
192,192,109387,128,0,109816:0:0:0:0:
448,192,109602,1,0,0:0:0:0:
64,192,109816,128,0,110030:0:0:0:0:
448,192,110030,128,0,110244:0:0:0:0:
320,192,110030,1,0,0:0:0:0:
64,192,110244,128,0,110459:0:0:0:0:
192,192,110244,1,0,0:0:0:0:
448,192,110459,128,0,110673:0:0:0:0:
320,192,110459,1,0,0:0:0:0:
192,192,110673,128,0,111102:0:0:0:0:
320,192,110673,128,0,111102:0:0:0:0:
64,192,111102,1,0,0:0:0:0:
448,192,111102,1,0,0:0:0:0:
320,192,111316,1,0,0:0:0:0:
448,192,111316,1,0,0:0:0:0:
192,192,111530,1,0,0:0:0:0:
64,192,111530,1,0,0:0:0:0:
320,192,111744,1,0,0:0:0:0:
448,192,111744,1,0,0:0:0:0:
64,192,111959,1,0,0:0:0:0:
192,192,111959,1,0,0:0:0:0:
320,192,112173,1,0,0:0:0:0:
448,192,112173,1,0,0:0:0:0:
64,192,112387,128,0,112602:0:0:0:0:
192,192,112602,128,0,112816:0:0:0:0:
320,192,112816,128,0,113030:0:0:0:0:
192,192,113030,128,0,113244:0:0:0:0:
320,192,113244,128,0,113459:0:0:0:0:
448,192,113244,1,0,0:0:0:0:
64,192,113459,128,0,113673:0:0:0:0:
192,192,113459,1,0,0:0:0:0:
320,192,113673,128,0,113887:0:0:0:0:
64,192,113887,128,0,114102:0:0:0:0:
192,192,113887,1,0,0:0:0:0:
320,192,114102,128,0,114530:0:0:0:0:
448,192,114102,128,0,114530:0:0:0:0:
64,192,114530,128,0,114744:0:0:0:0:
192,192,114530,1,0,0:0:0:0:
192,192,114744,128,0,114959:0:0:0:0:
448,192,114959,128,0,115173:0:0:0:0:
320,192,115173,128,0,115387:0:0:0:0:
192,192,115387,128,0,115602:0:0:0:0:
64,192,115602,128,0,115816:0:0:0:0:
448,192,115816,1,0,0:0:0:0:
320,192,115816,1,0,0:0:0:0:
192,192,116030,1,0,0:0:0:0:
64,192,116030,1,0,0:0:0:0:
320,192,116244,1,0,0:0:0:0:
192,192,116244,1,0,0:0:0:0:
64,192,116459,1,0,0:0:0:0:
448,192,116459,1,0,0:0:0:0:
64,192,116673,128,0,116887:0:0:0:0:
192,192,116673,1,0,0:0:0:0:
320,192,116887,128,0,117102:0:0:0:0:
192,192,117102,128,0,117316:0:0:0:0:
448,192,117316,128,0,117530:0:0:0:0:
64,192,117530,128,0,117959:0:0:0:0:
192,192,117530,128,0,117959:0:0:0:0:
320,192,117959,1,0,0:0:0:0:
448,192,117959,1,0,0:0:0:0:
64,192,118173,1,0,0:0:0:0:
192,192,118173,1,0,0:0:0:0:
192,192,118387,1,0,0:0:0:0:
320,192,118387,1,0,0:0:0:0:
64,192,118602,1,0,0:0:0:0:
192,192,118602,1,0,0:0:0:0:
448,192,118816,1,0,0:0:0:0:
320,192,118816,1,0,0:0:0:0:
320,192,119030,1,0,0:0:0:0:
192,192,119030,1,0,0:0:0:0:
64,192,119244,1,0,0:0:0:0:
192,192,119244,1,0,0:0:0:0:
320,192,119459,1,0,0:0:0:0:
448,192,119459,1,0,0:0:0:0:
64,192,119673,1,0,0:0:0:0:
192,192,119673,1,0,0:0:0:0:
320,192,119887,1,0,0:0:0:0:
448,192,119887,1,0,0:0:0:0:
64,192,120102,1,0,0:0:0:0:
192,192,120102,1,0,0:0:0:0:
64,192,120316,1,0,0:0:0:0:
192,192,120316,1,0,0:0:0:0:
320,192,120530,1,0,0:0:0:0:
448,192,120530,1,0,0:0:0:0:
320,192,120744,1,0,0:0:0:0:
448,192,120744,1,0,0:0:0:0:
64,192,120959,128,0,121387:0:0:0:0:
192,192,120959,128,0,121387:0:0:0:0:
320,192,120959,1,0,0:0:0:0:
448,192,120959,1,0,0:0:0:0:
320,192,121387,1,0,0:0:0:0:
448,192,121387,1,0,0:0:0:0:
64,192,121602,1,0,0:0:0:0:
192,192,121602,1,0,0:0:0:0:
192,192,121816,1,0,0:0:0:0:
320,192,121816,1,0,0:0:0:0:
192,192,122030,1,0,0:0:0:0:
320,192,122030,1,0,0:0:0:0:
192,192,122244,1,0,0:0:0:0:
320,192,122244,1,0,0:0:0:0:
320,192,122459,1,0,0:0:0:0:
448,192,122459,1,0,0:0:0:0:
192,192,122673,1,0,0:0:0:0:
320,192,122673,1,0,0:0:0:0:
64,192,122887,1,0,0:0:0:0:
192,192,122887,1,0,0:0:0:0:
64,192,123102,1,0,0:0:0:0:
448,192,123102,1,0,0:0:0:0:
320,192,123316,1,0,0:0:0:0:
448,192,123316,1,0,0:0:0:0:
64,192,123530,128,0,123744:0:0:0:0:
192,192,123744,128,0,123959:0:0:0:0:
448,192,123959,128,0,124173:0:0:0:0:
320,192,124173,128,0,124387:0:0:0:0:
64,192,124387,1,0,0:0:0:0:
192,192,124387,1,0,0:0:0:0:
320,192,124602,1,0,0:0:0:0:
448,192,124602,1,0,0:0:0:0:
64,192,124816,128,0,125030:0:0:0:0:
320,192,125030,128,0,125244:0:0:0:0:
192,192,125244,128,0,125459:0:0:0:0:
64,192,125459,128,0,125673:0:0:0:0:
448,192,125673,128,0,125887:0:0:0:0:
320,192,125887,128,0,126102:0:0:0:0:
448,192,126102,128,0,126316:0:0:0:0:
320,192,126316,128,0,126530:0:0:0:0:
192,192,126530,128,0,126744:0:0:0:0:
64,192,126744,128,0,126959:0:0:0:0:
320,192,126959,128,0,127173:0:0:0:0:
192,192,127173,128,0,127387:0:0:0:0:
320,192,127387,128,0,127602:0:0:0:0:
192,192,127602,128,0,127816:0:0:0:0:
320,192,127816,1,0,0:0:0:0:
448,192,127816,1,0,0:0:0:0:
64,192,128030,1,0,0:0:0:0:
192,192,128030,1,0,0:0:0:0:
192,192,128244,128,0,128459:0:0:0:0:
320,192,128459,128,0,128673:0:0:0:0:
448,192,128673,128,0,128887:0:0:0:0:
64,192,128887,128,0,129102:0:0:0:0:
320,192,129102,128,0,129316:0:0:0:0:
192,192,129316,128,0,129530:0:0:0:0:
320,192,129530,128,0,129744:0:0:0:0:
448,192,129744,128,0,129959:0:0:0:0:
320,192,129959,128,0,130173:0:0:0:0:
192,192,130173,128,0,130387:0:0:0:0:
64,192,130387,128,0,130602:0:0:0:0:
192,192,130602,128,0,130816:0:0:0:0:
320,192,130816,128,0,131030:0:0:0:0:
448,192,131030,128,0,131244:0:0:0:0:
192,192,131244,1,0,0:0:0:0:
320,192,131244,1,0,0:0:0:0:
192,192,131459,1,0,0:0:0:0:
320,192,131459,1,0,0:0:0:0:
64,192,131459,128,0,131673:0:0:0:0:
192,192,131673,128,0,131887:0:0:0:0:
64,192,131887,128,0,132316:0:0:0:0:
192,192,132316,128,0,132744:0:0:0:0:
320,192,132744,128,0,132959:0:0:0:0:
192,192,132959,128,0,133173:0:0:0:0:
320,192,133173,128,0,133387:0:0:0:0:
192,192,133387,128,0,133602:0:0:0:0:
64,192,133602,128,0,133816:0:0:0:0:
320,192,133816,128,0,134030:0:0:0:0:
192,192,134030,128,0,134244:0:0:0:0:
320,192,134244,128,0,134459:0:0:0:0:
192,192,134459,128,0,134673:0:0:0:0:
320,192,134673,1,0,0:0:0:0:
448,192,134673,1,0,0:0:0:0:
64,192,134887,1,0,0:0:0:0:
192,192,134887,1,0,0:0:0:0:
320,192,134887,128,0,135102:0:0:0:0:
448,192,135102,128,0,135316:0:0:0:0:
320,192,135316,128,0,135530:0:0:0:0:
192,192,135530,128,0,135744:0:0:0:0:
64,192,135744,128,0,135959:0:0:0:0:
192,192,135959,128,0,136173:0:0:0:0:
448,192,136173,128,0,136387:0:0:0:0:
320,192,136387,128,0,136602:0:0:0:0:
192,192,136602,128,0,136816:0:0:0:0:
64,192,136816,128,0,137030:0:0:0:0:
192,192,137030,128,0,137244:0:0:0:0:
320,192,137244,1,0,0:0:0:0:
448,192,137244,128,0,137459:0:0:0:0:
320,192,137459,128,0,137673:0:0:0:0:
64,192,137673,128,0,137887:0:0:0:0:
192,192,137887,128,0,138102:0:0:0:0:
320,192,138102,1,0,0:0:0:0:
448,192,138102,1,0,0:0:0:0:
64,192,138316,1,0,0:0:0:0:
192,192,138316,1,0,0:0:0:0:
448,192,138530,128,0,138744:0:0:0:0:
320,192,138744,128,0,138959:0:0:0:0:
448,192,138959,128,0,139173:0:0:0:0:
320,192,139173,128,0,139387:0:0:0:0:
192,192,139387,128,0,139602:0:0:0:0:
64,192,139602,128,0,139816:0:0:0:0:
192,192,139816,128,0,140030:0:0:0:0:
320,192,140030,128,0,140244:0:0:0:0:
448,192,140244,128,0,140459:0:0:0:0:
320,192,140459,128,0,140673:0:0:0:0:
64,192,140673,128,0,140887:0:0:0:0:
192,192,140887,128,0,141102:0:0:0:0:
320,192,141102,128,0,141316:0:0:0:0:
448,192,141316,128,0,141530:0:0:0:0:
64,192,141530,1,0,0:0:0:0:
192,192,141530,1,0,0:0:0:0:
320,192,141744,1,0,0:0:0:0:
448,192,141744,1,0,0:0:0:0:
64,192,141959,128,0,142173:0:0:0:0:
448,192,142173,128,0,142387:0:0:0:0:
64,192,142387,128,0,142602:0:0:0:0:
448,192,142602,128,0,142816:0:0:0:0:
192,192,142816,128,0,143030:0:0:0:0:
320,192,143030,128,0,143244:0:0:0:0:
448,192,143244,128,0,143459:0:0:0:0:
320,192,143459,128,0,143673:0:0:0:0:
192,192,143673,128,0,143887:0:0:0:0:
64,192,143887,128,0,144102:0:0:0:0:
320,192,144102,128,0,144959:0:0:0:0:
448,192,144102,128,0,144959:0:0:0:0:
64,192,144959,1,0,0:0:0:0:
192,192,144959,1,0,0:0:0:0:
320,192,145173,1,0,0:0:0:0:
448,192,145173,1,0,0:0:0:0:
64,192,145387,128,0,146244:0:0:0:0:
192,192,145387,128,0,146244:0:0:0:0:
320,192,146244,128,0,146459:0:0:0:0:
448,192,146459,128,0,146673:0:0:0:0:
320,192,146673,128,0,146887:0:0:0:0:
192,192,146887,128,0,147102:0:0:0:0:
320,192,147102,128,0,147316:0:0:0:0:
192,192,147316,128,0,147530:0:0:0:0:
64,192,147530,128,0,147744:0:0:0:0:
192,192,147744,128,0,147959:0:0:0:0:
448,192,147959,128,0,148173:0:0:0:0:
320,192,148173,128,0,148387:0:0:0:0:
64,192,148387,1,0,0:0:0:0:
192,192,148387,1,0,0:0:0:0:
320,192,148602,1,0,0:0:0:0:
448,192,148602,1,0,0:0:0:0:
448,192,148816,128,0,149030:0:0:0:0:
320,192,149030,128,0,149244:0:0:0:0:
64,192,149244,128,0,149459:0:0:0:0:
192,192,149459,128,0,149673:0:0:0:0:
64,192,149673,128,0,149887:0:0:0:0:
192,192,149887,128,0,150102:0:0:0:0:
320,192,150102,1,0,0:0:0:0:
448,192,150102,1,0,0:0:0:0:
64,192,150530,1,0,0:0:0:0:
192,192,150744,1,0,0:0:0:0:
64,192,150959,128,0,151816:0:0:0:0:
192,192,150959,1,0,0:0:0:0:
320,192,150959,1,0,0:0:0:0:
192,192,151816,1,0,0:0:0:0:
320,192,151816,1,0,0:0:0:0:
64,192,152030,1,0,0:0:0:0:
448,192,152030,1,0,0:0:0:0:
192,192,152244,1,0,0:0:0:0:
320,192,152244,1,0,0:0:0:0:
320,192,152459,128,0,152887:0:0:0:0:
448,192,152887,128,0,153316:0:0:0:0:
192,192,153316,128,0,153744:0:0:0:0:
320,192,153530,1,0,0:0:0:0:
448,192,153530,1,0,0:0:0:0:
64,192,153744,128,0,154387:0:0:0:0:
320,192,154387,128,0,155673:0:0:0:0:
448,192,154387,1,0,0:0:0:0:
192,192,154387,1,0,0:0:0:0:
448,192,155244,1,0,0:0:0:0:
448,192,155673,128,0,155887:0:0:0:0:
320,192,155887,128,0,156316:0:0:0:0:
448,192,156316,128,0,157816:0:0:0:0:
192,192,156530,1,0,0:0:0:0:
192,192,156959,1,0,0:0:0:0:
320,192,156959,1,0,0:0:0:0:
64,192,157173,1,0,0:0:0:0:
320,192,157387,1,0,0:0:0:0:
192,192,157601,1,0,0:0:0:0:
192,192,157816,1,0,0:0:0:0:
64,192,157816,128,0,159316:0:0:0:0:
192,192,158673,1,0,0:0:0:0:
192,192,159101,1,0,0:0:0:0:
192,192,159316,128,0,159744:0:0:0:0:
448,192,159744,128,0,160601:0:0:0:0:
320,192,160387,1,0,0:0:0:0:
320,192,160601,128,0,160816:0:0:0:0:
64,192,160816,128,0,162530:0:0:0:0:
192,192,161244,1,0,0:0:0:0:
192,192,162101,1,0,0:0:0:0:
320,192,162316,1,0,0:0:0:0:
192,192,162530,128,0,163816:0:0:0:0:
320,192,162530,1,0,0:0:0:0:
320,192,163387,1,0,0:0:0:0:
64,192,163601,1,0,0:0:0:0:
320,192,163816,1,0,0:0:0:0:
448,192,163816,1,0,0:0:0:0:
64,192,163816,128,0,164673:0:0:0:0:
192,192,164030,1,0,0:0:0:0:
320,192,164244,1,0,0:0:0:0:
448,192,164244,1,0,0:0:0:0:
192,192,164673,128,0,164887:0:0:0:0:
320,192,164673,1,0,0:0:0:0:
320,192,164887,128,0,165316:0:0:0:0:
448,192,165316,128,0,165530:0:0:0:0:
320,192,165530,128,0,165744:0:0:0:0:
64,192,165530,1,0,0:0:0:0:
192,192,165744,128,0,165959:0:0:0:0:
64,192,165744,1,0,0:0:0:0:
320,192,165959,128,0,166173:0:0:0:0:
64,192,165959,1,0,0:0:0:0:
448,192,166173,128,0,166387:0:0:0:0:
320,192,166387,128,0,166601:0:0:0:0:
448,192,166601,128,0,167244:0:0:0:0:
320,192,166816,1,0,0:0:0:0:
64,192,167030,1,0,0:0:0:0:
192,192,167030,1,0,0:0:0:0:
320,192,167244,128,0,167459:0:0:0:0:
192,192,167244,1,0,0:0:0:0:
448,192,167459,128,0,167673:0:0:0:0:
320,192,167673,128,0,169173:0:0:0:0:
192,192,168101,1,0,0:0:0:0:
448,192,168959,1,0,0:0:0:0:
192,192,169173,1,0,0:0:0:0:
64,192,169173,128,0,170887:0:0:0:0:
192,192,169387,1,0,0:0:0:0:
192,192,170244,1,0,0:0:0:0:
192,192,170673,1,0,0:0:0:0:
320,192,170673,1,0,0:0:0:0:
192,192,170887,1,0,0:0:0:0:
320,192,170887,128,0,172601:0:0:0:0:
448,192,171101,1,0,0:0:0:0:
192,192,171316,1,0,0:0:0:0:
64,192,171530,1,0,0:0:0:0:
448,192,172387,1,0,0:0:0:0:
192,192,172601,1,0,0:0:0:0:
64,192,172601,128,0,174316:0:0:0:0:
192,192,172816,1,0,0:0:0:0:
192,192,173673,1,0,0:0:0:0:
192,192,173887,1,0,0:0:0:0:
192,192,174101,1,0,0:0:0:0:
320,192,174101,1,0,0:0:0:0:
192,192,174316,128,0,174530:0:0:0:0:
320,192,174530,128,0,174744:0:0:0:0:
448,192,174744,128,0,174959:0:0:0:0:
192,192,174959,1,0,0:0:0:0:
320,192,174959,1,0,0:0:0:0:
64,192,174959,128,0,178387:0:0:0:0:
192,192,175816,1,0,0:0:0:0:
320,192,175816,1,0,0:0:0:0:
448,192,176030,1,0,0:0:0:0:
448,192,176244,1,0,0:0:0:0:
448,192,177101,1,0,0:0:0:0:
448,192,177316,1,0,0:0:0:0:
192,192,177530,1,0,0:0:0:0:
320,192,177530,1,0,0:0:0:0:
448,192,185244,5,0,0:0:0:0:
448,192,185673,1,0,0:0:0:0:
448,192,186101,1,0,0:0:0:0:
448,192,186530,1,0,0:0:0:0:
448,192,186959,1,0,0:0:0:0:
448,192,187387,1,0,0:0:0:0:
448,192,187816,5,0,0:0:0:0:
448,192,188244,1,0,0:0:0:0:
385,321,188673,5,0,0:0:0:0:
448,192,189101,1,0,0:0:0:0:
448,192,189530,1,0,0:0:0:0:
448,192,189959,1,0,0:0:0:0:
448,192,190387,1,0,0:0:0:0:
448,192,190816,1,0,0:0:0:0:
385,62,191244,1,0,0:0:0:0:
438,192,191673,1,0,0:0:0:0:
385,321,192101,1,0,0:0:0:0:
255,374,192530,1,0,0:0:0:0:
126,321,192959,1,0,0:0:0:0:
73,191,193387,1,0,0:0:0:0:
126,62,193816,1,0,0:0:0:0:
256,9,194244,1,0,0:0:0:0:
385,62,194673,1,0,0:0:0:0:
438,192,195101,1,0,0:0:0:0:
385,321,195530,1,0,0:0:0:0:
255,374,195959,1,0,0:0:0:0:
126,321,196387,1,0,0:0:0:0:
73,191,196816,1,0,0:0:0:0:
126,62,197244,1,0,0:0:0:0:
256,9,197673,1,0,0:0:0:0:
385,62,198101,1,0,0:0:0:0:
438,192,198530,1,0,0:0:0:0:
385,321,198959,1,0,0:0:0:0:
255,374,199387,1,0,0:0:0:0:
126,321,199816,1,0,0:0:0:0:
73,191,200244,1,0,0:0:0:0:
126,62,200673,1,0,0:0:0:0:
256,9,201101,1,0,0:0:0:0:
385,62,201530,1,0,0:0:0:0:
438,192,201959,1,0,0:0:0:0:
385,321,202387,1,0,0:0:0:0:
255,374,202816,1,0,0:0:0:0:
126,321,203244,1,0,0:0:0:0:
73,191,203673,1,0,0:0:0:0:
126,62,204101,1,0,0:0:0:0:
256,9,204530,1,0,0:0:0:0:
385,62,204959,1,0,0:0:0:0:
64,192,205387,128,0,205816:0:0:0:0:
385,321,205816,1,0,0:0:0:0:
320,192,205816,128,0,206887:0:0:0:0:
255,374,206244,1,0,0:0:0:0:
126,321,206673,1,0,0:0:0:0:
192,192,206887,128,0,207101:0:0:0:0:
73,191,207101,1,0,0:0:0:0:
320,192,207101,128,0,207316:0:0:0:0:
192,192,207316,128,0,207744:0:0:0:0:
126,62,207530,1,0,0:0:0:0:
64,192,207744,128,0,208173:0:0:0:0:
256,9,207959,1,0,0:0:0:0:
192,192,208173,128,0,208601:0:0:0:0:
385,62,208387,1,0,0:0:0:0:
64,192,208601,128,0,209244:0:0:0:0:
438,192,208816,1,0,0:0:0:0:
385,321,209244,1,0,0:0:0:0:
320,192,209244,128,0,210316:0:0:0:0:
255,374,209673,1,0,0:0:0:0:
126,321,210101,1,0,0:0:0:0:
192,192,210316,128,0,210530:0:0:0:0:
73,191,210530,1,0,0:0:0:0:
320,192,210530,128,0,210744:0:0:0:0:
448,192,210744,128,0,211173:0:0:0:0:
126,62,210959,1,0,0:0:0:0:
192,192,211173,128,0,212673:0:0:0:0:
256,9,211387,1,0,0:0:0:0:
385,62,211816,1,0,0:0:0:0:
438,192,212244,1,0,0:0:0:0:
385,321,212673,1,0,0:0:0:0:
320,192,212673,128,0,213744:0:0:0:0:
255,374,213101,1,0,0:0:0:0:
126,321,213530,1,0,0:0:0:0:
192,192,213744,128,0,213959:0:0:0:0:
73,191,213959,1,0,0:0:0:0:
320,192,213959,128,0,214173:0:0:0:0:
448,192,214173,128,0,214601:0:0:0:0:
126,62,214387,1,0,0:0:0:0:
192,192,214601,128,0,215244:0:0:0:0:
256,9,214816,1,0,0:0:0:0:
385,62,215244,1,0,0:0:0:0:
64,192,215244,128,0,215459:0:0:0:0:
192,192,215459,128,0,215673:0:0:0:0:
320,192,215673,128,0,219101:0:0:0:0:
438,192,215673,1,0,0:0:0:0:
448,192,216101,1,0,0:0:0:0:
448,192,216530,1,0,0:0:0:0:
448,192,216959,1,0,0:0:0:0:
448,192,217387,1,0,0:0:0:0:
448,192,217816,1,0,0:0:0:0:
448,192,218244,1,0,0:0:0:0:
448,192,218673,1,0,0:0:0:0:
448,192,219101,1,0,0:0:0:0:
192,192,219101,128,0,219530:0:0:0:0:
448,192,219530,1,0,0:0:0:0:
320,192,219530,128,0,219744:0:0:0:0:
192,192,219744,128,0,220173:0:0:0:0:
448,192,219959,1,0,0:0:0:0:
320,192,220173,128,0,220601:0:0:0:0:
448,192,220387,1,0,0:0:0:0:
192,192,220601,128,0,221030:0:0:0:0:
448,192,220816,1,0,0:0:0:0:
320,192,221030,128,0,221459:0:0:0:0:
448,192,221244,1,0,0:0:0:0:
448,192,221459,128,0,222101:0:0:0:0:
320,192,221673,1,0,0:0:0:0:
192,192,222101,128,0,222316:0:0:0:0:
320,192,222101,1,0,0:0:0:0:
64,192,222316,128,0,222530:0:0:0:0:
192,192,222530,128,0,223816:0:0:0:0:
448,192,222530,1,0,0:0:0:0:
448,192,222959,1,0,0:0:0:0:
448,192,223387,1,0,0:0:0:0:
320,192,223816,128,0,224030:0:0:0:0:
448,192,223816,1,0,0:0:0:0:
448,192,224030,128,0,224244:0:0:0:0:
192,192,224244,128,0,225530:0:0:0:0:
320,192,224244,1,0,0:0:0:0:
320,192,224673,1,0,0:0:0:0:
320,192,225101,1,0,0:0:0:0:
320,192,225530,128,0,225744:0:0:0:0:
448,192,225530,1,0,0:0:0:0:
448,192,225744,128,0,225959:0:0:0:0:
192,192,225959,128,0,227244:0:0:0:0:
320,192,225959,1,0,0:0:0:0:
448,192,226387,1,0,0:0:0:0:
448,192,226816,1,0,0:0:0:0:
320,192,227244,128,0,227459:0:0:0:0:
448,192,227244,1,0,0:0:0:0:
448,192,227459,128,0,227673:0:0:0:0:
192,192,227673,128,0,228959:0:0:0:0:
320,192,227673,1,0,0:0:0:0:
448,192,228101,1,0,0:0:0:0:
448,192,228530,1,0,0:0:0:0:
320,192,228959,128,0,229173:0:0:0:0:
448,192,228959,1,0,0:0:0:0:
448,192,229173,128,0,229387:0:0:0:0:
192,192,229387,128,0,230673:0:0:0:0:
320,192,229387,1,0,0:0:0:0:
448,192,229816,1,0,0:0:0:0:
448,192,230244,1,0,0:0:0:0:
320,192,230673,128,0,230887:0:0:0:0:
448,192,230673,1,0,0:0:0:0:
448,192,230887,128,0,231101:0:0:0:0:
192,192,231101,128,0,232387:0:0:0:0:
320,192,231101,1,0,0:0:0:0:
448,192,231530,1,0,0:0:0:0:
448,192,231959,1,0,0:0:0:0:
320,192,232387,128,0,232601:0:0:0:0:
448,192,232387,1,0,0:0:0:0:
448,192,232601,128,0,232816:0:0:0:0:
192,192,232816,128,0,233244:0:0:0:0:
320,192,232816,1,0,0:0:0:0:
320,192,233244,1,0,0:0:0:0:
448,192,233244,1,0,0:0:0:0:
448,192,233673,1,0,0:0:0:0:
448,192,234101,1,0,0:0:0:0:
448,192,234530,1,0,0:0:0:0:
448,192,234959,1,0,0:0:0:0:
448,192,235387,1,0,0:0:0:0:
448,192,235816,1,0,0:0:0:0:
448,192,236244,1,0,0:0:0:0:
448,192,236673,1,0,0:0:0:0:
448,192,237101,1,0,0:0:0:0:
448,192,237530,1,0,0:0:0:0:
448,192,237959,1,0,0:0:0:0:
448,192,238387,1,0,0:0:0:0:
448,192,238816,1,0,0:0:0:0:
448,192,239244,1,0,0:0:0:0:
448,192,239673,1,0,0:0:0:0:
448,192,240101,1,0,0:0:0:0:
448,192,240530,1,0,0:0:0:0:
448,192,240959,1,0,0:0:0:0:
448,192,241387,1,0,0:0:0:0:
448,192,241816,1,0,0:0:0:0:
448,192,242244,1,0,0:0:0:0:
448,192,242673,1,0,0:0:0:0:
448,192,243101,1,0,0:0:0:0:
448,192,243530,1,0,0:0:0:0:
448,192,243959,1,0,0:0:0:0:
448,192,244387,1,0,0:0:0:0:
448,192,244816,1,0,0:0:0:0:
448,192,245244,1,0,0:0:0:0:
448,192,245673,1,0,0:0:0:0:
448,192,246101,1,0,0:0:0:0:
448,192,246530,1,0,0:0:0:0:
320,192,246959,1,0,0:0:0:0:
448,192,246959,1,0,0:0:0:0:
64,192,247387,1,0,0:0:0:0:
64,192,247816,1,0,0:0:0:0:
64,192,248244,1,0,0:0:0:0:
64,192,248673,1,0,0:0:0:0:
64,192,249101,1,0,0:0:0:0:
64,192,249530,1,0,0:0:0:0:
64,192,249959,1,0,0:0:0:0:
64,192,250387,1,0,0:0:0:0:
64,192,250816,1,0,0:0:0:0:
64,192,251244,1,0,0:0:0:0:
64,192,251673,1,0,0:0:0:0:
64,192,252101,1,0,0:0:0:0:
64,192,252530,1,0,0:0:0:0:
64,192,252959,1,0,0:0:0:0:
64,192,253387,1,0,0:0:0:0:
64,192,253816,1,0,0:0:0:0:
64,192,254244,1,0,0:0:0:0:
64,192,254673,1,0,0:0:0:0:
64,192,255101,1,0,0:0:0:0:
64,192,255530,1,0,0:0:0:0:
64,192,255959,1,0,0:0:0:0:
64,192,256387,1,0,0:0:0:0:
64,192,256816,1,0,0:0:0:0:
64,192,257244,1,0,0:0:0:0:
448,192,257244,128,0,257459:0:0:0:0:
320,192,257459,128,0,257673:0:0:0:0:
64,192,257673,1,0,0:0:0:0:
448,192,257673,128,0,257887:0:0:0:0:
320,192,257887,128,0,258101:0:0:0:0:
64,192,258101,1,0,0:0:0:0:
192,192,258101,128,0,258316:0:0:0:0:
448,192,258316,128,0,258530:0:0:0:0:
64,192,258530,1,0,0:0:0:0:
320,192,258530,128,0,258959:0:0:0:0:
64,192,258959,1,0,0:0:0:0:
64,192,259387,1,0,0:0:0:0:
320,192,259387,128,0,260673:0:0:0:0:
64,192,259816,1,0,0:0:0:0:
64,192,260244,1,0,0:0:0:0:
448,192,260244,128,0,260673:0:0:0:0:
64,192,260673,1,0,0:0:0:0:
192,192,260673,1,0,0:0:0:0:
64,192,267530,5,0,0:0:0:0:
192,192,267530,1,0,0:0:0:0:
320,192,267530,1,0,0:0:0:0:
448,192,267530,1,0,0:0:0:0:
64,192,274387,5,0,0:0:0:0:
192,192,274387,1,0,0:0:0:0:
320,192,274387,1,0,0:0:0:0:
448,192,274387,1,0,0:0:0:0:
320,192,277815,1,0,0:0:0:0:
448,192,277815,1,0,0:0:0:0:
64,192,281244,1,0,0:0:0:0:
192,192,281244,1,0,0:0:0:0:
320,192,281244,1,0,0:0:0:0:
448,192,281244,1,0,0:0:0:0:
448,192,281458,1,0,0:0:0:0:
320,192,281673,1,0,0:0:0:0:
192,192,281887,1,0,0:0:0:0:
64,192,282101,1,0,0:0:0:0:
192,192,282315,1,0,0:0:0:0:
320,192,282530,1,0,0:0:0:0:
448,192,282744,1,0,0:0:0:0:
320,192,282958,1,0,0:0:0:0:
448,192,282958,1,0,0:0:0:0:
320,192,283173,1,0,0:0:0:0:
192,192,283387,1,0,0:0:0:0:
64,192,283601,1,0,0:0:0:0:
192,192,283815,1,0,0:0:0:0:
320,192,284030,1,0,0:0:0:0:
448,192,284244,1,0,0:0:0:0:
320,192,284458,1,0,0:0:0:0:
320,192,284673,1,0,0:0:0:0:
448,192,284673,1,0,0:0:0:0:
192,192,284780,1,0,0:0:0:0:
64,192,284887,1,0,0:0:0:0:
192,192,284994,1,0,0:0:0:0:
320,192,285101,1,0,0:0:0:0:
448,192,285208,1,0,0:0:0:0:
320,192,285315,1,0,0:0:0:0:
192,192,285423,1,0,0:0:0:0:
320,192,285530,1,0,0:0:0:0:
448,192,285530,1,0,0:0:0:0:
448,192,285637,1,0,0:0:0:0:
320,192,285744,1,0,0:0:0:0:
192,192,285851,1,0,0:0:0:0:
64,192,285958,1,0,0:0:0:0:
192,192,286065,1,0,0:0:0:0:
320,192,286173,1,0,0:0:0:0:
448,192,286280,1,0,0:0:0:0:
448,192,286387,128,0,287244:0:0:0:0:
320,192,286387,128,0,287458:0:0:0:0:
192,192,286387,128,0,287780:0:0:0:0:
64,192,286387,128,0,287887:0:0:0:0:
64,192,288101,1,0,0:0:0:0:
192,192,288101,1,0,0:0:0:0:
448,192,288101,1,0,0:0:0:0:
320,192,288315,1,0,0:0:0:0:
320,192,288529,128,0,291529:0:0:0:0:
448,192,288958,1,0,0:0:0:0:
192,192,288958,1,0,0:0:0:0:
64,192,288958,1,0,0:0:0:0:
192,192,289172,1,0,0:0:0:0:
64,192,289386,1,0,0:0:0:0:
192,192,289601,1,0,0:0:0:0:
448,192,289815,1,0,0:0:0:0:
192,192,290029,1,0,0:0:0:0:
64,192,290243,1,0,0:0:0:0:
192,192,290458,1,0,0:0:0:0:
448,192,290672,1,0,0:0:0:0:
192,192,290886,1,0,0:0:0:0:
64,192,291101,1,0,0:0:0:0:
192,192,291315,1,0,0:0:0:0:
448,192,291529,1,0,0:0:0:0:
64,192,291529,1,0,0:0:0:0:
192,192,291529,128,0,292386:0:0:0:0:
448,192,291743,1,0,0:0:0:0:
448,192,291958,1,0,0:0:0:0:
448,192,292172,1,0,0:0:0:0:
320,192,292386,1,0,0:0:0:0:
448,192,292386,1,0,0:0:0:0:
64,192,292386,128,0,293243:0:0:0:0:
320,192,292601,1,0,0:0:0:0:
320,192,292815,1,0,0:0:0:0:
320,192,293029,1,0,0:0:0:0:
192,192,293243,1,0,0:0:0:0:
320,192,293243,1,0,0:0:0:0:
448,192,293243,128,0,294101:0:0:0:0:
192,192,293458,1,0,0:0:0:0:
192,192,293672,1,0,0:0:0:0:
192,192,293886,1,0,0:0:0:0:
192,192,294101,1,0,0:0:0:0:
320,192,294101,128,0,294958:0:0:0:0:
448,192,294315,1,0,0:0:0:0:
448,192,294529,1,0,0:0:0:0:
448,192,294743,1,0,0:0:0:0:
448,192,294958,1,0,0:0:0:0:
64,192,294958,1,0,0:0:0:0:
192,192,294958,1,0,0:0:0:0:
64,192,295172,1,0,0:0:0:0:
192,192,295172,1,0,0:0:0:0:
320,192,295386,128,0,298386:0:0:0:0:
64,192,295386,1,0,0:0:0:0:
192,192,295386,1,0,0:0:0:0:
64,192,295815,1,0,0:0:0:0:
192,192,295815,1,0,0:0:0:0:
448,192,295815,1,0,0:0:0:0:
192,192,296029,1,0,0:0:0:0:
64,192,296243,1,0,0:0:0:0:
192,192,296458,1,0,0:0:0:0:
448,192,296672,1,0,0:0:0:0:
192,192,296886,1,0,0:0:0:0:
64,192,297101,1,0,0:0:0:0:
192,192,297315,1,0,0:0:0:0:
448,192,297529,1,0,0:0:0:0:
192,192,297743,1,0,0:0:0:0:
64,192,297958,1,0,0:0:0:0:
192,192,298172,1,0,0:0:0:0:
448,192,298386,1,0,0:0:0:0:
192,192,298386,128,0,299243:0:0:0:0:
64,192,298386,1,0,0:0:0:0:
64,192,298601,1,0,0:0:0:0:
64,192,298815,1,0,0:0:0:0:
64,192,299029,1,0,0:0:0:0:
320,192,299243,128,0,300101:0:0:0:0:
448,192,299243,1,0,0:0:0:0:
448,192,299458,1,0,0:0:0:0:
448,192,299672,1,0,0:0:0:0:
448,192,299886,1,0,0:0:0:0:
448,192,300101,128,0,300958:0:0:0:0:
192,192,300101,1,0,0:0:0:0:
192,192,300315,1,0,0:0:0:0:
192,192,300529,1,0,0:0:0:0:
192,192,300743,1,0,0:0:0:0:
320,192,300958,1,0,0:0:0:0:
64,192,300958,128,0,301815:0:0:0:0:
320,192,301172,1,0,0:0:0:0:
320,192,301386,1,0,0:0:0:0:
320,192,301601,1,0,0:0:0:0:
192,192,301815,1,0,0:0:0:0:
448,192,301815,1,0,0:0:0:0:
320,192,301815,1,0,0:0:0:0:
320,192,302029,1,0,0:0:0:0:
320,192,302243,128,0,305243:0:0:0:0:
448,192,302672,1,0,0:0:0:0:
192,192,302672,1,0,0:0:0:0:
64,192,302672,1,0,0:0:0:0:
192,192,302886,1,0,0:0:0:0:
64,192,303101,1,0,0:0:0:0:
192,192,303315,1,0,0:0:0:0:
448,192,303529,1,0,0:0:0:0:
192,192,303743,1,0,0:0:0:0:
64,192,303958,1,0,0:0:0:0:
192,192,304172,1,0,0:0:0:0:
448,192,304386,1,0,0:0:0:0:
192,192,304601,1,0,0:0:0:0:
64,192,304815,1,0,0:0:0:0:
192,192,305029,1,0,0:0:0:0:
448,192,305243,1,0,0:0:0:0:
64,192,305243,1,0,0:0:0:0:
192,192,305243,128,0,306101:0:0:0:0:
448,192,305458,1,0,0:0:0:0:
448,192,305672,1,0,0:0:0:0:
448,192,305886,1,0,0:0:0:0:
320,192,306101,1,0,0:0:0:0:
448,192,306101,1,0,0:0:0:0:
64,192,306101,128,0,306958:0:0:0:0:
320,192,306315,1,0,0:0:0:0:
320,192,306529,1,0,0:0:0:0:
320,192,306743,1,0,0:0:0:0:
192,192,306958,1,0,0:0:0:0:
320,192,306958,1,0,0:0:0:0:
448,192,306958,128,0,307815:0:0:0:0:
192,192,307172,1,0,0:0:0:0:
192,192,307386,1,0,0:0:0:0:
192,192,307601,1,0,0:0:0:0:
192,192,307815,1,0,0:0:0:0:
320,192,307815,128,0,308672:0:0:0:0:
448,192,308029,1,0,0:0:0:0:
448,192,308243,1,0,0:0:0:0:
448,192,308458,1,0,0:0:0:0:
192,192,308672,1,0,0:0:0:0:
64,192,308672,1,0,0:0:0:0:
64,192,308886,1,0,0:0:0:0:
192,192,308886,1,0,0:0:0:0:
320,192,309101,128,0,312101:0:0:0:0:
64,192,309101,1,0,0:0:0:0:
192,192,309101,1,0,0:0:0:0:
64,192,309529,1,0,0:0:0:0:
192,192,309529,1,0,0:0:0:0:
448,192,309529,1,0,0:0:0:0:
192,192,309743,1,0,0:0:0:0:
64,192,309958,1,0,0:0:0:0:
192,192,310172,1,0,0:0:0:0:
448,192,310386,1,0,0:0:0:0:
192,192,310601,1,0,0:0:0:0:
64,192,310815,1,0,0:0:0:0:
192,192,311029,1,0,0:0:0:0:
448,192,311243,1,0,0:0:0:0:
192,192,311458,1,0,0:0:0:0:
64,192,311672,1,0,0:0:0:0:
192,192,311886,1,0,0:0:0:0:
64,192,312101,1,0,0:0:0:0:
192,192,312101,1,0,0:0:0:0:
448,192,312101,128,0,312958:0:0:0:0:
320,192,312315,1,0,0:0:0:0:
320,192,312529,1,0,0:0:0:0:
320,192,312743,1,0,0:0:0:0:
320,192,312958,128,0,313815:0:0:0:0:
192,192,312958,1,0,0:0:0:0:
192,192,313172,1,0,0:0:0:0:
192,192,313386,1,0,0:0:0:0:
192,192,313601,1,0,0:0:0:0:
192,192,313815,128,0,314672:0:0:0:0:
64,192,313815,1,0,0:0:0:0:
64,192,314029,1,0,0:0:0:0:
64,192,314243,1,0,0:0:0:0:
64,192,314458,1,0,0:0:0:0:
64,192,314672,128,0,315529:0:0:0:0:
320,192,314672,1,0,0:0:0:0:
320,192,314886,1,0,0:0:0:0:
320,192,315101,1,0,0:0:0:0:
320,192,315315,1,0,0:0:0:0:
192,192,315529,1,0,0:0:0:0:
320,192,315529,1,0,0:0:0:0:
448,192,315529,128,0,315958:0:0:0:0:
320,192,315958,128,0,316386:0:0:0:0:
192,192,315958,1,0,0:0:0:0:
192,192,316386,128,0,316815:0:0:0:0:
448,192,316386,1,0,0:0:0:0:
64,192,316815,128,0,317458:0:0:0:0:
320,192,316815,1,0,0:0:0:0:
192,192,317458,128,0,318101:0:0:0:0:
320,192,317458,1,0,0:0:0:0:
320,192,318101,128,0,318529:0:0:0:0:
448,192,318101,1,0,0:0:0:0:
192,192,318529,128,0,318743:0:0:0:0:
448,192,318529,1,0,0:0:0:0:
64,192,318743,128,0,318958:0:0:0:0:
320,192,318743,1,0,0:0:0:0:
192,192,318958,128,0,319386:0:0:0:0:
320,192,318958,1,0,0:0:0:0:
320,192,319386,128,0,319601:0:0:0:0:
448,192,319386,1,0,0:0:0:0:
448,192,319601,128,0,319815:0:0:0:0:
320,192,319815,128,0,320243:0:0:0:0:
192,192,319815,1,0,0:0:0:0:
192,192,320243,128,0,320886:0:0:0:0:
448,192,320243,1,0,0:0:0:0:
320,192,320886,128,0,321529:0:0:0:0:
448,192,320886,1,0,0:0:0:0:
448,192,321529,128,0,321958:0:0:0:0:
192,192,321529,1,0,0:0:0:0:
320,192,321958,128,0,322172:0:0:0:0:
192,192,321958,1,0,0:0:0:0:
192,192,322172,128,0,322386:0:0:0:0:
64,192,322172,1,0,0:0:0:0:
448,192,322601,128,0,322815:0:0:0:0:
320,192,322601,1,0,0:0:0:0:
320,192,322815,128,0,323029:0:0:0:0:
192,192,322815,1,0,0:0:0:0:
192,192,323029,128,0,323243:0:0:0:0:
64,192,323029,1,0,0:0:0:0:
64,192,323243,128,0,323672:0:0:0:0:
320,192,323243,1,0,0:0:0:0:
192,192,323672,128,0,324315:0:0:0:0:
320,192,323672,1,0,0:0:0:0:
320,192,324315,128,0,324958:0:0:0:0:
448,192,324315,1,0,0:0:0:0:
448,192,324958,128,0,325386:0:0:0:0:
192,192,324958,1,0,0:0:0:0:
320,192,325386,128,0,325601:0:0:0:0:
192,192,325386,1,0,0:0:0:0:
192,192,325601,128,0,325815:0:0:0:0:
64,192,325601,1,0,0:0:0:0:
448,192,325815,128,0,326243:0:0:0:0:
320,192,325815,1,0,0:0:0:0:
320,192,326243,128,0,326458:0:0:0:0:
192,192,326243,1,0,0:0:0:0:
192,192,326458,128,0,326672:0:0:0:0:
448,192,326458,1,0,0:0:0:0:
64,192,326672,128,0,327101:0:0:0:0:
320,192,326672,1,0,0:0:0:0:
192,192,327101,128,0,327743:0:0:0:0:
320,192,327101,1,0,0:0:0:0:
320,192,327743,128,0,328386:0:0:0:0:
448,192,327743,1,0,0:0:0:0:
192,192,328386,128,0,329243:0:0:0:0:
448,192,328386,1,0,0:0:0:0:
448,192,329243,128,0,329672:0:0:0:0:
320,192,329243,1,0,0:0:0:0:
320,192,329672,128,0,330101:0:0:0:0:
192,192,330101,128,0,330529:0:0:0:0:
64,192,330529,128,0,331172:0:0:0:0:
192,192,331172,128,0,331815:0:0:0:0:
320,192,331815,128,0,332243:0:0:0:0:
448,192,332243,128,0,332458:0:0:0:0:
320,192,332458,128,0,332672:0:0:0:0:
448,192,332672,128,0,333101:0:0:0:0:
320,192,333101,128,0,333315:0:0:0:0:
192,192,333315,128,0,333529:0:0:0:0:
64,192,333529,128,0,333958:0:0:0:0:
192,192,333958,128,0,334601:0:0:0:0:
320,192,334601,128,0,335243:0:0:0:0:
448,192,335243,128,0,335672:0:0:0:0:
320,192,335672,128,0,335886:0:0:0:0:
192,192,335886,128,0,336101:0:0:0:0:
448,192,336315,128,0,336529:0:0:0:0:
320,192,336529,128,0,336743:0:0:0:0:
192,192,336743,128,0,336958:0:0:0:0:
64,192,336958,128,0,337386:0:0:0:0:
192,192,337386,128,0,338029:0:0:0:0:
320,192,338029,128,0,338672:0:0:0:0:
448,192,338672,128,0,339101:0:0:0:0:
320,192,339101,128,0,339315:0:0:0:0:
192,192,339315,128,0,339529:0:0:0:0:
320,192,339529,5,0,0:0:0:0:
448,192,339529,1,0,0:0:0:0:
448,192,339958,1,0,0:0:0:0:
320,192,340172,1,0,0:0:0:0:
192,192,340386,1,0,0:0:0:0:
64,192,340815,1,0,0:0:0:0:
192,192,340815,1,0,0:0:0:0:
64,192,341243,1,0,0:0:0:0:
192,192,341243,1,0,0:0:0:0:
64,192,341704,1,0,0:0:0:0:
192,192,341704,1,0,0:0:0:0:
64,192,342166,5,0,0:0:0:0:
192,192,342166,1,0,0:0:0:0:
64,192,342627,1,0,0:0:0:0:
192,192,342627,1,0,0:0:0:0:
448,192,343089,5,0,0:0:0:0:
320,192,343089,1,0,0:0:0:0:
64,192,343323,1,0,0:0:0:0:
192,192,343323,1,0,0:0:0:0:
320,192,343557,1,0,0:0:0:0:
192,192,343557,1,0,0:0:0:0:
64,192,343792,1,0,0:0:0:0:
192,192,343792,1,0,0:0:0:0:
320,192,344026,1,0,0:0:0:0:
448,192,344026,1,0,0:0:0:0:
64,192,344026,128,0,344260:0:0:0:0:
192,192,344260,128,0,344495:0:0:0:0:
320,192,344495,128,0,344964:0:0:0:0:
448,192,344495,128,0,344964:0:0:0:0:
64,192,344964,1,0,0:0:0:0:
192,192,344964,1,0,0:0:0:0:
64,192,345198,1,0,0:0:0:0:
192,192,345198,1,0,0:0:0:0:
448,192,345432,1,0,0:0:0:0:
320,192,345549,1,0,0:0:0:0:
192,192,345667,1,0,0:0:0:0:
64,192,345784,1,0,0:0:0:0:
320,192,345901,1,0,0:0:0:0:
448,192,345901,1,0,0:0:0:0:
64,192,346370,1,0,0:0:0:0:
192,192,346487,1,0,0:0:0:0:
320,192,346604,1,0,0:0:0:0:
448,192,346721,1,0,0:0:0:0:
64,192,346839,1,0,0:0:0:0:
192,192,346839,1,0,0:0:0:0:
448,192,347073,1,0,0:0:0:0:
320,192,347073,1,0,0:0:0:0:
64,192,347190,1,0,0:0:0:0:
192,192,347307,1,0,0:0:0:0:
320,192,347424,1,0,0:0:0:0:
192,192,347542,1,0,0:0:0:0:
320,192,347659,1,0,0:0:0:0:
448,192,347776,1,0,0:0:0:0:
64,192,348245,1,0,0:0:0:0:
192,192,348362,1,0,0:0:0:0:
320,192,348479,1,0,0:0:0:0:
64,192,348714,1,0,0:0:0:0:
192,192,348714,1,0,0:0:0:0:
448,192,348948,1,0,0:0:0:0:
320,192,349065,1,0,0:0:0:0:
192,192,349182,1,0,0:0:0:0:
64,192,349299,1,0,0:0:0:0:
192,192,349417,1,0,0:0:0:0:
320,192,349534,1,0,0:0:0:0:
192,192,349651,1,0,0:0:0:0:
64,192,349768,1,0,0:0:0:0:
320,192,349885,1,0,0:0:0:0:
448,192,349885,1,0,0:0:0:0:
64,192,350120,1,0,0:0:0:0:
192,192,350120,1,0,0:0:0:0:
320,192,350354,1,0,0:0:0:0:
448,192,350354,1,0,0:0:0:0:
64,192,350589,1,0,0:0:0:0:
192,192,350589,1,0,0:0:0:0:
64,192,351057,1,0,0:0:0:0:
192,192,351174,1,0,0:0:0:0:
320,192,351292,1,0,0:0:0:0:
192,192,351409,1,0,0:0:0:0:
448,192,351526,128,0,351760:0:0:0:0:
320,192,351760,128,0,351995:0:0:0:0:
64,192,351995,1,0,0:0:0:0:
192,192,351995,1,0,0:0:0:0:
320,192,352229,1,0,0:0:0:0:
448,192,352229,1,0,0:0:0:0:
64,192,352464,1,0,0:0:0:0:
192,192,352464,1,0,0:0:0:0:
320,192,352698,1,0,0:0:0:0:
448,192,352698,1,0,0:0:0:0:
192,192,352932,1,0,0:0:0:0:
320,192,352932,1,0,0:0:0:0:
64,192,353167,1,0,0:0:0:0:
192,192,353167,1,0,0:0:0:0:
320,192,353401,128,0,353870:0:0:0:0:
448,192,353401,128,0,353870:0:0:0:0:
64,192,353401,1,0,0:0:0:0:
192,192,353401,1,0,0:0:0:0:
64,192,353870,1,0,0:0:0:0:
192,192,353870,1,0,0:0:0:0:
320,192,354104,1,0,0:0:0:0:
448,192,354104,1,0,0:0:0:0:
64,192,354339,1,0,0:0:0:0:
192,192,354339,1,0,0:0:0:0:
320,192,354573,1,0,0:0:0:0:
448,192,354573,1,0,0:0:0:0:
192,192,354807,1,0,0:0:0:0:
320,192,354807,1,0,0:0:0:0:
64,192,355042,1,0,0:0:0:0:
192,192,355042,1,0,0:0:0:0:
320,192,355276,1,0,0:0:0:0:
64,192,355276,128,0,355745:0:0:0:0:
192,192,355276,128,0,355745:0:0:0:0:
448,192,355276,1,0,0:0:0:0:
320,192,355745,1,0,0:0:0:0:
448,192,355745,1,0,0:0:0:0:
64,192,355979,1,0,0:0:0:0:
192,192,355979,1,0,0:0:0:0:
320,192,356214,1,0,0:0:0:0:
448,192,356214,1,0,0:0:0:0:
64,192,356448,1,0,0:0:0:0:
192,192,356448,1,0,0:0:0:0:
192,192,356682,1,0,0:0:0:0:
320,192,356682,1,0,0:0:0:0:
320,192,356917,1,0,0:0:0:0:
448,192,356917,1,0,0:0:0:0:
192,192,357151,1,0,0:0:0:0:
320,192,357151,1,0,0:0:0:0:
64,192,357151,128,0,357620:0:0:0:0:
448,192,357151,128,0,357620:0:0:0:0:
192,192,357385,1,0,0:0:0:0:
320,192,357385,1,0,0:0:0:0:
192,192,357620,1,0,0:0:0:0:
320,192,357620,1,0,0:0:0:0:
64,192,357854,1,0,0:0:0:0:
448,192,357854,1,0,0:0:0:0:
64,192,358089,128,0,358323:0:0:0:0:
192,192,358323,128,0,358557:0:0:0:0:
320,192,358557,128,0,358792:0:0:0:0:
448,192,358792,128,0,359026:0:0:0:0:
64,192,359026,128,0,359495:0:0:0:0:
192,192,359026,128,0,359495:0:0:0:0:
320,192,359495,128,0,359964:0:0:0:0:
448,192,359495,128,0,359964:0:0:0:0:
192,192,359964,1,0,0:0:0:0:
64,192,359964,1,0,0:0:0:0:
320,192,360198,1,0,0:0:0:0:
448,192,360198,1,0,0:0:0:0:
64,192,360432,1,0,0:0:0:0:
192,192,360549,1,0,0:0:0:0:
320,192,360667,1,0,0:0:0:0:
448,192,360784,1,0,0:0:0:0:
64,192,360901,1,0,0:0:0:0:
192,192,360901,1,0,0:0:0:0:
64,192,361135,1,0,0:0:0:0:
192,192,361135,1,0,0:0:0:0:
64,192,361370,1,0,0:0:0:0:
192,192,361370,1,0,0:0:0:0:
64,192,361604,1,0,0:0:0:0:
192,192,361604,1,0,0:0:0:0:
64,192,361839,1,0,0:0:0:0:
192,192,361839,1,0,0:0:0:0:
448,192,362073,1,0,0:0:0:0:
320,192,362190,1,0,0:0:0:0:
192,192,362307,1,0,0:0:0:0:
320,192,362424,1,0,0:0:0:0:
192,192,362542,1,0,0:0:0:0:
320,192,362659,1,0,0:0:0:0:
64,192,362776,1,0,0:0:0:0:
192,192,362776,1,0,0:0:0:0:
320,192,363010,1,0,0:0:0:0:
448,192,363010,1,0,0:0:0:0:
64,192,363245,1,0,0:0:0:0:
192,192,363245,1,0,0:0:0:0:
320,192,363479,1,0,0:0:0:0:
448,192,363479,1,0,0:0:0:0:
64,192,363714,128,0,363948:0:0:0:0:
192,192,363714,128,0,363948:0:0:0:0:
448,192,363948,1,0,0:0:0:0:
320,192,364065,1,0,0:0:0:0:
192,192,364182,1,0,0:0:0:0:
448,192,364417,1,0,0:0:0:0:
320,192,364534,1,0,0:0:0:0:
64,192,364651,1,0,0:0:0:0:
192,192,364651,1,0,0:0:0:0:
448,192,365120,128,0,365354:0:0:0:0:
320,192,365120,128,0,365354:0:0:0:0:
64,192,365589,128,0,365823:0:0:0:0:
192,192,365589,1,0,0:0:0:0:
192,192,365823,128,0,366057:0:0:0:0:
320,192,366057,128,0,366292:0:0:0:0:
448,192,366292,128,0,366526:0:0:0:0:
64,192,366526,128,0,366995:0:0:0:0:
192,192,366526,128,0,366995:0:0:0:0:
320,192,366526,1,0,0:0:0:0:
320,192,366995,128,0,367464:0:0:0:0:
448,192,366995,128,0,367464:0:0:0:0:
192,192,367464,1,0,0:0:0:0:
64,192,367464,1,0,0:0:0:0:
320,192,367698,1,0,0:0:0:0:
448,192,367698,1,0,0:0:0:0:
64,192,367932,1,0,0:0:0:0:
192,192,368049,1,0,0:0:0:0:
320,192,368167,1,0,0:0:0:0:
448,192,368284,1,0,0:0:0:0:
64,192,368401,1,0,0:0:0:0:
192,192,368401,1,0,0:0:0:0:
320,192,368401,1,0,0:0:0:0:
64,192,368635,1,0,0:0:0:0:
192,192,368635,1,0,0:0:0:0:
64,192,368870,1,0,0:0:0:0:
192,192,368870,1,0,0:0:0:0:
64,192,369104,1,0,0:0:0:0:
192,192,369104,1,0,0:0:0:0:
64,192,369339,1,0,0:0:0:0:
192,192,369339,1,0,0:0:0:0:
320,192,369339,1,0,0:0:0:0:
448,192,369573,1,0,0:0:0:0:
320,192,369690,1,0,0:0:0:0:
192,192,369807,1,0,0:0:0:0:
320,192,369924,1,0,0:0:0:0:
192,192,370042,1,0,0:0:0:0:
320,192,370159,1,0,0:0:0:0:
64,192,370276,1,0,0:0:0:0:
192,192,370276,1,0,0:0:0:0:
320,192,370276,1,0,0:0:0:0:
320,192,370510,1,0,0:0:0:0:
448,192,370510,1,0,0:0:0:0:
64,192,370745,1,0,0:0:0:0:
192,192,370745,1,0,0:0:0:0:
320,192,370979,1,0,0:0:0:0:
448,192,370979,1,0,0:0:0:0:
64,192,371214,128,0,371448:0:0:0:0:
192,192,371214,128,0,371448:0:0:0:0:
320,192,371214,1,0,0:0:0:0:
448,192,371448,1,0,0:0:0:0:
320,192,371565,1,0,0:0:0:0:
192,192,371682,1,0,0:0:0:0:
448,192,371917,1,0,0:0:0:0:
320,192,372034,1,0,0:0:0:0:
64,192,372151,1,0,0:0:0:0:
192,192,372151,1,0,0:0:0:0:
64,192,372620,128,0,372971:0:0:0:0:
192,192,372620,128,0,372971:0:0:0:0:
320,192,372620,128,0,372971:0:0:0:0:
448,192,372620,128,0,372971:0:0:0:0:
64,192,373089,1,0,0:0:0:0:
192,192,373089,1,0,0:0:0:0:
320,192,373089,1,0,0:0:0:0:
448,192,373089,1,0,0:0:0:0:
448,192,373557,1,0,0:0:0:0:
320,192,373792,128,0,374260:0:0:0:0:
448,192,374495,1,0,0:0:0:0:
448,192,374846,1,0,0:0:0:0:
448,192,375198,1,0,0:0:0:0:
448,192,375549,1,0,0:0:0:0:
448,192,375901,1,0,0:0:0:0:
64,192,376135,128,0,376370:0:0:0:0:
448,192,376370,128,0,376604:0:0:0:0:
192,192,376604,128,0,376839:0:0:0:0:
320,192,376839,1,0,0:0:0:0:
448,192,376839,1,0,0:0:0:0:
64,192,377073,1,0,0:0:0:0:
192,192,377073,1,0,0:0:0:0:
320,192,377307,1,0,0:0:0:0:
448,192,377307,1,0,0:0:0:0:
64,192,377542,128,0,378010:0:0:0:0:
192,192,377542,128,0,378010:0:0:0:0:
448,192,378245,1,0,0:0:0:0:
448,192,378596,1,0,0:0:0:0:
448,192,378948,1,0,0:0:0:0:
448,192,379299,1,0,0:0:0:0:
448,192,379651,128,0,379768:0:0:0:0:
320,192,379768,128,0,379885:0:0:0:0:
64,192,379885,128,0,380003:0:0:0:0:
192,192,380003,128,0,380120:0:0:0:0:
320,192,380120,128,0,380237:0:0:0:0:
192,192,380237,128,0,380354:0:0:0:0:
448,192,380354,128,0,380471:0:0:0:0:
64,192,380471,128,0,380589:0:0:0:0:
320,192,380589,128,0,381292:0:0:0:0:
448,192,380589,128,0,381292:0:0:0:0:
192,192,380823,1,0,0:0:0:0:
64,192,381057,1,0,0:0:0:0:
192,192,381292,1,0,0:0:0:0:
64,192,381995,1,0,0:0:0:0:
448,192,382346,1,0,0:0:0:0:
448,192,382698,1,0,0:0:0:0:
448,192,383049,1,0,0:0:0:0:
448,192,383401,1,0,0:0:0:0:
64,192,383635,128,0,383870:0:0:0:0:
320,192,383870,128,0,384104:0:0:0:0:
192,192,384104,128,0,384339:0:0:0:0:
448,192,384339,128,0,384807:0:0:0:0:
320,192,384807,128,0,385042:0:0:0:0:
192,192,385042,128,0,385276:0:0:0:0:
64,192,385276,128,0,385510:0:0:0:0:
64,192,385745,1,0,0:0:0:0:
64,192,385979,1,0,0:0:0:0:
64,192,386214,1,0,0:0:0:0:
192,192,386214,1,0,0:0:0:0:
192,192,386565,1,0,0:0:0:0:
448,192,386682,128,0,387151:0:0:0:0:
320,192,386917,1,0,0:0:0:0:
64,192,387151,128,0,387620:0:0:0:0:
192,192,387385,1,0,0:0:0:0:
64,192,388089,128,0,388323:0:0:0:0:
192,192,388089,128,0,388323:0:0:0:0:
448,192,388557,1,0,0:0:0:0:
320,192,388792,128,0,389260:0:0:0:0:
448,192,389495,1,0,0:0:0:0:
448,192,389846,1,0,0:0:0:0:
448,192,390198,1,0,0:0:0:0:
448,192,390549,1,0,0:0:0:0:
448,192,390901,1,0,0:0:0:0:
64,192,391135,128,0,391370:0:0:0:0:
448,192,391370,128,0,391604:0:0:0:0:
192,192,391604,128,0,391839:0:0:0:0:
320,192,391839,1,0,0:0:0:0:
448,192,391839,1,0,0:0:0:0:
64,192,392073,1,0,0:0:0:0:
192,192,392073,1,0,0:0:0:0:
320,192,392307,1,0,0:0:0:0:
448,192,392307,1,0,0:0:0:0:
64,192,392542,128,0,393010:0:0:0:0:
192,192,392542,128,0,393010:0:0:0:0:
448,192,393245,1,0,0:0:0:0:
448,192,393596,1,0,0:0:0:0:
448,192,393948,1,0,0:0:0:0:
448,192,394299,1,0,0:0:0:0:
448,192,394651,128,0,394768:0:0:0:0:
320,192,394768,128,0,394885:0:0:0:0:
64,192,394885,128,0,395003:0:0:0:0:
192,192,395003,128,0,395120:0:0:0:0:
320,192,395120,128,0,395237:0:0:0:0:
192,192,395237,128,0,395354:0:0:0:0:
448,192,395354,128,0,395471:0:0:0:0:
64,192,395471,128,0,395589:0:0:0:0:
320,192,395589,128,0,396292:0:0:0:0:
448,192,395589,128,0,396292:0:0:0:0:
192,192,395823,1,0,0:0:0:0:
64,192,396057,1,0,0:0:0:0:
192,192,396292,1,0,0:0:0:0:
64,192,396995,1,0,0:0:0:0:
320,192,397229,1,0,0:0:0:0:
448,192,397346,1,0,0:0:0:0:
448,192,397698,1,0,0:0:0:0:
448,192,398049,1,0,0:0:0:0:
448,192,398401,1,0,0:0:0:0:
64,192,398635,128,0,398870:0:0:0:0:
320,192,398870,128,0,399104:0:0:0:0:
192,192,399104,128,0,399339:0:0:0:0:
448,192,399339,128,0,399807:0:0:0:0:
192,192,399573,1,0,0:0:0:0:
320,192,399807,128,0,400042:0:0:0:0:
192,192,399807,1,0,0:0:0:0:
192,192,400042,128,0,400276:0:0:0:0:
448,192,400042,1,0,0:0:0:0:
64,192,400276,128,0,400510:0:0:0:0:
448,192,400276,1,0,0:0:0:0:
448,192,400510,1,0,0:0:0:0:
64,192,400745,1,0,0:0:0:0:
192,192,400745,1,0,0:0:0:0:
64,192,400979,1,0,0:0:0:0:
64,192,401214,1,0,0:0:0:0:
192,192,401214,1,0,0:0:0:0:
320,192,401448,1,0,0:0:0:0:
192,192,401565,1,0,0:0:0:0:
448,192,401682,128,0,402151:0:0:0:0:
64,192,401682,1,0,0:0:0:0:
320,192,401917,1,0,0:0:0:0:
192,192,401917,1,0,0:0:0:0:
64,192,402151,128,0,402620:0:0:0:0:
320,192,402151,1,0,0:0:0:0:
192,192,402151,1,0,0:0:0:0:
192,192,402385,1,0,0:0:0:0:
192,192,402620,1,0,0:0:0:0:
320,192,402620,128,0,403089:0:0:0:0:
448,192,402620,128,0,403089:0:0:0:0:
64,192,403089,128,0,403557:0:0:0:0:
192,192,403089,128,0,403557:0:0:0:0:
320,192,403557,1,0,0:0:0:0:
448,192,403557,1,0,0:0:0:0:
448,192,403792,1,0,0:0:0:0:
192,192,404495,1,0,0:0:0:0:
64,192,404612,1,0,0:0:0:0:
192,192,404729,1,0,0:0:0:0:
64,192,404846,1,0,0:0:0:0:
448,192,404964,128,0,405198:0:0:0:0:
320,192,404964,1,0,0:0:0:0:
320,192,405198,128,0,405432:0:0:0:0:
448,192,405432,128,0,405667:0:0:0:0:
192,192,405432,1,0,0:0:0:0:
320,192,405667,128,0,405901:0:0:0:0:
192,192,405901,128,0,406135:0:0:0:0:
448,192,405901,1,0,0:0:0:0:
320,192,406135,128,0,406370:0:0:0:0:
192,192,406370,128,0,406604:0:0:0:0:
448,192,406370,1,0,0:0:0:0:
320,192,406604,128,0,406839:0:0:0:0:
192,192,406839,128,0,407307:0:0:0:0:
64,192,406839,128,0,407307:0:0:0:0:
448,192,406839,1,0,0:0:0:0:
320,192,407307,1,0,0:0:0:0:
448,192,407307,1,0,0:0:0:0:
192,192,407424,1,0,0:0:0:0:
320,192,407542,1,0,0:0:0:0:
448,192,407659,1,0,0:0:0:0:
192,192,407776,128,0,408010:0:0:0:0:
64,192,407776,1,0,0:0:0:0:
320,192,408010,128,0,408245:0:0:0:0:
192,192,408245,128,0,408479:0:0:0:0:
448,192,408245,1,0,0:0:0:0:
320,192,408479,128,0,408714:0:0:0:0:
64,192,408714,128,0,408948:0:0:0:0:
192,192,408714,1,0,0:0:0:0:
192,192,408948,128,0,409182:0:0:0:0:
320,192,409182,128,0,409417:0:0:0:0:
448,192,409182,1,0,0:0:0:0:
448,192,409417,128,0,409651:0:0:0:0:
64,192,409651,128,0,409885:0:0:0:0:
192,192,409651,1,0,0:0:0:0:
192,192,409885,128,0,410120:0:0:0:0:
320,192,410120,128,0,410354:0:0:0:0:
448,192,410120,1,0,0:0:0:0:
448,192,410354,128,0,410589:0:0:0:0:
320,192,410589,1,0,0:0:0:0:
192,192,410589,1,0,0:0:0:0:
192,192,411057,1,0,0:0:0:0:
64,192,411174,1,0,0:0:0:0:
192,192,411292,1,0,0:0:0:0:
320,192,411409,1,0,0:0:0:0:
448,192,411526,128,0,411760:0:0:0:0:
320,192,411760,128,0,411995:0:0:0:0:
448,192,411995,128,0,412229:0:0:0:0:
320,192,412229,128,0,412464:0:0:0:0:
192,192,412464,1,0,0:0:0:0:
64,192,412581,1,0,0:0:0:0:
320,192,412698,1,0,0:0:0:0:
448,192,412815,1,0,0:0:0:0:
192,192,412932,128,0,413167:0:0:0:0:
320,192,413167,128,0,413401:0:0:0:0:
64,192,413401,128,0,413635:0:0:0:0:
448,192,413635,128,0,413870:0:0:0:0:
320,192,413870,128,0,414104:0:0:0:0:
192,192,414104,128,0,414339:0:0:0:0:
448,192,414339,1,0,0:0:0:0:
320,192,414807,1,0,0:0:0:0:
320,192,415042,1,0,0:0:0:0:
192,192,415276,1,0,0:0:0:0:
64,192,415745,1,0,0:0:0:0:
192,192,415745,1,0,0:0:0:0:
64,192,416448,1,0,0:0:0:0:
192,192,416448,1,0,0:0:0:0:
64,192,417151,1,0,0:0:0:0:
192,192,417151,1,0,0:0:0:0:
320,192,418089,128,0,418557:0:0:0:0:
448,192,418089,128,0,418557:0:0:0:0:
192,192,418557,1,0,0:0:0:0:
64,192,418792,1,0,0:0:0:0:
192,192,419495,1,0,0:0:0:0:
64,192,419612,1,0,0:0:0:0:
192,192,419729,1,0,0:0:0:0:
64,192,419846,1,0,0:0:0:0:
320,192,419964,1,0,0:0:0:0:
448,192,419964,128,0,420198:0:0:0:0:
320,192,420198,128,0,420432:0:0:0:0:
448,192,420432,128,0,420667:0:0:0:0:
192,192,420432,1,0,0:0:0:0:
320,192,420667,128,0,420901:0:0:0:0:
64,192,420901,128,0,421135:0:0:0:0:
192,192,420901,1,0,0:0:0:0:
192,192,421135,128,0,421370:0:0:0:0:
320,192,421370,128,0,421604:0:0:0:0:
64,192,421370,1,0,0:0:0:0:
448,192,421604,128,0,421839:0:0:0:0:
64,192,421839,128,0,422307:0:0:0:0:
192,192,421839,128,0,422307:0:0:0:0:
320,192,421839,1,0,0:0:0:0:
448,192,422307,128,0,422424:0:0:0:0:
320,192,422424,128,0,422542:0:0:0:0:
64,192,422542,128,0,422659:0:0:0:0:
192,192,422659,128,0,422776:0:0:0:0:
448,192,422776,128,0,423010:0:0:0:0:
320,192,422776,1,0,0:0:0:0:
320,192,423010,128,0,423245:0:0:0:0:
64,192,423245,128,0,423479:0:0:0:0:
192,192,423245,1,0,0:0:0:0:
192,192,423479,128,0,423714:0:0:0:0:
448,192,423714,128,0,423948:0:0:0:0:
320,192,423714,1,0,0:0:0:0:
320,192,423948,128,0,424182:0:0:0:0:
192,192,424182,128,0,424417:0:0:0:0:
448,192,424182,1,0,0:0:0:0:
64,192,424417,128,0,424651:0:0:0:0:
448,192,424651,128,0,424885:0:0:0:0:
320,192,424651,1,0,0:0:0:0:
320,192,424885,128,0,425120:0:0:0:0:
192,192,425120,128,0,425354:0:0:0:0:
448,192,425120,1,0,0:0:0:0:
64,192,425354,128,0,425589:0:0:0:0:
192,192,425589,1,0,0:0:0:0:
448,192,426057,1,0,0:0:0:0:
64,192,426174,1,0,0:0:0:0:
192,192,426292,1,0,0:0:0:0:
320,192,426409,1,0,0:0:0:0:
64,192,426526,128,0,426760:0:0:0:0:
192,192,426760,128,0,426995:0:0:0:0:
320,192,426995,128,0,427229:0:0:0:0:
448,192,427229,128,0,427464:0:0:0:0:
64,192,427464,1,0,0:0:0:0:
192,192,427464,1,0,0:0:0:0:
320,192,427581,1,0,0:0:0:0:
192,192,427698,1,0,0:0:0:0:
320,192,427815,1,0,0:0:0:0:
448,192,427932,128,0,428167:0:0:0:0:
320,192,428167,128,0,428401:0:0:0:0:
448,192,428401,128,0,428635:0:0:0:0:
320,192,428635,128,0,428870:0:0:0:0:
192,192,428870,128,0,429104:0:0:0:0:
64,192,429104,128,0,429339:0:0:0:0:
448,192,429339,1,0,0:0:0:0:
320,192,429807,1,0,0:0:0:0:
192,192,430042,1,0,0:0:0:0:
192,192,430276,1,0,0:0:0:0:
64,192,430745,1,0,0:0:0:0:
64,192,431448,1,0,0:0:0:0:
64,192,432151,1,0,0:0:0:0:
448,192,433089,128,0,433557:0:0:0:0:
320,192,433557,128,0,433792:0:0:0:0:
192,192,433792,128,0,434026:0:0:0:0:
64,192,434026,128,0,434495:0:0:0:0:
448,192,434495,1,0,0:0:0:0:
448,192,435198,1,0,0:0:0:0:
448,192,435901,1,0,0:0:0:0:
448,192,436370,1,0,0:0:0:0:
320,192,436604,1,0,0:0:0:0:
192,192,436839,1,0,0:0:0:0:
448,192,437307,1,0,0:0:0:0:
448,192,437542,1,0,0:0:0:0:
448,192,437776,1,0,0:0:0:0:
64,192,438245,1,0,0:0:0:0:
64,192,438948,1,0,0:0:0:0:
64,192,439651,1,0,0:0:0:0:
192,192,440120,1,0,0:0:0:0:
320,192,440354,1,0,0:0:0:0:
448,192,440823,1,0,0:0:0:0:
320,192,441057,1,0,0:0:0:0:
192,192,441292,1,0,0:0:0:0:
64,192,441526,1,0,0:0:0:0:
448,192,441995,1,0,0:0:0:0:
448,192,442698,1,0,0:0:0:0:
448,192,443401,1,0,0:0:0:0:
320,192,443870,1,0,0:0:0:0:
192,192,444104,1,0,0:0:0:0:
64,192,444339,1,0,0:0:0:0:
192,192,444807,1,0,0:0:0:0:
320,192,445042,1,0,0:0:0:0:
448,192,445276,1,0,0:0:0:0:
320,192,445745,1,0,0:0:0:0:
320,192,446448,1,0,0:0:0:0:
320,192,447151,1,0,0:0:0:0:
320,192,448089,1,0,0:0:0:0:
448,192,448089,1,0,0:0:0:0:
64,192,448557,1,0,0:0:0:0:
192,192,448792,1,0,0:0:0:0:
320,192,449026,1,0,0:0:0:0:
448,192,449495,1,0,0:0:0:0:
448,192,450198,1,0,0:0:0:0:
448,192,450901,1,0,0:0:0:0:
320,192,451370,1,0,0:0:0:0:
192,192,451604,1,0,0:0:0:0:
64,192,451839,1,0,0:0:0:0:
320,192,452307,1,0,0:0:0:0:
320,192,452542,1,0,0:0:0:0:
320,192,452776,1,0,0:0:0:0:
192,192,453245,1,0,0:0:0:0:
192,192,453948,1,0,0:0:0:0:
192,192,454651,1,0,0:0:0:0:
64,192,455120,1,0,0:0:0:0:
192,192,455354,1,0,0:0:0:0:
448,192,455823,1,0,0:0:0:0:
320,192,456057,1,0,0:0:0:0:
192,192,456292,1,0,0:0:0:0:
64,192,456526,1,0,0:0:0:0:
192,192,456995,1,0,0:0:0:0:
192,192,457698,1,0,0:0:0:0:
192,192,458401,1,0,0:0:0:0:
320,192,458870,1,0,0:0:0:0:
448,192,459104,1,0,0:0:0:0:
64,192,459339,1,0,0:0:0:0:
320,192,459807,1,0,0:0:0:0:
192,192,460042,1,0,0:0:0:0:
64,192,460276,1,0,0:0:0:0:
448,192,460745,1,0,0:0:0:0:
448,192,461448,1,0,0:0:0:0:
448,192,462151,5,0,0:0:0:0:
448,192,462620,128,0,462854:0:0:0:0:
320,192,462854,128,0,463089:0:0:0:0:
64,192,463089,5,0,0:0:0:0:
192,192,463089,1,0,0:0:0:0:
64,192,463323,1,0,0:0:0:0:
192,192,463323,1,0,0:0:0:0:
64,192,463557,1,0,0:0:0:0:
192,192,463557,1,0,0:0:0:0:
64,192,463792,1,0,0:0:0:0:
192,192,463792,1,0,0:0:0:0:
320,192,464026,1,0,0:0:0:0:
448,192,464026,1,0,0:0:0:0:
64,192,464026,128,0,464260:0:0:0:0:
320,192,464260,1,0,0:0:0:0:
448,192,464260,1,0,0:0:0:0:
192,192,464260,128,0,464495:0:0:0:0:
320,192,464495,128,0,464964:0:0:0:0:
448,192,464495,128,0,464964:0:0:0:0:
64,192,464964,1,0,0:0:0:0:
192,192,464964,1,0,0:0:0:0:
64,192,465198,1,0,0:0:0:0:
192,192,465198,1,0,0:0:0:0:
448,192,465432,1,0,0:0:0:0:
320,192,465549,1,0,0:0:0:0:
192,192,465667,1,0,0:0:0:0:
64,192,465784,1,0,0:0:0:0:
320,192,465901,1,0,0:0:0:0:
448,192,465901,1,0,0:0:0:0:
64,192,466370,1,0,0:0:0:0:
192,192,466487,1,0,0:0:0:0:
320,192,466604,1,0,0:0:0:0:
448,192,466721,1,0,0:0:0:0:
64,192,466839,1,0,0:0:0:0:
192,192,466839,1,0,0:0:0:0:
448,192,467073,1,0,0:0:0:0:
320,192,467073,1,0,0:0:0:0:
64,192,467190,1,0,0:0:0:0:
192,192,467307,1,0,0:0:0:0:
320,192,467424,1,0,0:0:0:0:
192,192,467542,1,0,0:0:0:0:
320,192,467659,1,0,0:0:0:0:
448,192,467776,1,0,0:0:0:0:
64,192,468245,1,0,0:0:0:0:
192,192,468362,1,0,0:0:0:0:
320,192,468479,1,0,0:0:0:0:
64,192,468714,1,0,0:0:0:0:
192,192,468714,1,0,0:0:0:0:
448,192,468948,1,0,0:0:0:0:
320,192,469065,1,0,0:0:0:0:
192,192,469182,1,0,0:0:0:0:
64,192,469299,1,0,0:0:0:0:
192,192,469417,1,0,0:0:0:0:
320,192,469534,1,0,0:0:0:0:
192,192,469651,1,0,0:0:0:0:
64,192,469768,1,0,0:0:0:0:
320,192,469885,1,0,0:0:0:0:
448,192,469885,1,0,0:0:0:0:
64,192,470120,1,0,0:0:0:0:
192,192,470120,1,0,0:0:0:0:
320,192,470354,1,0,0:0:0:0:
448,192,470354,1,0,0:0:0:0:
64,192,470589,1,0,0:0:0:0:
192,192,470589,1,0,0:0:0:0:
64,192,471057,1,0,0:0:0:0:
192,192,471174,1,0,0:0:0:0:
320,192,471292,1,0,0:0:0:0:
192,192,471409,1,0,0:0:0:0:
448,192,471526,128,0,471760:0:0:0:0:
320,192,471760,128,0,471995:0:0:0:0:
64,192,471995,1,0,0:0:0:0:
192,192,471995,1,0,0:0:0:0:
320,192,472229,1,0,0:0:0:0:
448,192,472229,1,0,0:0:0:0:
64,192,472464,1,0,0:0:0:0:
192,192,472464,1,0,0:0:0:0:
320,192,472698,1,0,0:0:0:0:
448,192,472698,1,0,0:0:0:0:
192,192,472932,1,0,0:0:0:0:
320,192,472932,1,0,0:0:0:0:
64,192,473167,1,0,0:0:0:0:
192,192,473167,1,0,0:0:0:0:
320,192,473401,128,0,473870:0:0:0:0:
448,192,473401,128,0,473870:0:0:0:0:
64,192,473401,1,0,0:0:0:0:
192,192,473401,1,0,0:0:0:0:
64,192,473870,1,0,0:0:0:0:
192,192,473870,1,0,0:0:0:0:
320,192,474104,1,0,0:0:0:0:
448,192,474104,1,0,0:0:0:0:
64,192,474339,1,0,0:0:0:0:
192,192,474339,1,0,0:0:0:0:
320,192,474573,1,0,0:0:0:0:
448,192,474573,1,0,0:0:0:0:
192,192,474807,1,0,0:0:0:0:
320,192,474807,1,0,0:0:0:0:
64,192,475042,1,0,0:0:0:0:
192,192,475042,1,0,0:0:0:0:
320,192,475276,1,0,0:0:0:0:
64,192,475276,128,0,475745:0:0:0:0:
192,192,475276,128,0,475745:0:0:0:0:
448,192,475276,1,0,0:0:0:0:
320,192,475745,1,0,0:0:0:0:
448,192,475745,1,0,0:0:0:0:
64,192,475979,1,0,0:0:0:0:
192,192,475979,1,0,0:0:0:0:
320,192,476214,1,0,0:0:0:0:
448,192,476214,1,0,0:0:0:0:
64,192,476448,1,0,0:0:0:0:
192,192,476448,1,0,0:0:0:0:
192,192,476682,1,0,0:0:0:0:
320,192,476682,1,0,0:0:0:0:
320,192,476917,1,0,0:0:0:0:
448,192,476917,1,0,0:0:0:0:
192,192,477151,1,0,0:0:0:0:
320,192,477151,1,0,0:0:0:0:
64,192,477151,128,0,477620:0:0:0:0:
448,192,477151,128,0,477620:0:0:0:0:
192,192,477385,1,0,0:0:0:0:
320,192,477385,1,0,0:0:0:0:
192,192,477620,1,0,0:0:0:0:
320,192,477620,1,0,0:0:0:0:
64,192,477854,1,0,0:0:0:0:
448,192,477854,1,0,0:0:0:0:
64,192,478089,128,0,478323:0:0:0:0:
192,192,478323,128,0,478557:0:0:0:0:
320,192,478557,128,0,478792:0:0:0:0:
448,192,478792,128,0,479026:0:0:0:0:
64,192,479026,128,0,479495:0:0:0:0:
192,192,479026,128,0,479495:0:0:0:0:
320,192,479495,128,0,479964:0:0:0:0:
448,192,479495,128,0,479964:0:0:0:0:
192,192,479964,1,0,0:0:0:0:
64,192,479964,1,0,0:0:0:0:
320,192,480198,1,0,0:0:0:0:
448,192,480198,1,0,0:0:0:0:
64,192,480432,1,0,0:0:0:0:
192,192,480549,1,0,0:0:0:0:
320,192,480667,1,0,0:0:0:0:
448,192,480784,1,0,0:0:0:0:
64,192,480901,1,0,0:0:0:0:
192,192,480901,1,0,0:0:0:0:
64,192,481135,1,0,0:0:0:0:
192,192,481135,1,0,0:0:0:0:
64,192,481370,1,0,0:0:0:0:
192,192,481370,1,0,0:0:0:0:
64,192,481604,1,0,0:0:0:0:
192,192,481604,1,0,0:0:0:0:
64,192,481839,1,0,0:0:0:0:
192,192,481839,1,0,0:0:0:0:
448,192,482073,1,0,0:0:0:0:
320,192,482190,1,0,0:0:0:0:
192,192,482307,1,0,0:0:0:0:
320,192,482424,1,0,0:0:0:0:
192,192,482542,1,0,0:0:0:0:
320,192,482659,1,0,0:0:0:0:
64,192,482776,1,0,0:0:0:0:
192,192,482776,1,0,0:0:0:0:
320,192,483010,1,0,0:0:0:0:
448,192,483010,1,0,0:0:0:0:
64,192,483245,1,0,0:0:0:0:
192,192,483245,1,0,0:0:0:0:
320,192,483479,1,0,0:0:0:0:
448,192,483479,1,0,0:0:0:0:
64,192,483714,128,0,483948:0:0:0:0:
192,192,483714,128,0,483948:0:0:0:0:
448,192,483948,1,0,0:0:0:0:
320,192,484065,1,0,0:0:0:0:
192,192,484182,1,0,0:0:0:0:
448,192,484417,1,0,0:0:0:0:
320,192,484534,1,0,0:0:0:0:
64,192,484651,1,0,0:0:0:0:
192,192,484651,1,0,0:0:0:0:
448,192,485120,128,0,485354:0:0:0:0:
320,192,485120,128,0,485354:0:0:0:0:
64,192,485589,128,0,485823:0:0:0:0:
192,192,485589,1,0,0:0:0:0:
192,192,485823,128,0,486057:0:0:0:0:
320,192,486057,128,0,486292:0:0:0:0:
448,192,486292,128,0,486526:0:0:0:0:
64,192,486526,128,0,486995:0:0:0:0:
192,192,486526,128,0,486995:0:0:0:0:
320,192,486526,1,0,0:0:0:0:
320,192,486995,128,0,487464:0:0:0:0:
448,192,486995,128,0,487464:0:0:0:0:
192,192,487464,1,0,0:0:0:0:
64,192,487464,1,0,0:0:0:0:
320,192,487698,1,0,0:0:0:0:
448,192,487698,1,0,0:0:0:0:
64,192,487932,1,0,0:0:0:0:
192,192,488049,1,0,0:0:0:0:
320,192,488167,1,0,0:0:0:0:
448,192,488284,1,0,0:0:0:0:
64,192,488401,1,0,0:0:0:0:
192,192,488401,1,0,0:0:0:0:
320,192,488401,1,0,0:0:0:0:
64,192,488635,1,0,0:0:0:0:
192,192,488635,1,0,0:0:0:0:
64,192,488870,1,0,0:0:0:0:
192,192,488870,1,0,0:0:0:0:
64,192,489104,1,0,0:0:0:0:
192,192,489104,1,0,0:0:0:0:
64,192,489339,1,0,0:0:0:0:
192,192,489339,1,0,0:0:0:0:
320,192,489339,1,0,0:0:0:0:
448,192,489573,1,0,0:0:0:0:
320,192,489690,1,0,0:0:0:0:
192,192,489807,1,0,0:0:0:0:
320,192,489924,1,0,0:0:0:0:
192,192,490042,1,0,0:0:0:0:
320,192,490159,1,0,0:0:0:0:
64,192,490276,1,0,0:0:0:0:
192,192,490276,1,0,0:0:0:0:
320,192,490276,1,0,0:0:0:0:
320,192,490510,1,0,0:0:0:0:
448,192,490510,1,0,0:0:0:0:
64,192,490745,1,0,0:0:0:0:
192,192,490745,1,0,0:0:0:0:
320,192,490979,1,0,0:0:0:0:
448,192,490979,1,0,0:0:0:0:
64,192,491214,128,0,491448:0:0:0:0:
192,192,491214,128,0,491448:0:0:0:0:
320,192,491214,1,0,0:0:0:0:
448,192,491448,1,0,0:0:0:0:
320,192,491565,1,0,0:0:0:0:
192,192,491682,1,0,0:0:0:0:
448,192,491917,1,0,0:0:0:0:
320,192,492034,1,0,0:0:0:0:
64,192,492151,1,0,0:0:0:0:
192,192,492151,1,0,0:0:0:0:
64,192,492620,128,0,492971:0:0:0:0:
192,192,492620,128,0,492971:0:0:0:0:
320,192,492620,128,0,492971:0:0:0:0:
448,192,492620,128,0,492971:0:0:0:0:
64,192,493089,1,0,0:0:0:0:
192,192,493089,1,0,0:0:0:0:
320,192,493089,1,0,0:0:0:0:
448,192,493089,1,0,0:0:0:0:
448,192,493557,1,0,0:0:0:0:
320,192,493792,128,0,494260:0:0:0:0:
448,192,494495,1,0,0:0:0:0:
448,192,494846,1,0,0:0:0:0:
448,192,495198,1,0,0:0:0:0:
448,192,495549,1,0,0:0:0:0:
448,192,495901,1,0,0:0:0:0:
64,192,496135,128,0,496370:0:0:0:0:
448,192,496370,128,0,496604:0:0:0:0:
192,192,496604,128,0,496839:0:0:0:0:
320,192,496839,1,0,0:0:0:0:
448,192,496839,1,0,0:0:0:0:
64,192,497073,1,0,0:0:0:0:
192,192,497073,1,0,0:0:0:0:
320,192,497307,1,0,0:0:0:0:
448,192,497307,1,0,0:0:0:0:
64,192,497542,128,0,498010:0:0:0:0:
192,192,497542,128,0,498010:0:0:0:0:
448,192,498245,1,0,0:0:0:0:
448,192,498596,1,0,0:0:0:0:
448,192,498948,1,0,0:0:0:0:
448,192,499299,1,0,0:0:0:0:
448,192,499651,128,0,499768:0:0:0:0:
320,192,499768,128,0,499885:0:0:0:0:
64,192,499885,128,0,500003:0:0:0:0:
192,192,500003,128,0,500120:0:0:0:0:
320,192,500120,128,0,500237:0:0:0:0:
192,192,500237,128,0,500354:0:0:0:0:
448,192,500354,128,0,500471:0:0:0:0:
64,192,500471,128,0,500589:0:0:0:0:
320,192,500589,128,0,501292:0:0:0:0:
448,192,500589,128,0,501292:0:0:0:0:
192,192,500823,1,0,0:0:0:0:
64,192,501057,1,0,0:0:0:0:
192,192,501292,1,0,0:0:0:0:
64,192,501995,1,0,0:0:0:0:
448,192,502346,1,0,0:0:0:0:
448,192,502698,1,0,0:0:0:0:
448,192,503049,1,0,0:0:0:0:
448,192,503401,1,0,0:0:0:0:
64,192,503635,128,0,503870:0:0:0:0:
320,192,503870,128,0,504104:0:0:0:0:
192,192,504104,128,0,504339:0:0:0:0:
448,192,504339,128,0,504807:0:0:0:0:
320,192,504807,128,0,505042:0:0:0:0:
192,192,505042,128,0,505276:0:0:0:0:
64,192,505276,128,0,505510:0:0:0:0:
64,192,505745,1,0,0:0:0:0:
64,192,505979,1,0,0:0:0:0:
64,192,506214,1,0,0:0:0:0:
192,192,506214,1,0,0:0:0:0:
192,192,506565,1,0,0:0:0:0:
448,192,506682,128,0,507151:0:0:0:0:
320,192,506917,1,0,0:0:0:0:
64,192,507151,128,0,507620:0:0:0:0:
192,192,507385,1,0,0:0:0:0:
64,192,508089,128,0,508323:0:0:0:0:
192,192,508089,128,0,508323:0:0:0:0:
448,192,508557,1,0,0:0:0:0:
320,192,508792,128,0,509260:0:0:0:0:
448,192,509495,1,0,0:0:0:0:
448,192,509846,1,0,0:0:0:0:
448,192,510198,1,0,0:0:0:0:
448,192,510549,1,0,0:0:0:0:
448,192,510901,1,0,0:0:0:0:
64,192,511135,128,0,511370:0:0:0:0:
448,192,511370,128,0,511604:0:0:0:0:
192,192,511604,128,0,511839:0:0:0:0:
320,192,511839,1,0,0:0:0:0:
448,192,511839,1,0,0:0:0:0:
64,192,512073,1,0,0:0:0:0:
192,192,512073,1,0,0:0:0:0:
320,192,512307,1,0,0:0:0:0:
448,192,512307,1,0,0:0:0:0:
64,192,512542,128,0,513010:0:0:0:0:
192,192,512542,128,0,513010:0:0:0:0:
448,192,513245,1,0,0:0:0:0:
448,192,513596,1,0,0:0:0:0:
448,192,513948,1,0,0:0:0:0:
448,192,514299,1,0,0:0:0:0:
448,192,514651,128,0,514768:0:0:0:0:
320,192,514768,128,0,514885:0:0:0:0:
64,192,514885,128,0,515003:0:0:0:0:
192,192,515003,128,0,515120:0:0:0:0:
320,192,515120,128,0,515237:0:0:0:0:
192,192,515237,128,0,515354:0:0:0:0:
448,192,515354,128,0,515471:0:0:0:0:
64,192,515471,128,0,515589:0:0:0:0:
320,192,515589,128,0,516292:0:0:0:0:
448,192,515589,128,0,516292:0:0:0:0:
192,192,515823,1,0,0:0:0:0:
64,192,516057,1,0,0:0:0:0:
192,192,516292,1,0,0:0:0:0:
64,192,516995,1,0,0:0:0:0:
320,192,517229,1,0,0:0:0:0:
448,192,517346,1,0,0:0:0:0:
448,192,517698,1,0,0:0:0:0:
448,192,518049,1,0,0:0:0:0:
448,192,518401,1,0,0:0:0:0:
64,192,518635,128,0,518870:0:0:0:0:
320,192,518870,128,0,519104:0:0:0:0:
192,192,519104,128,0,519339:0:0:0:0:
448,192,519339,128,0,519807:0:0:0:0:
192,192,519573,1,0,0:0:0:0:
320,192,519807,128,0,520042:0:0:0:0:
192,192,519807,1,0,0:0:0:0:
192,192,520042,128,0,520276:0:0:0:0:
448,192,520042,1,0,0:0:0:0:
64,192,520276,128,0,520510:0:0:0:0:
448,192,520276,1,0,0:0:0:0:
448,192,520510,1,0,0:0:0:0:
64,192,520745,1,0,0:0:0:0:
192,192,520745,1,0,0:0:0:0:
64,192,520979,1,0,0:0:0:0:
64,192,521214,1,0,0:0:0:0:
192,192,521214,1,0,0:0:0:0:
320,192,521448,1,0,0:0:0:0:
192,192,521565,1,0,0:0:0:0:
448,192,521682,128,0,522151:0:0:0:0:
64,192,521682,1,0,0:0:0:0:
320,192,521917,1,0,0:0:0:0:
192,192,521917,1,0,0:0:0:0:
64,192,522151,128,0,522620:0:0:0:0:
320,192,522151,1,0,0:0:0:0:
192,192,522151,1,0,0:0:0:0:
192,192,522385,1,0,0:0:0:0:
192,192,522620,1,0,0:0:0:0:
320,192,522620,128,0,523089:0:0:0:0:
448,192,522620,128,0,523089:0:0:0:0:
64,192,523089,128,0,523557:0:0:0:0:
192,192,523089,128,0,523557:0:0:0:0:
320,192,523557,1,0,0:0:0:0:
448,192,523557,1,0,0:0:0:0:
448,192,523792,1,0,0:0:0:0:
192,192,524495,1,0,0:0:0:0:
64,192,524612,1,0,0:0:0:0:
192,192,524729,1,0,0:0:0:0:
64,192,524846,1,0,0:0:0:0:
448,192,524964,128,0,525198:0:0:0:0:
320,192,524964,1,0,0:0:0:0:
320,192,525198,128,0,525432:0:0:0:0:
448,192,525432,128,0,525667:0:0:0:0:
192,192,525432,1,0,0:0:0:0:
320,192,525667,128,0,525901:0:0:0:0:
192,192,525901,128,0,526135:0:0:0:0:
448,192,525901,1,0,0:0:0:0:
320,192,526135,128,0,526370:0:0:0:0:
192,192,526370,128,0,526604:0:0:0:0:
448,192,526370,1,0,0:0:0:0:
320,192,526604,128,0,526839:0:0:0:0:
192,192,526839,128,0,527307:0:0:0:0:
64,192,526839,128,0,527307:0:0:0:0:
448,192,526839,1,0,0:0:0:0:
320,192,527307,1,0,0:0:0:0:
448,192,527307,1,0,0:0:0:0:
192,192,527424,1,0,0:0:0:0:
320,192,527542,1,0,0:0:0:0:
448,192,527659,1,0,0:0:0:0:
192,192,527776,128,0,528010:0:0:0:0:
64,192,527776,1,0,0:0:0:0:
320,192,528010,128,0,528245:0:0:0:0:
192,192,528245,128,0,528479:0:0:0:0:
448,192,528245,1,0,0:0:0:0:
320,192,528479,128,0,528714:0:0:0:0:
64,192,528714,128,0,528948:0:0:0:0:
192,192,528714,1,0,0:0:0:0:
192,192,528948,128,0,529182:0:0:0:0:
320,192,529182,128,0,529417:0:0:0:0:
448,192,529182,1,0,0:0:0:0:
448,192,529417,128,0,529651:0:0:0:0:
64,192,529651,128,0,529885:0:0:0:0:
192,192,529651,1,0,0:0:0:0:
192,192,529885,128,0,530120:0:0:0:0:
320,192,530120,128,0,530354:0:0:0:0:
448,192,530120,1,0,0:0:0:0:
448,192,530354,128,0,530589:0:0:0:0:
320,192,530589,1,0,0:0:0:0:
192,192,530589,1,0,0:0:0:0:
192,192,531057,1,0,0:0:0:0:
64,192,531174,1,0,0:0:0:0:
192,192,531292,1,0,0:0:0:0:
320,192,531409,1,0,0:0:0:0:
448,192,531526,128,0,531760:0:0:0:0:
320,192,531760,128,0,531995:0:0:0:0:
448,192,531995,128,0,532229:0:0:0:0:
320,192,532229,128,0,532464:0:0:0:0:
192,192,532464,1,0,0:0:0:0:
64,192,532581,1,0,0:0:0:0:
320,192,532698,1,0,0:0:0:0:
448,192,532815,1,0,0:0:0:0:
192,192,532932,128,0,533167:0:0:0:0:
320,192,533167,128,0,533401:0:0:0:0:
64,192,533401,128,0,533635:0:0:0:0:
448,192,533635,128,0,533870:0:0:0:0:
320,192,533870,128,0,534104:0:0:0:0:
192,192,534104,128,0,534339:0:0:0:0:
448,192,534339,1,0,0:0:0:0:
320,192,534807,1,0,0:0:0:0:
320,192,535042,1,0,0:0:0:0:
192,192,535276,1,0,0:0:0:0:
64,192,535745,1,0,0:0:0:0:
192,192,535745,1,0,0:0:0:0:
64,192,536448,1,0,0:0:0:0:
192,192,536448,1,0,0:0:0:0:
64,192,537151,1,0,0:0:0:0:
192,192,537151,1,0,0:0:0:0:
320,192,538089,128,0,538557:0:0:0:0:
448,192,538089,128,0,538557:0:0:0:0:
192,192,538557,1,0,0:0:0:0:
64,192,538792,1,0,0:0:0:0:
192,192,539495,1,0,0:0:0:0:
64,192,539612,1,0,0:0:0:0:
192,192,539729,1,0,0:0:0:0:
64,192,539846,1,0,0:0:0:0:
320,192,539964,1,0,0:0:0:0:
448,192,539964,128,0,540198:0:0:0:0:
320,192,540198,128,0,540432:0:0:0:0:
448,192,540432,128,0,540667:0:0:0:0:
192,192,540432,1,0,0:0:0:0:
320,192,540667,128,0,540901:0:0:0:0:
64,192,540901,128,0,541135:0:0:0:0:
192,192,540901,1,0,0:0:0:0:
192,192,541135,128,0,541370:0:0:0:0:
320,192,541370,128,0,541604:0:0:0:0:
64,192,541370,1,0,0:0:0:0:
448,192,541604,128,0,541839:0:0:0:0:
64,192,541839,128,0,542307:0:0:0:0:
192,192,541839,128,0,542307:0:0:0:0:
320,192,541839,1,0,0:0:0:0:
448,192,542307,128,0,542424:0:0:0:0:
320,192,542424,128,0,542542:0:0:0:0:
64,192,542542,128,0,542659:0:0:0:0:
192,192,542659,128,0,542776:0:0:0:0:
448,192,542776,128,0,543010:0:0:0:0:
320,192,542776,1,0,0:0:0:0:
320,192,543010,128,0,543245:0:0:0:0:
64,192,543245,128,0,543479:0:0:0:0:
192,192,543245,1,0,0:0:0:0:
192,192,543479,128,0,543714:0:0:0:0:
448,192,543714,128,0,543948:0:0:0:0:
320,192,543714,1,0,0:0:0:0:
320,192,543948,128,0,544182:0:0:0:0:
192,192,544182,128,0,544417:0:0:0:0:
448,192,544182,1,0,0:0:0:0:
64,192,544417,128,0,544651:0:0:0:0:
448,192,544651,128,0,544885:0:0:0:0:
320,192,544651,1,0,0:0:0:0:
320,192,544885,128,0,545120:0:0:0:0:
192,192,545120,128,0,545354:0:0:0:0:
448,192,545120,1,0,0:0:0:0:
64,192,545354,128,0,545589:0:0:0:0:
192,192,545589,1,0,0:0:0:0:
448,192,546057,1,0,0:0:0:0:
64,192,546174,1,0,0:0:0:0:
192,192,546292,1,0,0:0:0:0:
320,192,546409,1,0,0:0:0:0:
64,192,546526,128,0,546760:0:0:0:0:
192,192,546760,128,0,546995:0:0:0:0:
320,192,546995,128,0,547229:0:0:0:0:
448,192,547229,128,0,547464:0:0:0:0:
64,192,547464,1,0,0:0:0:0:
192,192,547464,1,0,0:0:0:0:
320,192,547581,1,0,0:0:0:0:
192,192,547698,1,0,0:0:0:0:
320,192,547815,1,0,0:0:0:0:
448,192,547932,128,0,548167:0:0:0:0:
320,192,548167,128,0,548401:0:0:0:0:
448,192,548401,128,0,548635:0:0:0:0:
320,192,548635,128,0,548870:0:0:0:0:
192,192,548870,128,0,549104:0:0:0:0:
64,192,549104,128,0,549339:0:0:0:0:
448,192,549339,1,0,0:0:0:0:
320,192,549807,1,0,0:0:0:0:
192,192,550042,1,0,0:0:0:0:
192,192,550276,1,0,0:0:0:0:
64,192,550745,1,0,0:0:0:0:
64,192,551214,1,0,0:0:0:0:
64,192,551682,1,0,0:0:0:0:
448,192,551917,1,0,0:0:0:0:
64,192,552151,1,0,0:0:0:0:
320,192,552385,1,0,0:0:0:0:
64,192,552620,128,0,553089:0:0:0:0:
192,192,552620,128,0,553089:0:0:0:0:
320,192,553089,1,0,0:0:0:0:
320,192,581778,132,0,581992:0:0:0:0:
448,192,581992,128,0,582206:0:0:0:0:
320,192,582206,128,0,582420:0:0:0:0:
448,192,582420,128,0,583492:0:0:0:0:
64,192,583492,128,0,583706:0:0:0:0:
192,192,583706,1,0,0:0:0:0:
320,192,583706,1,0,0:0:0:0:
448,192,583920,128,0,584135:0:0:0:0:
192,192,584135,1,0,0:0:0:0:
320,192,584135,1,0,0:0:0:0:
64,192,584349,128,0,584563:0:0:0:0:
192,192,584563,1,0,0:0:0:0:
320,192,584563,1,0,0:0:0:0:
448,192,584778,128,0,584992:0:0:0:0:
320,192,584992,1,0,0:0:0:0:
192,192,584992,1,0,0:0:0:0:
64,192,585206,128,0,585635:0:0:0:0:
192,192,585635,128,0,586063:0:0:0:0:
320,192,586063,128,0,586492:0:0:0:0:
448,192,586492,128,0,586920:0:0:0:0:
64,192,586920,128,0,587349:0:0:0:0:
320,192,587563,1,0,0:0:0:0:
448,192,587563,1,0,0:0:0:0:
64,192,587778,1,0,0:0:0:0:
192,192,587778,1,0,0:0:0:0:
320,192,587992,1,0,0:0:0:0:
448,192,587992,1,0,0:0:0:0:
320,192,588206,1,0,0:0:0:0:
448,192,588206,1,0,0:0:0:0:
192,192,588420,1,0,0:0:0:0:
64,192,588420,1,0,0:0:0:0:
448,192,588635,128,0,588849:0:0:0:0:
320,192,588849,128,0,589063:0:0:0:0:
192,192,589063,128,0,589278:0:0:0:0:
64,192,589278,128,0,590349:0:0:0:0:
448,192,590349,128,0,590563:0:0:0:0:
192,192,590563,1,0,0:0:0:0:
320,192,590563,1,0,0:0:0:0:
64,192,590778,128,0,590992:0:0:0:0:
192,192,590992,1,0,0:0:0:0:
320,192,590992,1,0,0:0:0:0:
448,192,591206,128,0,591420:0:0:0:0:
320,192,591420,1,0,0:0:0:0:
192,192,591420,1,0,0:0:0:0:
64,192,591635,128,0,591849:0:0:0:0:
192,192,591849,1,0,0:0:0:0:
320,192,591849,1,0,0:0:0:0:
448,192,592063,128,0,592492:0:0:0:0:
320,192,592492,128,0,592920:0:0:0:0:
448,192,592920,128,0,593349:0:0:0:0:
320,192,593349,128,0,593778:0:0:0:0:
64,192,593778,128,0,594206:0:0:0:0:
192,192,593778,1,0,0:0:0:0:
192,192,593992,1,0,0:0:0:0:
448,192,594206,128,0,594420:0:0:0:0:
192,192,594206,1,0,0:0:0:0:
320,192,594420,128,0,594635:0:0:0:0:
64,192,594420,1,0,0:0:0:0:
192,192,594635,128,0,595492:0:0:0:0:
64,192,594635,1,0,0:0:0:0:
64,192,595063,128,0,595492:0:0:0:0:
320,192,595492,128,0,595706:0:0:0:0:
448,192,595706,128,0,595920:0:0:0:0:
320,192,595920,128,0,596135:0:0:0:0:
192,192,595920,1,0,0:0:0:0:
448,192,596135,128,0,597206:0:0:0:0:
192,192,596349,1,0,0:0:0:0:
192,192,596778,1,0,0:0:0:0:
64,192,597206,128,0,597420:0:0:0:0:
192,192,597206,1,0,0:0:0:0:
320,192,597420,1,0,0:0:0:0:
192,192,597420,1,0,0:0:0:0:
448,192,597635,128,0,597849:0:0:0:0:
320,192,597635,1,0,0:0:0:0:
320,192,597849,1,0,0:0:0:0:
192,192,597849,1,0,0:0:0:0:
64,192,598063,128,0,598278:0:0:0:0:
192,192,598063,1,0,0:0:0:0:
320,192,598278,1,0,0:0:0:0:
192,192,598278,1,0,0:0:0:0:
448,192,598492,128,0,598706:0:0:0:0:
320,192,598492,1,0,0:0:0:0:
192,192,598706,1,0,0:0:0:0:
320,192,598706,1,0,0:0:0:0:
64,192,598920,128,0,599349:0:0:0:0:
192,192,598920,1,0,0:0:0:0:
192,192,599349,128,0,599778:0:0:0:0:
320,192,599349,1,0,0:0:0:0:
320,192,599778,128,0,600206:0:0:0:0:
448,192,599778,1,0,0:0:0:0:
448,192,600206,128,0,600635:0:0:0:0:
192,192,600206,1,0,0:0:0:0:
320,192,600635,128,0,601063:0:0:0:0:
192,192,600635,1,0,0:0:0:0:
64,192,601063,1,0,0:0:0:0:
192,192,601063,1,0,0:0:0:0:
448,192,601278,1,0,0:0:0:0:
320,192,601278,1,0,0:0:0:0:
192,192,601492,1,0,0:0:0:0:
64,192,601492,1,0,0:0:0:0:
448,192,601706,1,0,0:0:0:0:
320,192,601706,1,0,0:0:0:0:
448,192,601920,1,0,0:0:0:0:
320,192,601920,1,0,0:0:0:0:
64,192,602135,1,0,0:0:0:0:
192,192,602135,1,0,0:0:0:0:
448,192,602349,128,0,602563:0:0:0:0:
320,192,602563,128,0,602778:0:0:0:0:
192,192,602778,128,0,602992:0:0:0:0:
64,192,602992,128,0,604063:0:0:0:0:
192,192,603206,1,0,0:0:0:0:
192,192,603635,1,0,0:0:0:0:
448,192,604063,128,0,604278:0:0:0:0:
192,192,604063,1,0,0:0:0:0:
320,192,604278,1,0,0:0:0:0:
192,192,604278,1,0,0:0:0:0:
64,192,604492,128,0,604706:0:0:0:0:
320,192,604706,1,0,0:0:0:0:
192,192,604706,1,0,0:0:0:0:
448,192,604920,128,0,605135:0:0:0:0:
192,192,605135,1,0,0:0:0:0:
320,192,605135,1,0,0:0:0:0:
64,192,605349,128,0,605563:0:0:0:0:
320,192,605563,1,0,0:0:0:0:
192,192,605563,1,0,0:0:0:0:
448,192,605778,128,0,606206:0:0:0:0:
192,192,605778,1,0,0:0:0:0:
320,192,606206,128,0,606635:0:0:0:0:
192,192,606206,1,0,0:0:0:0:
64,192,606420,1,0,0:0:0:0:
192,192,606420,1,0,0:0:0:0:
448,192,606635,128,0,607063:0:0:0:0:
192,192,606635,1,0,0:0:0:0:
320,192,607063,128,0,607492:0:0:0:0:
192,192,607063,1,0,0:0:0:0:
192,192,607492,1,0,0:0:0:0:
64,192,607492,128,0,607920:0:0:0:0:
448,192,607492,1,0,0:0:0:0:
192,192,607706,1,0,0:0:0:0:
192,192,607920,1,0,0:0:0:0:
320,192,607920,128,0,608349:0:0:0:0:
64,192,608135,1,0,0:0:0:0:
64,192,608349,1,0,0:0:0:0:
192,192,608349,128,0,609206:0:0:0:0:
64,192,608778,128,0,609206:0:0:0:0:
320,192,609206,128,0,609420:0:0:0:0:
448,192,609206,128,0,609420:0:0:0:0:
64,192,609634,1,0,0:0:0:0:
192,192,609848,1,0,0:0:0:0:
448,192,610063,1,0,0:0:0:0:
320,192,610063,1,0,0:0:0:0:
192,192,610277,1,0,0:0:0:0:
64,192,610491,128,0,610706:0:0:0:0:
192,192,610706,128,0,610920:0:0:0:0:
320,192,610920,1,0,0:0:0:0:
64,192,611134,1,0,0:0:0:0:
320,192,611348,128,0,611777:0:0:0:0:
448,192,611348,128,0,611777:0:0:0:0:
64,192,611777,1,0,0:0:0:0:
192,192,611777,1,0,0:0:0:0:
320,192,612206,1,0,0:0:0:0:
448,192,612206,1,0,0:0:0:0:
64,192,612420,1,0,0:0:0:0:
192,192,612420,1,0,0:0:0:0:
320,192,612634,128,0,612848:0:0:0:0:
448,192,612634,128,0,612848:0:0:0:0:
192,192,612848,128,0,613063:0:0:0:0:
64,192,612848,128,0,613063:0:0:0:0:
448,192,613063,1,0,0:0:0:0:
320,192,613277,1,0,0:0:0:0:
192,192,613491,1,0,0:0:0:0:
64,192,613491,1,0,0:0:0:0:
448,192,613920,128,0,614134:0:0:0:0:
320,192,614134,128,0,614348:0:0:0:0:
64,192,614348,1,0,0:0:0:0:
192,192,614348,1,0,0:0:0:0:
448,192,614563,1,0,0:0:0:0:
320,192,614777,1,0,0:0:0:0:
192,192,614991,1,0,0:0:0:0:
320,192,615206,1,0,0:0:0:0:
448,192,615206,1,0,0:0:0:0:
64,192,615634,1,0,0:0:0:0:
192,192,615741,1,0,0:0:0:0:
320,192,615848,1,0,0:0:0:0:
448,192,615956,1,0,0:0:0:0:
64,192,616063,128,0,616277:0:0:0:0:
192,192,616277,128,0,616491:0:0:0:0:
64,192,616491,128,0,616706:0:0:0:0:
320,192,616706,128,0,616920:0:0:0:0:
64,192,616920,1,0,0:0:0:0:
192,192,616920,1,0,0:0:0:0:
448,192,617134,1,0,0:0:0:0:
64,192,617348,128,0,617563:0:0:0:0:
192,192,617563,128,0,617777:0:0:0:0:
320,192,617777,1,0,0:0:0:0:
448,192,617777,1,0,0:0:0:0:
64,192,618206,128,0,618420:0:0:0:0:
448,192,618420,1,0,0:0:0:0:
320,192,618420,1,0,0:0:0:0:
320,192,618634,1,0,0:0:0:0:
448,192,618634,1,0,0:0:0:0:
64,192,619063,128,0,619491:0:0:0:0:
192,192,619063,128,0,619491:0:0:0:0:
320,192,619491,128,0,619920:0:0:0:0:
64,192,620348,1,0,0:0:0:0:
192,192,620348,1,0,0:0:0:0:
448,192,620563,128,0,620777:0:0:0:0:
320,192,620777,128,0,620991:0:0:0:0:
192,192,620991,128,0,621206:0:0:0:0:
64,192,621206,128,0,622920:0:0:0:0:
448,192,621206,128,0,622920:0:0:0:0:
320,192,621634,128,0,621848:0:0:0:0:
192,192,621848,128,0,622063:0:0:0:0:
320,192,622063,128,0,622277:0:0:0:0:
192,192,622277,128,0,622706:0:0:0:0:
192,192,622920,1,0,0:0:0:0:
320,192,622920,1,0,0:0:0:0:
64,192,623348,1,0,0:0:0:0:
64,192,623563,1,0,0:0:0:0:
320,192,623991,1,0,0:0:0:0:
448,192,623991,128,0,624206:0:0:0:0:
320,192,624206,128,0,624420:0:0:0:0:
448,192,624420,128,0,624634:0:0:0:0:
192,192,624420,1,0,0:0:0:0:
64,192,625063,128,0,625491:0:0:0:0:
192,192,625063,128,0,625491:0:0:0:0:
448,192,625491,1,0,0:0:0:0:
64,192,625920,1,0,0:0:0:0:
192,192,625920,1,0,0:0:0:0:
320,192,626348,128,0,626563:0:0:0:0:
448,192,626348,1,0,0:0:0:0:
64,192,626563,1,0,0:0:0:0:
192,192,626670,1,0,0:0:0:0:
320,192,626777,1,0,0:0:0:0:
320,192,626991,1,0,0:0:0:0:
192,192,627206,1,0,0:0:0:0:
448,192,627420,1,0,0:0:0:0:
320,192,627634,1,0,0:0:0:0:
448,192,627634,128,0,627848:0:0:0:0:
192,192,627848,1,0,0:0:0:0:
64,192,627848,128,0,628063:0:0:0:0:
320,192,628384,1,0,0:0:0:0:
192,192,628491,1,0,0:0:0:0:
64,192,628491,128,0,628706:0:0:0:0:
192,192,628706,1,0,0:0:0:0:
320,192,628920,1,0,0:0:0:0:
448,192,628920,128,0,629348:0:0:0:0:
320,192,629348,128,0,629777:0:0:0:0:
64,192,629777,1,0,0:0:0:0:
192,192,629777,128,0,630206:0:0:0:0:
64,192,630206,1,0,0:0:0:0:
448,192,630420,1,0,0:0:0:0:
448,192,630634,1,0,0:0:0:0:
320,192,630848,1,0,0:0:0:0:
192,192,631063,1,0,0:0:0:0:
64,192,631063,128,0,631277:0:0:0:0:
320,192,631277,1,0,0:0:0:0:
192,192,631277,128,0,631491:0:0:0:0:
320,192,631491,128,0,631920:0:0:0:0:
448,192,631491,128,0,631920:0:0:0:0:
64,192,631920,1,0,0:0:0:0:
64,192,632134,1,0,0:0:0:0:
64,192,632348,1,0,0:0:0:0:
64,192,632563,1,0,0:0:0:0:
320,192,632777,1,0,0:0:0:0:
448,192,632777,1,0,0:0:0:0:
64,192,632991,1,0,0:0:0:0:
192,192,632991,1,0,0:0:0:0:
448,192,633206,1,0,0:0:0:0:
320,192,633313,1,0,0:0:0:0:
448,192,633420,1,0,0:0:0:0:
320,192,633527,1,0,0:0:0:0:
192,192,633634,1,0,0:0:0:0:
64,192,633741,1,0,0:0:0:0:
192,192,633848,1,0,0:0:0:0:
64,192,633956,1,0,0:0:0:0:
448,192,634063,128,0,634170:0:0:0:0:
320,192,634170,128,0,634277:0:0:0:0:
192,192,634277,128,0,634384:0:0:0:0:
64,192,634384,128,0,634491:0:0:0:0:
320,192,634491,128,0,634598:0:0:0:0:
448,192,634598,128,0,634706:0:0:0:0:
320,192,634706,128,0,634813:0:0:0:0:
448,192,634813,128,0,634920:0:0:0:0:
64,192,634920,1,0,0:0:0:0:
192,192,635134,1,0,0:0:0:0:
64,192,635348,1,0,0:0:0:0:
192,192,635563,1,0,0:0:0:0:
448,192,635777,1,0,0:0:0:0:
192,192,635991,1,0,0:0:0:0:
320,192,636206,1,0,0:0:0:0:
64,192,636420,1,0,0:0:0:0:
448,192,636634,1,0,0:0:0:0:
320,192,636848,1,0,0:0:0:0:
192,192,637063,1,0,0:0:0:0:
64,192,637277,1,0,0:0:0:0:
192,192,637491,128,0,637920:0:0:0:0:
320,192,637491,1,0,0:0:0:0:
448,192,637706,1,0,0:0:0:0:
320,192,637920,1,0,0:0:0:0:
64,192,638348,1,0,0:0:0:0:
192,192,638563,1,0,0:0:0:0:
320,192,638777,1,0,0:0:0:0:
64,192,638991,128,0,639634:0:0:0:0:
192,192,638991,128,0,639634:0:0:0:0:
320,192,639634,1,0,0:0:0:0:
448,192,639634,1,0,0:0:0:0:
64,192,640063,1,0,0:0:0:0:
448,192,640277,1,0,0:0:0:0:
64,192,640491,1,0,0:0:0:0:
448,192,640706,1,0,0:0:0:0:
64,192,640920,1,0,0:0:0:0:
448,192,641134,1,0,0:0:0:0:
64,192,641348,1,0,0:0:0:0:
448,192,641563,1,0,0:0:0:0:
64,192,641777,128,0,641991:0:0:0:0:
192,192,641991,128,0,642206:0:0:0:0:
320,192,642206,128,0,642420:0:0:0:0:
192,192,642420,128,0,642634:0:0:0:0:
64,192,642634,128,0,642848:0:0:0:0:
192,192,642848,1,0,0:0:0:0:
448,192,642848,128,0,643063:0:0:0:0:
320,192,643063,1,0,0:0:0:0:
64,192,643063,128,0,643491:0:0:0:0:
192,192,643063,128,0,643491:0:0:0:0:
448,192,643491,1,0,0:0:0:0:
320,192,643706,1,0,0:0:0:0:
192,192,643920,1,0,0:0:0:0:
320,192,644134,1,0,0:0:0:0:
64,192,644348,128,0,644777:0:0:0:0:
192,192,644348,128,0,644777:0:0:0:0:
320,192,644348,1,0,0:0:0:0:
448,192,644348,1,0,0:0:0:0:
320,192,644777,128,0,645206:0:0:0:0:
448,192,644777,128,0,645206:0:0:0:0:
64,192,645206,1,0,0:0:0:0:
192,192,645420,1,0,0:0:0:0:
64,192,645634,1,0,0:0:0:0:
192,192,645848,1,0,0:0:0:0:
320,192,646063,128,0,646491:0:0:0:0:
64,192,646063,128,0,646491:0:0:0:0:
192,192,646063,1,0,0:0:0:0:
448,192,646063,1,0,0:0:0:0:
448,192,646491,128,0,646920:0:0:0:0:
192,192,646491,128,0,646920:0:0:0:0:
320,192,646920,1,0,0:0:0:0:
64,192,646920,128,0,647134:0:0:0:0:
192,192,647134,128,0,647348:0:0:0:0:
320,192,647348,128,0,647563:0:0:0:0:
448,192,647563,1,0,0:0:0:0:
192,192,647777,128,0,647991:0:0:0:0:
320,192,647777,1,0,0:0:0:0:
64,192,647991,128,0,648206:0:0:0:0:
192,192,648206,128,0,648420:0:0:0:0:
320,192,648206,1,0,0:0:0:0:
64,192,648420,128,0,648634:0:0:0:0:
192,192,648634,1,0,0:0:0:0:
448,192,648634,128,0,648848:0:0:0:0:
320,192,648848,128,0,649063:0:0:0:0:
448,192,649063,1,0,0:0:0:0:
192,192,649063,128,0,649491:0:0:0:0:
64,192,649491,128,0,649920:0:0:0:0:
320,192,649491,128,0,649920:0:0:0:0:
448,192,649491,1,0,0:0:0:0:
192,192,649920,128,0,650348:0:0:0:0:
448,192,649920,128,0,650348:0:0:0:0:
64,192,650134,128,0,650348:0:0:0:0:
320,192,650348,128,0,650563:0:0:0:0:
448,192,650563,128,0,650777:0:0:0:0:
192,192,650777,128,0,650991:0:0:0:0:
64,192,650991,128,0,651206:0:0:0:0:
320,192,651206,1,0,0:0:0:0:
448,192,651206,1,0,0:0:0:0:
192,192,651420,1,0,0:0:0:0:
320,192,651634,1,0,0:0:0:0:
64,192,651848,1,0,0:0:0:0:
192,192,652063,1,0,0:0:0:0:
64,192,652277,1,0,0:0:0:0:
320,192,652491,1,0,0:0:0:0:
64,192,652706,1,0,0:0:0:0:
320,192,652920,1,0,0:0:0:0:
448,192,652920,1,0,0:0:0:0:
64,192,652920,128,0,653777:0:0:0:0:
192,192,652920,128,0,653777:0:0:0:0:
320,192,653348,1,0,0:0:0:0:
448,192,653670,128,0,653777:0:0:0:0:
320,192,653777,128,0,653991:0:0:0:0:
448,192,653991,128,0,654206:0:0:0:0:
192,192,654206,128,0,654634:0:0:0:0:
320,192,654206,1,0,0:0:0:0:
320,192,654634,1,0,0:0:0:0:
448,192,654634,128,0,654848:0:0:0:0:
320,192,654848,1,0,0:0:0:0:
64,192,655063,128,0,655277:0:0:0:0:
192,192,655277,128,0,655491:0:0:0:0:
320,192,655491,128,0,655920:0:0:0:0:
448,192,655491,1,0,0:0:0:0:
192,192,655920,128,0,656348:0:0:0:0:
448,192,655920,1,0,0:0:0:0:
320,192,656348,128,0,656563:0:0:0:0:
448,192,656348,1,0,0:0:0:0:
192,192,656563,128,0,656777:0:0:0:0:
64,192,656777,128,0,657206:0:0:0:0:
320,192,656777,1,0,0:0:0:0:
192,192,657206,1,0,0:0:0:0:
448,192,657420,1,0,0:0:0:0:
320,192,657634,1,0,0:0:0:0:
192,192,657848,1,0,0:0:0:0:
192,192,658063,1,0,0:0:0:0:
64,192,658277,1,0,0:0:0:0:
64,192,658491,1,0,0:0:0:0:
64,192,658706,1,0,0:0:0:0:
448,192,658920,1,0,0:0:0:0:
320,192,659134,1,0,0:0:0:0:
192,192,659348,1,0,0:0:0:0:
64,192,659777,128,0,660206:0:0:0:0:
192,192,659777,128,0,660206:0:0:0:0:
320,192,660206,1,0,0:0:0:0:
448,192,660206,1,0,0:0:0:0:
448,192,660420,1,0,0:0:0:0:
64,192,660634,1,0,0:0:0:0:
192,192,660848,1,0,0:0:0:0:
64,192,661063,1,0,0:0:0:0:
320,192,661277,1,0,0:0:0:0:
192,192,661491,1,0,0:0:0:0:
192,192,661706,1,0,0:0:0:0:
64,192,661920,1,0,0:0:0:0:
64,192,662134,1,0,0:0:0:0:
192,192,662348,1,0,0:0:0:0:
192,192,662563,1,0,0:0:0:0:
448,192,662777,1,0,0:0:0:0:
320,192,662991,1,0,0:0:0:0:
448,192,663206,128,0,663634:0:0:0:0:
64,192,663634,128,0,664063:0:0:0:0:
192,192,664063,1,0,0:0:0:0:
320,192,664063,1,0,0:0:0:0:
64,192,677670,132,0,677773:0:0:0:0:
448,192,677670,128,0,678911:0:0:0:0:
192,192,678083,128,0,678187:0:0:0:0:
320,192,678497,128,0,678601:0:0:0:0:
192,192,678911,128,0,679014:0:0:0:0:
320,192,679325,128,0,679428:0:0:0:0:
192,192,679738,128,0,679842:0:0:0:0:
64,192,679738,128,0,680773:0:0:0:0:
192,192,680152,128,0,680256:0:0:0:0:
320,192,680566,128,0,680980:0:0:0:0:
448,192,680566,128,0,680980:0:0:0:0:
192,192,680980,128,0,681083:0:0:0:0:
64,192,680980,128,0,682635:0:0:0:0:
448,192,681394,128,0,681497:0:0:0:0:
320,192,681807,128,0,681911:0:0:0:0:
320,192,682221,128,0,682325:0:0:0:0:
448,192,682635,128,0,682738:0:0:0:0:
320,192,683049,128,0,683152:0:0:0:0:
192,192,683049,128,0,684290:0:0:0:0:
64,192,683463,128,0,683566:0:0:0:0:
64,192,684290,128,0,684394:0:0:0:0:
192,192,684704,128,0,684807:0:0:0:0:
320,192,685118,128,0,685221:0:0:0:0:
448,192,685532,128,0,685635:0:0:0:0:
320,192,685945,128,0,686049:0:0:0:0:
192,192,686359,128,0,686463:0:0:0:0:
64,192,686773,128,0,686876:0:0:0:0:
320,192,687911,1,0,0:0:0:0:
448,192,688014,1,0,0:0:0:0:
320,192,688118,1,0,0:0:0:0:
192,192,688221,1,0,0:0:0:0:
320,192,688325,1,0,0:0:0:0:
448,192,688428,1,0,0:0:0:0:
192,192,688635,1,0,0:0:0:0:
192,192,689566,1,0,0:0:0:0:
64,192,689670,1,0,0:0:0:0:
192,192,689773,1,0,0:0:0:0:
320,192,689876,1,0,0:0:0:0:
192,192,689980,1,0,0:0:0:0:
64,192,690083,1,0,0:0:0:0:
192,192,690290,1,0,0:0:0:0:
448,192,690911,128,0,691325:0:0:0:0:
320,192,690911,1,0,0:0:0:0:
320,192,691325,128,0,691738:0:0:0:0:
192,192,691325,1,0,0:0:0:0:
192,192,691738,128,0,692152:0:0:0:0:
64,192,691738,1,0,0:0:0:0:
448,192,692152,1,0,0:0:0:0:
320,192,692359,1,0,0:0:0:0:
448,192,692566,1,0,0:0:0:0:
320,192,692773,1,0,0:0:0:0:
64,192,692980,1,0,0:0:0:0:
192,192,692980,1,0,0:0:0:0:
320,192,693394,128,0,693807:0:0:0:0:
448,192,693394,128,0,693807:0:0:0:0:
192,192,693807,1,0,0:0:0:0:
64,192,693911,128,0,694221:0:0:0:0:
320,192,694221,1,0,0:0:0:0:
448,192,694221,1,0,0:0:0:0:
320,192,694635,128,0,695049:0:0:0:0:
448,192,694635,128,0,695049:0:0:0:0:
64,192,695049,128,0,695463:0:0:0:0:
192,192,695049,128,0,695463:0:0:0:0:
320,192,695463,128,0,695876:0:0:0:0:
64,192,695876,1,0,0:0:0:0:
192,192,695876,1,0,0:0:0:0:
64,192,696083,1,0,0:0:0:0:
192,192,696083,1,0,0:0:0:0:
320,192,696290,128,0,696704:0:0:0:0:
448,192,696290,128,0,696704:0:0:0:0:
64,192,696704,1,0,0:0:0:0:
192,192,696704,1,0,0:0:0:0:
320,192,697118,128,0,697532:0:0:0:0:
448,192,697118,128,0,697532:0:0:0:0:
64,192,697532,1,0,0:0:0:0:
192,192,697532,1,0,0:0:0:0:
320,192,697945,1,0,0:0:0:0:
448,192,697945,1,0,0:0:0:0:
320,192,698152,1,0,0:0:0:0:
448,192,698152,1,0,0:0:0:0:
448,192,698359,1,0,0:0:0:0:
448,192,698773,1,0,0:0:0:0:
320,192,698876,1,0,0:0:0:0:
192,192,698980,1,0,0:0:0:0:
320,192,699083,1,0,0:0:0:0:
448,192,699187,1,0,0:0:0:0:
448,192,699394,1,0,0:0:0:0:
448,192,699601,1,0,0:0:0:0:
320,192,699601,128,0,700014:0:0:0:0:
448,192,700014,1,0,0:0:0:0:
64,192,700014,128,0,700428:0:0:0:0:
192,192,700014,128,0,700428:0:0:0:0:
320,192,700428,128,0,700842:0:0:0:0:
448,192,700428,1,0,0:0:0:0:
448,192,700842,1,0,0:0:0:0:
64,192,700842,128,0,701256:0:0:0:0:
192,192,700842,128,0,701256:0:0:0:0:
320,192,701256,128,0,701670:0:0:0:0:
448,192,701256,1,0,0:0:0:0:
64,192,701670,128,0,702083:0:0:0:0:
192,192,701670,128,0,702083:0:0:0:0:
448,192,701670,1,0,0:0:0:0:
448,192,702083,1,0,0:0:0:0:
320,192,702083,128,0,702497:0:0:0:0:
448,192,702497,1,0,0:0:0:0:
64,192,702911,1,0,0:0:0:0:
192,192,703118,5,0,0:0:0:0:
320,192,703325,1,0,0:0:0:0:
448,192,703738,1,0,0:0:0:0:
64,192,704152,128,0,704566:0:0:0:0:
192,192,704152,1,0,0:0:0:0:
320,192,704566,128,0,704773:0:0:0:0:
192,192,704566,1,0,0:0:0:0:
192,192,704773,128,0,704980:0:0:0:0:
448,192,704980,128,0,705394:0:0:0:0:
320,192,704980,1,0,0:0:0:0:
320,192,705394,1,0,0:0:0:0:
320,192,705601,1,0,0:0:0:0:
320,192,705807,1,0,0:0:0:0:
320,192,706014,1,0,0:0:0:0:
320,192,706221,1,0,0:0:0:0:
64,192,706635,128,0,707049:0:0:0:0:
192,192,706635,128,0,707049:0:0:0:0:
320,192,706635,1,0,0:0:0:0:
448,192,706635,1,0,0:0:0:0:
320,192,707049,128,0,707463:0:0:0:0:
64,192,707463,128,0,707876:0:0:0:0:
192,192,707463,128,0,707876:0:0:0:0:
448,192,707463,1,0,0:0:0:0:
320,192,707876,128,0,708290:0:0:0:0:
448,192,708290,1,0,0:0:0:0:
64,192,708290,128,0,708704:0:0:0:0:
192,192,708290,128,0,708704:0:0:0:0:
320,192,708704,128,0,709118:0:0:0:0:
448,192,709118,1,0,0:0:0:0:
64,192,709118,128,0,709325:0:0:0:0:
192,192,709118,128,0,709325:0:0:0:0:
320,192,709325,128,0,709532:0:0:0:0:
448,192,709325,128,0,709532:0:0:0:0:
64,192,709532,128,0,709945:0:0:0:0:
192,192,709532,128,0,709945:0:0:0:0:
320,192,709945,128,0,710359:0:0:0:0:
448,192,709945,1,0,0:0:0:0:
448,192,710359,1,0,0:0:0:0:
192,192,710359,128,0,710773:0:0:0:0:
64,192,710359,128,0,710773:0:0:0:0:
320,192,710773,128,0,711187:0:0:0:0:
448,192,711187,128,0,711394:0:0:0:0:
192,192,711187,1,0,0:0:0:0:
320,192,711394,128,0,711601:0:0:0:0:
448,192,711601,128,0,712014:0:0:0:0:
192,192,711601,1,0,0:0:0:0:
320,192,712014,1,0,0:0:0:0:
192,192,712118,1,0,0:0:0:0:
64,192,712221,1,0,0:0:0:0:
448,192,712325,1,0,0:0:0:0:
320,192,712428,1,0,0:0:0:0:
320,192,712635,1,0,0:0:0:0:
320,192,712842,1,0,0:0:0:0:
64,192,712842,128,0,713256:0:0:0:0:
192,192,712842,128,0,713256:0:0:0:0:
448,192,712842,1,0,0:0:0:0:
448,192,713256,128,0,713670:0:0:0:0:
320,192,713256,1,0,0:0:0:0:
192,192,713670,128,0,714083:0:0:0:0:
64,192,713670,128,0,714083:0:0:0:0:
320,192,713670,1,0,0:0:0:0:
448,192,714083,128,0,714497:0:0:0:0:
320,192,714083,1,0,0:0:0:0:
64,192,714497,128,0,714911:0:0:0:0:
192,192,714497,128,0,714911:0:0:0:0:
320,192,714497,1,0,0:0:0:0:
448,192,714911,128,0,715325:0:0:0:0:
320,192,714911,1,0,0:0:0:0:
320,192,715325,1,0,0:0:0:0:
64,192,715738,1,0,0:0:0:0:
64,192,715945,1,0,0:0:0:0:
64,192,716152,1,0,0:0:0:0:
64,192,716359,1,0,0:0:0:0:
64,192,716566,1,0,0:0:0:0:
64,192,716773,1,0,0:0:0:0:
64,192,716980,1,0,0:0:0:0:
64,192,717394,1,0,0:0:0:0:
192,192,717394,1,0,0:0:0:0:
320,192,717394,1,0,0:0:0:0:
448,192,717394,1,0,0:0:0:0:
448,192,717704,1,0,0:0:0:0:
320,192,717704,1,0,0:0:0:0:
192,192,717704,1,0,0:0:0:0:
64,192,717704,1,0,0:0:0:0:
448,192,718014,1,0,0:0:0:0:
320,192,718014,1,0,0:0:0:0:
192,192,718014,1,0,0:0:0:0:
64,192,718014,1,0,0:0:0:0:
64,192,718325,1,0,0:0:0:0:
320,192,718325,1,0,0:0:0:0:
448,192,718325,1,0,0:0:0:0:
192,192,718325,1,0,0:0:0:0:
448,192,718635,1,0,0:0:0:0:
448,192,718842,5,0,0:0:0:0:
448,192,719152,1,0,0:0:0:0:
448,192,719463,1,0,0:0:0:0:
320,192,719463,1,0,0:0:0:0:
64,192,719876,5,0,0:0:0:0:
192,192,719876,1,0,0:0:0:0:
320,192,719876,128,0,720187:0:0:0:0:
448,192,719876,128,0,720187:0:0:0:0:
192,192,720187,128,0,720497:0:0:0:0:
64,192,720497,128,0,720704:0:0:0:0:
320,192,720704,128,0,721014:0:0:0:0:
192,192,720704,1,0,0:0:0:0:
448,192,720704,128,0,721014:0:0:0:0:
64,192,721014,128,0,721532:0:0:0:0:
192,192,721014,1,0,0:0:0:0:
192,192,721325,1,0,0:0:0:0:
320,192,721532,1,0,0:0:0:0:
448,192,721532,1,0,0:0:0:0:
192,192,721532,128,0,721945:0:0:0:0:
320,192,721945,128,0,722152:0:0:0:0:
64,192,721945,1,0,0:0:0:0:
448,192,722152,128,0,722359:0:0:0:0:
64,192,722359,128,0,722773:0:0:0:0:
192,192,722359,128,0,722773:0:0:0:0:
320,192,722359,1,0,0:0:0:0:
320,192,722773,128,0,723187:0:0:0:0:
448,192,722773,1,0,0:0:0:0:
448,192,723187,128,0,723601:0:0:0:0:
192,192,723187,1,0,0:0:0:0:
64,192,723187,1,0,0:0:0:0:
192,192,723394,1,0,0:0:0:0:
320,192,723601,128,0,723807:0:0:0:0:
192,192,723601,1,0,0:0:0:0:
192,192,723807,128,0,724014:0:0:0:0:
64,192,724014,1,0,0:0:0:0:
64,192,724325,1,0,0:0:0:0:
64,192,724635,1,0,0:0:0:0:
64,192,724945,1,0,0:0:0:0:
64,192,725256,1,0,0:0:0:0:
192,192,725359,1,0,0:0:0:0:
320,192,725463,1,0,0:0:0:0:
448,192,725566,1,0,0:0:0:0:
64,192,725670,1,0,0:0:0:0:
64,192,725876,1,0,0:0:0:0:
64,192,726083,128,0,726497:0:0:0:0:
192,192,726497,128,0,726704:0:0:0:0:
320,192,726704,128,0,726911:0:0:0:0:
448,192,726911,128,0,727325:0:0:0:0:
64,192,727325,1,0,0:0:0:0:
192,192,727325,1,0,0:0:0:0:
64,192,727532,1,0,0:0:0:0:
192,192,727532,1,0,0:0:0:0:
64,192,727738,128,0,728152:0:0:0:0:
192,192,728152,128,0,728359:0:0:0:0:
320,192,728359,128,0,728566:0:0:0:0:
448,192,728566,128,0,728980:0:0:0:0:
192,192,728980,1,0,0:0:0:0:
64,192,728980,1,0,0:0:0:0:
192,192,729187,1,0,0:0:0:0:
64,192,729187,1,0,0:0:0:0:
64,192,729394,128,0,729807:0:0:0:0:
192,192,729807,128,0,730014:0:0:0:0:
320,192,730014,128,0,730221:0:0:0:0:
448,192,730221,128,0,730635:0:0:0:0:
64,192,730635,1,0,0:0:0:0:
64,192,730945,1,0,0:0:0:0:
64,192,731256,1,0,0:0:0:0:
64,192,731566,1,0,0:0:0:0:
448,192,731876,1,0,0:0:0:0:
320,192,731980,1,0,0:0:0:0:
192,192,732083,1,0,0:0:0:0:
64,192,732187,1,0,0:0:0:0:
448,192,732290,1,0,0:0:0:0:
448,192,732497,1,0,0:0:0:0:
448,192,732704,1,0,0:0:0:0:
64,192,733118,5,0,0:0:0:0:
320,192,733118,128,0,733428:0:0:0:0:
192,192,733118,1,0,0:0:0:0:
448,192,733118,128,0,733428:0:0:0:0:
192,192,733428,128,0,733738:0:0:0:0:
64,192,733738,128,0,733945:0:0:0:0:
320,192,733945,128,0,734256:0:0:0:0:
192,192,733945,1,0,0:0:0:0:
448,192,733945,128,0,734256:0:0:0:0:
64,192,734256,128,0,734773:0:0:0:0:
192,192,734256,1,0,0:0:0:0:
192,192,734566,1,0,0:0:0:0:
320,192,734773,1,0,0:0:0:0:
448,192,734773,1,0,0:0:0:0:
192,192,734773,128,0,735187:0:0:0:0:
320,192,735187,128,0,735394:0:0:0:0:
64,192,735187,1,0,0:0:0:0:
448,192,735394,128,0,735601:0:0:0:0:
64,192,735601,128,0,736014:0:0:0:0:
192,192,735601,128,0,736014:0:0:0:0:
320,192,735601,1,0,0:0:0:0:
320,192,736014,128,0,736428:0:0:0:0:
448,192,736014,1,0,0:0:0:0:
448,192,736428,128,0,736842:0:0:0:0:
192,192,736428,1,0,0:0:0:0:
64,192,736428,1,0,0:0:0:0:
192,192,736635,1,0,0:0:0:0:
320,192,736842,128,0,737049:0:0:0:0:
192,192,736842,1,0,0:0:0:0:
192,192,737049,128,0,737256:0:0:0:0:
64,192,737256,1,0,0:0:0:0:
64,192,737566,1,0,0:0:0:0:
64,192,737876,1,0,0:0:0:0:
64,192,738187,1,0,0:0:0:0:
64,192,738497,1,0,0:0:0:0:
192,192,738601,1,0,0:0:0:0:
320,192,738704,1,0,0:0:0:0:
448,192,738807,1,0,0:0:0:0:
64,192,738911,1,0,0:0:0:0:
64,192,739118,1,0,0:0:0:0:
64,192,739325,128,0,739738:0:0:0:0:
192,192,739738,128,0,739945:0:0:0:0:
320,192,739945,128,0,740152:0:0:0:0:
448,192,740152,128,0,740566:0:0:0:0:
64,192,740566,1,0,0:0:0:0:
192,192,740566,1,0,0:0:0:0:
64,192,740773,1,0,0:0:0:0:
192,192,740773,1,0,0:0:0:0:
64,192,740980,128,0,741394:0:0:0:0:
192,192,741394,128,0,741601:0:0:0:0:
320,192,741601,128,0,741807:0:0:0:0:
448,192,741807,128,0,742221:0:0:0:0:
320,192,742221,1,0,0:0:0:0:
192,192,742221,1,0,0:0:0:0:
64,192,742221,1,0,0:0:0:0:
