osu file format v14

[General]
AudioFilename: audio.mp3
AudioLeadIn: 0
PreviewTime: 180350
Countdown: 0
SampleSet: Normal
StackLeniency: 0.7
Mode: 0
LetterboxInBreaks: 0
WidescreenStoryboard: 0

[Editor]
Bookmarks: 20921,24350,26492,51350,59707,60992,63135,64421,65492,66564
DistanceSpacing: 0.8
BeatDivisor: 4
GridSize: 8
TimelineZoom: 1

[Metadata]
Title:Perfect Storm Feat. Benny Benassi (Razihel Remix)
TitleUnicode:Perfect Storm Feat. Benny Benassi (Razihel Remix)
Artist:Pink Is Punk
ArtistUnicode:Pink Is Punk
Creator:Ritaka
Version:New
Source:
Tags:
BeatmapID:1551817
BeatmapSetID:735079

[Difficulty]
HPDrainRate:6
CircleSize:4
OverallDifficulty:8
ApproachRate:9.5
SliderMultiplier:2.1
SliderTickRate:1

[Events]
//Background and Video events
0,0,"cool-wallpapers-hd-8128-8459-hd-wallpapers.jpg",0,0
//Break Periods
//Storyboard Layer 0 (Background)
//Storyboard Layer 1 (Fail)
//Storyboard Layer 2 (Pass)
//Storyboard Layer 3 (Foreground)
//Storyboard Sound Samples

[TimingPoints]
350,428.571428571429,4,1,0,50,1,0
350,-200,4,2,0,50,0,0
55207,-50,4,1,0,12,0,0
55635,-50,4,1,0,24,0,0
56064,-50,4,1,0,36,0,0
56492,-50,4,1,0,50,0,0
56921,-100,4,1,0,50,0,0
58635,-100,4,1,0,50,0,1
59707,-50,4,1,0,50,0,1
62064,-100,4,1,0,50,0,1
63135,-50,4,1,0,50,0,1
68064,-50,4,1,0,50,0,1
68492,-50,4,1,0,50,0,1
68921,-100,4,1,0,50,0,1
70635,-50,4,1,0,50,0,0
72350,-100,4,1,0,50,0,1
73421,-50,4,1,0,50,0,1
75350,-100,4,1,0,50,0,1
76850,-50,4,1,0,50,0,1
82635,-100,4,1,0,50,0,1
84350,-50,4,1,0,50,0,0
86064,-100,4,1,0,50,0,0
86492,-50,4,1,0,50,0,0

[Colours]
Combo1 : 128,128,255
Combo2 : 0,255,168
Combo3 : 0,128,128
Combo4 : 0,191,255

[HitObjects]
96,80,350,5,0,0:0:0:0:
96,120,564,2,0,L|96:176,1,52.5
184,112,992,1,0,0:0:0:0:
184,152,1207,2,0,L|184:216,1,52.5
272,152,1635,1,0,0:0:0:0:
272,192,1850,2,0,L|272:248,1,52.5
184,336,2278,5,0,0:0:0:0:
64,288,2492,1,0,0:0:0:0:
112,176,2707,1,0,0:0:0:0:
200,80,2921,1,2,0:0:0:0:
280,176,3135,1,2,0:0:0:0:
360,80,3350,1,2,0:0:0:0:
280,176,3564,1,2,0:0:0:0:
168,240,3778,5,0,0:0:0:0:
208,240,3992,2,0,L|264:240,1,52.5
200,152,4421,1,0,0:0:0:0:
240,152,4635,2,0,L|296:152,1,52.5
232,72,5064,1,0,0:0:0:0:
272,72,5278,2,0,L|328:72,1,52.5
400,168,5707,5,0,0:0:0:0:
336,272,5921,1,0,0:0:0:0:
456,224,6135,1,0,0:0:0:0:
328,200,6350,1,2,0:0:0:0:
416,288,6564,1,2,0:0:0:0:
296,320,6778,1,2,0:0:0:0:
176,280,6992,1,2,0:0:0:0:
264,144,7207,5,0,0:0:0:0:
376,88,7421,1,0,0:0:0:0:
368,216,7635,1,0,0:0:0:0:
240,240,7850,2,0,P|176:208|144:128,1,157.5
328,32,8921,5,0,0:0:0:0:
232,120,9135,1,0,0:0:0:0:
320,208,9350,1,0,0:0:0:0:
416,120,9564,1,0,0:0:0:0:
392,240,9778,1,2,0:0:0:0:
296,136,9992,1,2,0:0:0:0:
280,272,10207,1,2,0:0:0:0:
184,192,10421,1,2,0:0:0:0:
224,96,10635,5,0,0:0:0:0:
352,80,10850,1,0,0:0:0:0:
432,176,11064,1,0,0:0:0:0:
304,176,11278,2,0,P|242:128|165:133,1,157.5
256,336,12350,5,0,0:0:0:0:
136,296,12564,1,0,0:0:0:0:
256,264,12778,1,0,0:0:0:0:
136,224,12992,1,0,0:0:0:0:
232,144,13206,1,2,0:0:0:0:
352,176,13420,1,2,0:0:0:0:
448,256,13635,1,2,0:0:0:0:
392,112,13850,1,2,0:0:0:0:
272,64,14064,5,0,0:0:0:0:
272,104,14278,2,0,L|272:160,1,52.5
184,96,14707,1,0,0:0:0:0:
184,136,14921,2,0,L|184:192,1,52.5
96,128,15350,1,0,0:0:0:0:
96,168,15564,2,0,L|96:224,1,52.5
208,272,15992,5,0,0:0:0:0:
328,224,16207,1,0,0:0:0:0:
208,176,16421,1,0,0:0:0:0:
328,128,16635,1,2,0:0:0:0:
448,176,16850,1,2,0:0:0:0:
392,288,17064,1,2,0:0:0:0:
264,288,17278,1,2,0:0:0:0:
376,224,17492,5,0,0:0:0:0:
336,224,17707,2,0,L|280:224,1,52.5
248,128,18135,1,0,0:0:0:0:
288,128,18350,2,0,L|344:128,1,52.5
376,32,18778,1,0,0:0:0:0:
336,32,18992,2,0,L|280:32,1,52.5
160,72,19421,5,0,0:0:0:0:
96,176,19635,1,0,0:0:0:0:
184,264,19850,1,0,0:0:0:0:
296,208,20064,1,2,0:0:0:0:
280,80,20278,1,2,0:0:0:0:
200,160,20492,1,2,0:0:0:0:
260,272,20707,1,2,0:0:0:0:
384,304,20921,5,0,0:0:0:0:
328,192,21135,1,0,0:0:0:0:
456,192,21350,1,0,0:0:0:0:
416,72,21564,2,0,P|344:40|264:40,1,157.5,0|4,0:0|0:0,0:0:0:0:
128,272,22635,1,0,0:0:0:0:
88,152,22850,1,0,0:0:0:0:
184,232,23064,1,0,0:0:0:0:
144,112,23278,1,0,0:0:0:0:
272,104,23492,5,2,0:0:0:0:
256,232,23707,1,2,0:0:0:0:
336,128,23921,1,2,0:0:0:0:
320,256,24135,1,2,0:0:0:0:
240,160,24350,5,0,0:0:0:0:
224,288,24564,1,0,0:0:0:0:
304,192,24778,1,0,0:0:0:0:
320,64,24992,2,0,P|248:40|168:56,1,157.5,0|4,0:0|0:0,0:0:0:0:
128,312,26064,5,0,0:0:0:0:
224,232,26278,1,0,0:0:0:0:
192,352,26492,1,0,0:0:0:0:
288,272,26707,1,0,0:0:0:0:
384,352,26921,1,0,0:0:0:0:
352,232,27135,1,0,0:0:0:0:
448,312,27350,1,0,0:0:0:0:
288,352,27564,1,0,0:0:0:0:
184,280,27778,5,0,0:0:0:0:
64,240,27993,1,0,0:0:0:0:
32,120,28207,1,0,0:0:0:0:
136,48,28421,1,0,0:0:0:0:
88,168,28635,1,2,0:0:0:0:
192,96,28850,2,0,L|208:112,4,13.125
224,216,29278,5,0,0:0:0:0:
336,264,29492,1,0,0:0:0:0:
448,216,29707,1,0,0:0:0:0:
336,152,29921,1,0,0:0:0:0:
336,280,30135,1,0,0:0:0:0:
400,168,30350,5,0,0:0:0:0:
336,280,30564,1,0,0:0:0:0:
272,168,30778,1,2,0:0:0:0:
336,280,30992,2,0,L|336:240,1,26.25
336,192,31207,5,0,0:0:0:0:
336,64,31421,1,0,0:0:0:0:
208,80,31635,1,0,0:0:0:0:
112,160,31850,1,0,0:0:0:0:
208,240,32064,1,0,0:0:0:0:
312,168,32278,2,0,L|328:152,4,13.125
224,264,32707,5,0,0:0:0:0:
96,240,32921,1,2,0:0:0:0:
152,128,33135,1,0,0:0:0:0:
280,144,33350,1,0,0:0:0:0:
208,40,33564,1,2,0:0:0:0:
280,144,33778,1,0,0:0:0:0:
344,40,33992,1,0,0:0:0:0:
280,144,34207,1,0,0:0:0:0:
296,272,34421,2,0,L|272:288,1,26.25
216,312,34635,5,0,0:0:0:0:
96,280,34850,1,0,0:0:0:0:
136,160,35064,1,0,0:0:0:0:
72,48,35278,1,0,0:0:0:0:
200,48,35492,1,2,0:0:0:0:
200,176,35707,2,0,L|200:153,4,13.125
320,232,36135,5,0,0:0:0:0:
320,104,36350,1,0,0:0:0:0:
384,208,36564,1,0,0:0:0:0:
256,200,36778,1,0,0:0:0:0:
192,104,36992,5,0,0:0:0:0:
136,216,37207,1,2,0:0:0:0:
40,296,37421,1,0,0:0:0:0:
40,168,37635,1,0,0:0:0:0:
168,128,37850,1,0,0:0:0:0:
168,168,37957,1,0,0:0:0:0:
168,208,38064,6,0,B|216:208|238:237,1,78.75
288,352,38707,2,2,B|340:362|365:331,1,78.75
440,232,39350,2,0,P|440:176|416:152,1,78.75
312,176,39992,2,2,P|280:208|248:208,1,78.75
87,339,40635,2,0,L|96:288,1,52.5
208,224,41064,5,0,0:0:0:0:
104,144,41278,1,2,0:0:0:0:
120,104,41385,1,2,0:0:0:0:
160,80,41492,2,0,P|199:72|236:82,1,78.75
384,200,42135,2,2,P|416:224|412:266,1,78.75
248,352,42778,2,0,P|209:359|172:349,1,78.75
48,208,43421,1,2,0:0:0:0:
216,288,43742,1,2,0:0:0:0:
224,96,44064,2,0,L|216:40,1,52.5
144,168,44492,5,0,0:0:0:0:
151,303,44707,1,0,0:0:0:0:
151,303,44814,1,0,0:0:0:0:
151,303,44921,2,2,P|182:327|221:324,1,78.75,0|0,0:0|0:0,0:0:0:0:
392,248,45564,2,2,P|396:209|374:178,1,78.75
216,72,46207,2,0,P|178:64|145:84,1,78.75
96,264,46850,1,2,0:0:0:0:
208,320,47171,1,0,0:0:0:0:
384,264,47492,2,0,L|328:256,1,52.5
384,136,47921,5,0,0:0:0:0:
264,112,48135,1,2,0:0:0:0:
264,112,48242,1,2,0:0:0:0:
264,112,48350,1,0,0:0:0:0:
256,288,48671,5,0,0:0:0:0:
432,200,48992,1,2,0:0:0:0:
344,32,49314,1,2,0:0:0:0:
152,32,49635,1,0,0:0:0:0:
64,200,49957,1,0,0:0:0:0:
256,192,50278,1,2,0:0:0:0:
256,192,50600,1,2,0:0:0:0:
256,192,50921,1,0,0:0:0:0:
144,256,51350,5,0,0:0:0:0:
48,176,51564,1,0,0:0:0:0:
144,112,51778,1,2,0:0:0:0:
240,32,51992,1,0,0:0:0:0:
336,112,52207,1,2,0:0:0:0:
440,176,52421,1,0,0:0:0:0:
344,256,52635,5,2,0:0:0:0:
240,328,52850,1,2,0:0:0:0:
368,304,53064,1,2,0:0:0:0:
336,192,53278,1,2,0:0:0:0:
224,256,53492,5,0,0:0:0:0:
192,264,53600,1,0,0:0:0:0:
152,264,53707,1,2,0:0:0:0:
120,248,53814,1,2,0:0:0:0:
104,216,53921,1,0,0:0:0:0:
104,176,54028,1,0,0:0:0:0:
128,152,54135,1,2,0:0:0:0:
160,136,54242,1,2,0:0:0:0:
200,136,54350,2,4,L|280:136,2,78.75
384,312,55207,6,0,L|416:312,47,26.25
392,56,56921,6,0,L|448:48,2,52.5
424,224,57242,2,0,L|475:216,2,52.5
320,352,57564,2,0,L|376:344,1,52.5
256,224,57885,5,0,0:0:0:0:
248,264,57992,1,0,0:0:0:0:
232,304,58100,1,0,0:0:0:0:
192,320,58207,1,0,0:0:0:0:
152,312,58314,2,0,B|120:312|120:312|104:288,1,52.5,0|4,0:0|0:0,0:0:0:0:
56,88,58635,5,0,0:0:0:0:
96,96,58742,1,0,0:0:0:0:
136,120,58850,1,0,0:0:0:0:
160,152,58957,1,0,0:0:0:0:
184,184,59064,1,0,0:0:0:0:
224,200,59171,1,0,0:0:0:0:
264,184,59278,1,0,0:0:0:0:
296,152,59385,1,0,0:0:0:0:
336,136,59492,2,0,P|368:128|392:152,1,52.5
432,208,59707,6,0,L|328:256,1,105,2|0,0:0|0:0,0:0:0:0:
400,312,59921,2,0,L|496:264,1,105,2|0,0:0|0:0,0:0:0:0:
496,184,60135,1,0,0:0:0:0:
496,184,60242,1,0,0:0:0:0:
496,184,60350,6,0,L|440:96,1,105,2|0,0:0|0:0,0:0:0:0:
368,136,60564,2,0,L|424:224,1,105,2|0,0:0|0:0,0:0:0:0:
472,296,60778,1,0,0:0:0:0:
472,296,60885,1,0,0:0:0:0:
472,296,60992,6,0,L|352:296,1,105
367,296,61207,6,0,L|264:256,1,105,0|2,0:0|0:0,0:0:0:0:
269,257,61421,2,0,B|216:232|208:192|208:192|216:176,1,105,2|2,0:0|0:0,0:0:0:0:
240,104,61635,1,0,0:0:0:0:
392,32,61850,1,2,0:0:0:0:
360,176,62064,5,0,0:0:0:0:
352,216,62171,1,0,0:0:0:0:
336,256,62278,1,0,0:0:0:0:
304,280,62385,1,0,0:0:0:0:
264,280,62492,1,0,0:0:0:0:
248,240,62600,1,0,0:0:0:0:
232,200,62707,1,0,0:0:0:0:
192,184,62814,1,0,0:0:0:0:
152,192,62921,2,0,P|120:184|120:152,1,52.5
128,88,63135,6,0,L|232:72,1,105,2|0,0:0|0:0,0:0:0:0:
280,144,63350,2,0,L|168:160,1,105,2|0,0:0|0:0,0:0:0:0:
96,168,63564,1,0,0:0:0:0:
96,168,63671,1,0,0:0:0:0:
96,168,63778,6,0,L|32:272,1,105,2|0,0:0|0:0,0:0:0:0:
112,296,63992,2,0,L|168:200,1,105,2|0,0:0|0:0,0:0:0:0:
200,128,64207,1,0,0:0:0:0:
200,128,64314,1,0,0:0:0:0:
200,128,64421,6,0,L|288:208,1,105
277,197,64635,2,0,L|400:223,1,105,2|0,0:0|0:0,0:0:0:0:
380,219,64850,2,2,L|464:296,1,105,2|0,0:0|0:0,0:0:0:0:
457,289,65064,1,8,0:0:0:0:
457,289,65171,1,8,0:0:0:0:
457,289,65278,1,10,0:0:0:0:
457,289,65385,1,10,0:0:0:0:
457,289,65492,2,4,B|464:184|464:184|400:88|272:152|272:152|240:104|240:104|208:128,1,420,6|0,0:0|0:0,0:0:0:0:
72,224,66350,5,0,0:0:0:0:
72,224,66457,1,0,0:0:0:0:
72,224,66564,6,0,L|168:264,1,105,2|0,0:0|0:0,0:0:0:0:
192,184,66778,2,0,L|88:144,1,105,2|0,0:0|0:0,0:0:0:0:
112,64,66992,1,0,0:0:0:0:
112,64,67100,1,0,0:0:0:0:
112,64,67207,6,0,L|208:104,1,105,2|0,0:0|0:0,0:0:0:0:
208,192,67421,2,0,L|109:154,1,105,2|0,0:0|0:0,0:0:0:0:
32,120,67635,1,0,0:0:0:0:
32,120,67742,1,0,0:0:0:0:
32,120,67850,2,0,L|55:224,1,105
55,222,68064,2,0,L|152:264,1,105
151,263,68278,2,0,B|184:224|216:208|216:208|240:208,1,105
328,200,68492,1,2,0:0:0:0:
408,320,68707,1,2,0:0:0:0:
456,192,68921,5,0,0:0:0:0:
440,152,69028,1,0,0:0:0:0:
408,120,69135,1,0,0:0:0:0:
368,96,69242,1,0,0:0:0:0:
328,104,69350,1,2,0:0:0:0:
288,120,69457,1,2,0:0:0:0:
264,152,69564,1,2,0:0:0:0:
256,192,69671,1,0,0:0:0:0:
224,216,69778,2,0,L|168:240,2,52.5
224,216,70100,1,0,0:0:0:0:
224,216,70207,2,2,L|256:264,3,52.5
312,296,70635,6,0,L|392:224,1,105,4|0,0:0|0:0,0:0:0:0:
304,208,70957,2,0,L|384:136,1,105,4|0,0:0|0:0,0:0:0:0:
296,120,71278,2,0,L|376:48,1,105,4|0,0:0|0:0,0:0:0:0:
224,120,71600,1,2,0:0:0:0:
72,320,71921,1,4,0:0:0:0:
408,320,72350,5,0,0:0:0:0:
416,280,72457,1,0,0:0:0:0:
408,240,72564,1,0,0:0:0:0:
400,200,72671,1,0,0:0:0:0:
376,168,72778,1,0,0:0:0:0:
344,144,72885,1,0,0:0:0:0:
304,136,72992,1,0,0:0:0:0:
264,136,73100,1,0,0:0:0:0:
224,144,73207,2,0,P|200:176|200:192,1,52.5
232,264,73421,6,0,B|312:264|312:264|336:296,1,105,2|0,0:0|0:0,0:0:0:0:
264,344,73635,2,0,B|184:344|184:344|160:312,1,105,2|0,0:0|0:0,0:0:0:0:
128,248,73850,1,0,0:0:0:0:
128,248,73957,1,0,0:0:0:0:
128,248,74064,6,0,B|88:192|88:192|128:176,1,105,2|0,0:0|0:0,0:0:0:0:
200,152,74278,2,0,B|240:96|240:96|200:80,1,105,2|0,0:0|0:0,0:0:0:0:
120,80,74492,5,0,0:0:0:0:
120,80,74600,1,0,0:0:0:0:
120,80,74707,6,0,B|64:128|64:128|64:160,1,105,2|2,0:0|0:0,0:0:0:0:
64,159,74921,2,0,B|64:232|64:232|88:256,1,105,0|2,0:0|0:0,0:0:0:0:
86,254,75135,2,0,B|126:262|126:262|190:238,1,105,2|2,0:0|0:0,0:0:0:0:
264,208,75350,1,0,0:0:0:0:
328,48,75564,1,2,0:0:0:0:
376,208,75778,5,0,0:0:0:0:
392,248,75885,1,0,0:0:0:0:
400,288,75992,1,0,0:0:0:0:
400,328,76100,1,0,0:0:0:0:
440,344,76207,1,0,0:0:0:0:
480,328,76314,1,0,0:0:0:0:
488,288,76421,1,0,0:0:0:0:
488,248,76528,1,0,0:0:0:0:
480,208,76635,2,0,P|464:176|440:168,1,52.5
376,136,76850,6,0,B|304:136|304:136|280:160,1,105,2|0,0:0|0:0,0:0:0:0:
224,224,77064,2,0,B|200:248|200:248|128:248,1,105,2|0,0:0|0:0,0:0:0:0:
56,200,77278,1,0,0:0:0:0:
56,200,77385,1,0,0:0:0:0:
56,200,77492,2,0,B|96:136|96:136|120:160,1,105,2|0,0:0|0:0,0:0:0:0:
168,224,77707,2,0,B|197:224|197:224|237:160,1,105,2|0,0:0|0:0,0:0:0:0:
280,88,77921,5,0,0:0:0:0:
280,88,78028,1,0,0:0:0:0:
280,88,78135,2,2,B|312:88|312:88|352:152,1,105
350,149,78350,2,0,B|336:232|336:232|320:248,1,105
320,247,78564,2,0,L|216:248,1,105
215,248,78778,1,8,0:0:0:0:
215,248,78885,1,8,0:0:0:0:
215,248,78992,1,10,0:0:0:0:
215,248,79100,1,10,0:0:0:0:
215,248,79207,2,8,B|104:248|104:248|104:192|160:152|160:152|104:96|40:112|40:112|16:160|56:184,1,420,6|0,0:0|0:0,0:0:0:0:
344,312,80064,5,0,0:0:0:0:
344,312,80171,1,0,0:0:0:0:
344,312,80278,2,0,B|424:312|424:312|448:296,1,105,2|0,0:0|0:0,0:0:0:0:
392,232,80492,2,0,B|312:232|312:232|288:216,1,105,2|0,0:0|0:0,0:0:0:0:
344,152,80707,5,0,0:0:0:0:
344,152,80814,1,0,0:0:0:0:
344,152,80921,2,0,B|424:152|424:152|448:136,1,105,2|0,0:0|0:0,0:0:0:0:
392,72,81135,2,0,B|312:56|312:56|288:64,1,105,2|0,0:0|0:0,0:0:0:0:
208,80,81350,5,0,0:0:0:0:
208,80,81457,1,0,0:0:0:0:
208,80,81564,2,2,B|136:111|136:111|120:136,1,105
121,133,81778,2,0,B|88:192|88:192|112:224,1,105,0|2,0:0|0:0,0:0:0:0:
110,221,81992,2,0,B|160:280|160:280|192:296,1,105
264,320,82207,1,0,0:0:0:0:
432,296,82421,1,0,0:0:0:0:
320,192,82635,5,0,0:0:0:0:
336,152,82742,1,0,0:0:0:0:
328,112,82850,1,0,0:0:0:0:
304,80,82957,1,0,0:0:0:0:
264,72,83064,1,2,0:0:0:0:
224,80,83171,1,2,0:0:0:0:
200,112,83278,1,2,0:0:0:0:
200,152,83385,1,2,0:0:0:0:
200,192,83492,6,0,L|160:232,2,52.5
200,192,83814,1,0,0:0:0:0:
200,192,83921,2,2,L|240:232,2,52.5
200,192,84242,1,2,0:0:0:0:
200,192,84350,1,4,0:0:0:0:
424,80,84671,1,4,0:0:0:0:
352,320,84992,1,0,0:0:0:0:
280,80,85314,1,0,0:0:0:0:
200,320,85635,1,4,0:0:0:0:
432,80,86064,6,0,P|361:81|328:96,1,105
72,240,86492,2,0,P|88:288|136:320,1,105
448,72,86921,1,0,0:0:0:0:
184,200,87135,2,0,P|220:235|277:242,1,105
472,64,87564,1,0,0:0:0:0:
184,104,87778,2,0,P|229:126|285:115,1,105
472,88,88207,5,0,0:0:0:0:
328,344,88421,2,0,L|320:240,1,105
40,160,88742,2,0,L|112:80,1,105
152,160,88957,2,0,L|224:80,1,105
328,232,89278,1,0,0:0:0:0:
