osu file format v14

[General]
AudioFilename: audio.mp3
AudioLeadIn: 0
PreviewTime: 96149
Countdown: 0
SampleSet: Soft
StackLeniency: 0.7
Mode: 0
LetterboxInBreaks: 0
WidescreenStoryboard: 1

[Editor]
DistanceSpacing: 0.8
BeatDivisor: 4
GridSize: 4
TimelineZoom: 1.3

[Metadata]
Title:Fried Noodles (Getter Remix)
TitleUnicode:Fried Noodles (Getter Remix)
Artist:Pink Guy
ArtistUnicode:Pink Guy
Creator:Chillaroni
Version:Easy
Source:
Tags:filthyfrank
BeatmapID:1379998
BeatmapSetID:651341

[Difficulty]
HPDrainRate:4
CircleSize:4
OverallDifficulty:5
ApproachRate:5
SliderMultiplier:1.10000000596046
SliderTickRate:1

[Events]
//Background and Video events
0,0,"fear and misery.png",0,0
//Break Periods
//Storyboard Layer 0 (Background)
//Storyboard Layer 1 (Fail)
//Storyboard Layer 2 (Pass)
//Storyboard Layer 3 (Foreground)
//Storyboard Sound Samples

[TimingPoints]
41243,428.571428571429,4,2,0,100,1,0
95619,-100,4,1,0,100,0,1
150048,-100,4,2,0,80,0,0

[Colours]
Combo1 : 255,255,255
Combo2 : 255,30,142
Combo3 : 64,255,112

[HitObjects]
97,95,40814,6,0,L|212:93,1,110.000000596046
233,90,42957,1,8,0:0:0:0:
316,95,43385,1,0,0:0:0:0:
400,100,43814,2,0,P|444:100|514:133,1,110.000000596046
503,127,44671,1,0,0:0:0:0:
474,237,45528,1,0,0:0:0:0:
358,267,46385,1,0,0:0:0:0:
189,263,48099,6,0,P|129:169|277:51,1,330.000001788138
303,115,49814,1,0,0:0:0:0:
316,114,51528,5,0,0:0:0:0:
214,206,52385,1,8,0:0:0:0:
140,56,53242,5,0,0:0:0:0:
206,170,54099,1,8,0:0:0:0:
313,111,54957,2,0,P|426:60|491:138,1,220.000001192092
491,193,56671,2,0,P|461:247|314:218,1,220.000001192092
257,159,58385,1,0,0:0:0:0:
35,274,59242,6,0,L|31:141,1,110.000000596046
182,269,60957,2,0,L|182:157,1,110.000000596046
315,262,62671,2,0,L|312:132,1,110.000000596046
487,249,64385,2,0,L|485:121,1,110.000000596046
481,56,65242,1,0,0:0:0:0:
74,146,68671,2,0,P|-9:206|39:311,1,220.000001192092
114,315,70385,2,0,P|212:277|215:171,1,220.000001192092
212,88,72099,1,0,0:0:0:0:
308,86,72957,1,0,0:0:0:0:
355,176,73814,5,0,0:0:0:0:
286,232,74671,1,0,0:0:0:0:
199,226,75528,6,0,P|142:131|217:50,1,220.000001192092
329,101,77242,1,0,0:0:0:0:
298,246,78099,1,0,0:0:0:0:
210,347,78957,2,0,P|114:330|48:212,1,220.000001192092
39,133,80671,2,0,P|94:57|234:51,1,220.000001192092
263,152,82385,5,0,0:0:0:0:
161,209,83242,1,0,0:0:0:0:
262,263,84099,1,0,0:0:0:0:
326,180,84957,5,0,0:0:0:0:
434,163,85814,1,0,0:0:0:0:
385,260,86671,1,0,0:0:0:0:
270,265,87528,1,0,0:0:0:0:
183,241,87957,1,0,0:0:0:0:
137,178,88385,1,0,0:0:0:0:
146,98,88814,1,0,0:0:0:0:
256,103,89242,6,0,P|246:149|224:227,3,110.000000596046
313,234,90957,2,0,L|352:124,3,110.000000596046
256,192,92671,12,0,95242,0:0:0:0:
228,272,96099,5,0,0:0:0:0:
148,304,96528,1,0,0:0:0:0:
72,256,96957,1,0,0:0:0:0:
54,157,97385,2,0,L|159:92,1,110.000000596046
213,146,98242,1,0,0:0:0:0:
240,223,98671,1,0,0:0:0:0:
273,284,99099,5,0,0:0:0:0:
334,246,99528,2,0,L|449:190,1,110.000000596046
457,130,100385,1,0,0:0:0:0:
352,156,100814,2,0,L|270:67,2,110.000000596046
250,55,102099,1,0,0:0:0:0:
124,108,102528,1,0,0:0:0:0:
58,164,102957,1,0,0:0:0:0:
108,228,103385,1,0,0:0:0:0:
180,182,103814,1,0,0:0:0:0:
209,109,104242,6,0,P|266:108|324:104,2,110.000000596046
181,192,105528,1,0,0:0:0:0:
132,138,105957,1,0,0:0:0:0:
172,68,106385,5,0,0:0:0:0:
106,143,106814,2,0,L|107:264,1,110.000000596046
183,279,107671,1,0,0:0:0:0:
284,252,108099,1,0,0:0:0:0:
316,169,108528,1,0,0:0:0:0:
263,118,108957,1,8,0:0:0:0:
114,178,109814,6,0,L|224:129,2,110.000000596046
181,255,111099,1,0,0:0:0:0:
288,196,111528,2,0,L|415:191,1,110.000000596046
382,101,112385,1,0,0:0:0:0:
251,75,112814,1,0,0:0:0:0:
112,72,113242,6,0,P|84:88|56:176,1,110.000000596046
140,144,114099,1,0,0:0:0:0:
198,209,114528,1,0,0:0:0:0:
288,224,114957,2,0,P|304:256|373:278,1,110.000000596046
407,161,115814,1,0,0:0:0:0:
297,232,116242,1,0,0:0:0:0:
376,292,116671,6,0,P|416:284|459:210,1,110.000000596046
330,238,117528,1,0,0:0:0:0:
279,309,117957,1,0,0:0:0:0:
205,305,118385,1,0,0:0:0:0:
145,274,118814,1,0,0:0:0:0:
92,230,119242,6,0,L|191:163,1,110.000000596046
90,63,120099,1,0,0:0:0:0:
95,151,120528,2,0,P|127:189|189:208,1,110.000000596046
267,215,121385,5,0,0:0:0:0:
161,247,121814,1,0,0:0:0:0:
185,152,122242,2,0,L|312:146,2,110.000000596046
397,213,123528,6,0,P|362:253|288:260,1,110.000000596046
241,252,124385,1,0,0:0:0:0:
168,232,124814,1,0,0:0:0:0:
90,195,125242,2,0,P|88:134|128:106,1,110.000000596046
229,80,126099,2,0,L|346:72,3,110.000000596046
416,78,127814,1,0,0:0:0:0:
419,153,128242,2,0,P|420:188|419:270,1,110.000000596046
336,296,129099,1,0,0:0:0:0:
260,291,129528,5,0,0:0:0:0:
182,263,129957,1,0,0:0:0:0:
150,194,130385,1,0,0:0:0:0:
151,117,130814,1,0,0:0:0:0:
247,84,131242,1,0,0:0:0:0:
250,91,131671,6,0,P|273:117|254:194,1,110.000000596046
262,186,132528,2,0,P|298:179|365:222,1,110.000000596046
332,288,133385,1,0,0:0:0:0:
246,253,133814,5,0,0:0:0:0:
191,166,134242,1,0,0:0:0:0:
295,128,134671,1,0,0:0:0:0:
357,179,135099,1,0,0:0:0:0:
326,270,135528,5,0,0:0:0:0:
244,219,135957,1,0,0:0:0:0:
197,140,136385,1,8,0:0:0:0:
244,57,136814,1,0,0:0:0:0:
244,57,137242,2,0,L|362:80,1,110.000000596046
437,87,138099,1,0,0:0:0:0:
402,163,138528,5,0,0:0:0:0:
402,163,138957,2,0,L|296:91,1,110.000000596046
256,78,139814,1,0,0:0:0:0:
256,78,140242,1,0,0:0:0:0:
256,78,140671,2,0,P|205:77|137:94,1,110.000000596046
131,182,141528,5,0,0:0:0:0:
231,172,141957,1,0,0:0:0:0:
268,239,142385,2,0,P|267:273|345:301,1,110.000000596046
422,275,143242,2,0,P|449:238|458:167,1,110.000000596046
413,99,144099,5,0,0:0:0:0:
321,128,144528,2,0,P|302:164|304:238,1,110.000000596046
218,222,145385,2,0,L|220:89,1,110.000000596046
135,110,146242,2,0,L|127:225,1,110.000000596046
127,219,147099,1,0,0:0:0:0:
119,300,147528,1,8,0:0:0:0:
195,270,147957,1,0,0:0:0:0:
262,220,148385,1,8,0:0:0:0:
336,184,148814,1,0,0:0:0:0:
295,93,149242,5,8,0:0:0:0:
201,121,149671,1,0,0:0:0:0:
146,202,150099,1,0,0:0:0:0:
74,264,150957,6,0,P|56:243|45:154,1,110.000000596046
193,262,151814,2,0,P|183:237|203:151,1,110.000000596046
291,245,152671,2,0,P|335:242|364:178,1,110.000000596046
428,203,153528,5,0,0:0:0:0:
510,178,153957,1,0,0:0:0:0:
446,117,154385,6,0,P|426:98|345:83,1,110.000000596046
252,74,155242,2,0,P|223:63|153:93,1,110.000000596046
132,162,156099,2,0,P|104:202|137:256,1,110.000000596046
202,273,156957,5,0,0:0:0:0:
291,245,157385,1,0,0:0:0:0:
369,209,157814,2,0,P|358:152|327:94,1,110.000000596046
259,174,158671,2,0,L|215:67,1,110.000000596046
153,102,159528,2,0,L|57:165,1,110.000000596046
80,226,160385,2,0,L|172:303,1,110.000000596046
242,314,161242,1,0,0:0:0:0:
297,267,161671,2,0,L|364:175,1,110.000000596046
332,110,162528,5,0,0:0:0:0:
249,123,162957,1,0,0:0:0:0:
216,195,163385,2,0,L|296:284,1,110.000000596046
352,301,164671,6,0,P|391:336|446:331,1,110.000000596046
447,229,165528,1,0,0:0:0:0:
347,76,166385,2,0,L|402:195,3,110.000000596046
310,196,168099,1,0,0:0:0:0:
217,160,168528,1,0,0:0:0:0:
139,128,168957,5,0,0:0:0:0:
242,58,169385,1,0,0:0:0:0:
327,88,169814,1,0,0:0:0:0:
381,164,170242,1,0,0:0:0:0:
334,247,170671,1,0,0:0:0:0:
255,260,171099,1,0,0:0:0:0:
172,185,171528,5,0,0:0:0:0:
147,97,172385,1,0,0:0:0:0:
219,49,173242,5,8,0:0:0:0:
319,88,174099,1,12,0:0:0:0:
256,192,174957,12,0,177528,0:0:0:0:
