osu file format v14

[General]
AudioFilename: audio.mp3
AudioLeadIn: 0
PreviewTime: -1
Countdown: 0
SampleSet: Normal
StackLeniency: 0.2
Mode: 0
LetterboxInBreaks: 0
WidescreenStoryboard: 0

[Editor]
Bookmarks: 18845
DistanceSpacing: 0.8
BeatDivisor: 8
GridSize: 32
TimelineZoom: 1

[Metadata]
Title:Garfielf
TitleUnicode:Garfielf
Artist:PilotRedSun
ArtistUnicode:PilotRedSun
Creator:Innate_odium
Version:Garfield you lazy cat
Source:YouTube
Tags:Garfielf PilotRedSon
BeatmapID:1098117
BeatmapSetID:516753

[Difficulty]
HPDrainRate:5
CircleSize:5
OverallDifficulty:5
ApproachRate:5
SliderMultiplier:1.4
SliderTickRate:1

[Events]
//Background and Video events
0,0,"gfhfghh.png",0,0
Video,0,"Garfielf.mp4"
//Break Periods
//Storyboard Layer 0 (Background)
//Storyboard Layer 1 (Fail)
//Storyboard Layer 2 (Pass)
//Storyboard Layer 3 (Foreground)
//Storyboard Sound Samples

[TimingPoints]
39.4776119402985,-100,4,1,0,100,0,0
139.477611940299,447.761194029851,4,1,0,100,1,0
239.477611940299,447.761194029851,4,1,0,100,1,0
17949,-133.333333333333,4,1,0,100,0,0
18397,-111.111111111111,4,1,0,100,0,0
20076,-100,4,1,0,100,0,0
43808,4000,4,1,0,100,1,0
43808,-100,4,1,0,100,0,0
46808,447.761194029851,4,1,0,100,1,0

[HitObjects]
128,160,375,6,0,L|192:128,1,70
256,128,823,2,0,L|320:224,1,105
288,288,1494,2,0,L|224:320,3,70
160,288,2949,5,4,0:0:0:0:
224,224,3173,1,0,0:0:0:0:
256,256,3397,1,0,0:0:0:0:
288,288,3509,1,0,0:0:0:0:
320,320,3733,2,0,L|352:288,1,35
384,256,4181,1,0,0:0:0:0:
96,192,5076,6,0,L|256:192,1,140
256,192,6140,1,0,0:0:0:0:
256,128,6476,1,0,0:0:0:0:
352,128,6923,1,0,0:0:0:0:
352,256,7539,1,0,0:0:0:0:
256,192,7707,1,0,0:0:0:0:
160,192,8155,1,0,0:0:0:0:
160,288,8435,2,0,L|64:288,1,70
64,288,8938,1,4,0:0:0:0:
64,96,9554,1,0,0:0:0:0:
128,96,9834,2,0,L|192:96,1,52.5
181,160,10449,1,0,0:0:0:0:
320,160,10785,1,4,0:0:0:0:
160,128,11569,6,0,L|160:224,1,87.5
160,256,12296,1,0,0:0:0:0:
160,256,12324,1,0,0:0:0:0:
256,192,13024,1,0,0:0:0:0:
320,192,13136,2,0,L|288:256,1,70
352,256,13584,1,0,0:0:0:0:
128,128,14647,5,0,0:0:0:0:
256,128,14871,1,0,0:0:0:0:
256,128,14899,1,0,0:0:0:0:
256,224,15207,1,0,0:0:0:0:
256,224,15235,1,0,0:0:0:0:
256,224,15263,1,0,0:0:0:0:
256,192,15487,12,0,17222,0:0:0:0:
192,96,17446,5,0,0:0:0:0:
192,192,17837,2,4,L|288:192,1,87.5
352,96,18509,2,0,L|384:224,1,105
128,128,19796,1,0,0:0:0:0:
128,128,19824,1,0,0:0:0:0:
224,128,20244,2,0,L|352:128,2,105
128,128,21196,1,0,0:0:0:0:
128,160,21420,1,0,0:0:0:0:
128,192,21476,1,0,0:0:0:0:
55,107,22091,2,0,L|242:80,6,175
142,94,22371,1,0,0:0:0:0:
142,94,22931,1,0,0:0:0:0:
142,94,23490,1,0,0:0:0:0:
142,94,24050,1,0,0:0:0:0:
142,94,24610,1,0,0:0:0:0:
142,94,25170,1,0,0:0:0:0:
53,133,26289,1,0,0:0:0:0:
91,155,26317,1,0,0:0:0:0:
122,168,26345,1,0,0:0:0:0:
256,160,26401,1,0,0:0:0:0:
256,192,26513,1,0,0:0:0:0:
360,107,26681,1,0,0:0:0:0:
340,130,26709,1,0,0:0:0:0:
314,158,26737,1,0,0:0:0:0:
126,348,26793,1,0,0:0:0:0:
160,327,26849,1,0,0:0:0:0:
192,303,26905,1,0,0:0:0:0:
385,349,26961,1,0,0:0:0:0:
358,335,27017,1,0,0:0:0:0:
331,318,27129,1,0,0:0:0:0:
81,52,27548,6,0,P|435:51|81:57,5,1102.5
512,512,27576,6,0,B|-416:544|-416:544|-416:-224|-384:-224,1,1758.75
512,256,27604,2,0,P|-64:64|32:320,9,595
81,52,27744,1,0,0:0:0:0:
512,512,29115,6,0,B|-416:544|-416:544|-416:-224|-384:-224,1,1758.75
512,256,29143,1,0,0:0:0:0:
83,71,31102,1,0,0:0:0:0:
83,71,31382,1,0,0:0:0:0:
512,256,33173,1,0,0:0:0:0:
512,512,36755,6,0,B|-416:544|-416:544|-416:-224|-384:-224,1,1758.75
256,176,43808,2,0,P|256:208|255:176,1,96.25
256,192,47921,12,0,50160,0:0:0:0:
256,192,52063,12,0,53854,0:0:0:0:
256,192,55449,12,0,58136,0:0:0:0:
32,32,58388,5,0,0:0:0:0:
64,32,58416,1,0,0:0:0:0:
96,32,58444,1,0,0:0:0:0:
128,32,58472,1,0,0:0:0:0:
160,32,58500,1,0,0:0:0:0:
192,32,58528,1,0,0:0:0:0:
224,32,58556,1,0,0:0:0:0:
256,32,58584,1,0,0:0:0:0:
288,32,58612,1,0,0:0:0:0:
320,32,58640,1,0,0:0:0:0:
352,32,58668,1,0,0:0:0:0:
384,32,58696,1,0,0:0:0:0:
416,32,58724,1,0,0:0:0:0:
448,32,58752,1,0,0:0:0:0:
480,32,58780,1,0,0:0:0:0:
480,64,58808,1,0,0:0:0:0:
448,64,58836,1,0,0:0:0:0:
416,64,58864,1,0,0:0:0:0:
384,64,58892,1,0,0:0:0:0:
352,64,58920,1,0,0:0:0:0:
320,64,58948,1,0,0:0:0:0:
288,64,58976,1,0,0:0:0:0:
256,64,59004,1,0,0:0:0:0:
224,64,59032,1,0,0:0:0:0:
192,64,59060,1,0,0:0:0:0:
160,64,59087,1,0,0:0:0:0:
128,64,59115,1,0,0:0:0:0:
96,64,59143,1,0,0:0:0:0:
64,64,59171,1,0,0:0:0:0:
32,64,59199,1,0,0:0:0:0:
32,96,59227,1,0,0:0:0:0:
64,96,59255,1,0,0:0:0:0:
96,96,59283,1,0,0:0:0:0:
128,96,59311,1,0,0:0:0:0:
160,96,59339,1,0,0:0:0:0:
192,96,59367,1,0,0:0:0:0:
224,96,59395,1,0,0:0:0:0:
256,96,59423,1,0,0:0:0:0:
288,96,59451,1,0,0:0:0:0:
320,96,59479,1,0,0:0:0:0:
352,96,59507,1,0,0:0:0:0:
384,96,59535,1,0,0:0:0:0:
416,96,59563,1,0,0:0:0:0:
448,96,59591,1,0,0:0:0:0:
480,96,59619,1,0,0:0:0:0:
480,128,59647,1,0,0:0:0:0:
448,128,59675,1,0,0:0:0:0:
416,128,59703,1,0,0:0:0:0:
384,128,59731,1,0,0:0:0:0:
352,128,59759,1,0,0:0:0:0:
320,128,59787,1,0,0:0:0:0:
288,128,59815,1,0,0:0:0:0:
256,128,59843,1,0,0:0:0:0:
224,128,59871,1,0,0:0:0:0:
192,128,59899,1,0,0:0:0:0:
160,128,59926,1,0,0:0:0:0:
128,128,59954,1,0,0:0:0:0:
96,128,59982,1,0,0:0:0:0:
64,128,60010,1,0,0:0:0:0:
32,128,60038,1,0,0:0:0:0:
480,160,60067,1,0,0:0:0:0:
448,160,60095,1,0,0:0:0:0:
416,160,60123,1,0,0:0:0:0:
384,160,60151,1,0,0:0:0:0:
352,160,60179,1,0,0:0:0:0:
320,160,60207,1,0,0:0:0:0:
288,160,60235,1,0,0:0:0:0:
256,160,60263,1,0,0:0:0:0:
224,160,60291,1,0,0:0:0:0:
192,160,60319,1,0,0:0:0:0:
160,160,60346,1,0,0:0:0:0:
128,160,60374,1,0,0:0:0:0:
96,160,60402,1,0,0:0:0:0:
64,160,60430,1,0,0:0:0:0:
32,160,60458,1,0,0:0:0:0:
448,32,60520,2,0,B|448:384|64:384|64:32|448:32|448:384|32:384|64:32|448:32,3,875
256,192,60599,12,0,68658,0:0:0:0:
256,192,60711,12,0,68770,0:0:0:0:
256,192,60767,12,0,68826,0:0:0:0:
256,192,60823,12,0,68882,0:0:0:0:
512,512,60907,6,0,B|-416:544|-416:544|-416:-224|-384:-224,1,1758.75
512,512,60935,6,0,B|-416:544|-416:544|-416:-224|-384:-224,1,1758.75
512,512,60962,6,0,B|-416:544|-416:544|-416:-224|-384:-224,1,1758.75
512,512,60990,6,0,B|-416:544|-416:544|-416:-224|-384:-224,1,1758.75
512,512,61019,6,0,B|-416:544|-416:544|-416:-224|-384:-224,1,1758.75
512,512,61046,6,0,B|-416:544|-416:544|-416:-224|-384:-224,1,1758.75
512,512,61047,6,0,B|-416:544|-416:544|-416:-224|-384:-224,1,1758.75
512,512,61074,6,0,B|-416:544|-416:544|-416:-224|-384:-224,1,1758.75
512,512,61075,6,0,B|-416:544|-416:544|-416:-224|-384:-224,1,1758.75
512,512,61102,6,0,B|-416:544|-416:544|-416:-224|-384:-224,1,1758.75
512,512,61103,6,0,B|-416:544|-416:544|-416:-224|-384:-224,1,1758.75
512,512,61130,6,0,B|-416:544|-416:544|-416:-224|-384:-224,1,1758.75
512,512,61131,6,0,B|-416:544|-416:544|-416:-224|-384:-224,1,1758.75
512,512,61158,6,0,B|-416:544|-416:544|-416:-224|-384:-224,1,1758.75
512,512,61159,6,0,B|-416:544|-416:544|-416:-224|-384:-224,1,1758.75
512,512,61186,6,0,B|-416:544|-416:544|-416:-224|-384:-224,1,1758.75
512,512,61214,6,0,B|-416:544|-416:544|-416:-224|-384:-224,1,1758.75
512,512,61270,6,0,B|-416:544|-416:544|-416:-224|-384:-224,1,1758.75
512,512,61326,6,0,B|-416:544|-416:544|-416:-224|-384:-224,1,1758.75
512,512,61382,6,0,B|-416:544|-416:544|-416:-224|-384:-224,1,1758.75
93,286,61494,6,0,B|180:261|216:321|334:282,3,245
93,286,61550,6,0,B|180:261|216:321|334:282,3,245
93,286,61606,6,0,B|180:261|216:321|334:282,3,245
334,281,63733,6,0,B|171:265|237:302|91:285,3,245
334,281,63845,6,0,B|171:265|237:302|91:285,3,245
334,281,63901,6,0,B|171:265|237:302|91:285,3,245
334,281,63901,6,0,B|171:265|237:302|91:285,3,245
334,281,63957,6,0,B|171:265|237:302|91:285,3,245
