osu file format v14

[General]
AudioFilename: audio.mp3
AudioLeadIn: 0
PreviewTime: -1
Countdown: 1
SampleSet: None
StackLeniency: 0.7
Mode: 2
LetterboxInBreaks: 0
WidescreenStoryboard: 0

[Editor]
DistanceSpacing: 0.8
BeatDivisor: 2
GridSize: 32
TimelineZoom: 1

[Metadata]
Title:Garfielf
TitleUnicode:Garfielf
Artist:PilotRedSun
ArtistUnicode:PilotRedSun
Creator:Innate_odium
Version:CAN YOU DO IT?
Source:
Tags:
BeatmapID:1098115
BeatmapSetID:516753

[Difficulty]
HPDrainRate:5
CircleSize:5
OverallDifficulty:5
ApproachRate:5
SliderMultiplier:1.4
SliderTickRate:1

[Events]
//Background and Video events
0,0,"gfhfghh.png",0,0
Video,0,"Garfielf.mp4"
//Break Periods
//Storyboard Layer 0 (Background)
//Storyboard Layer 1 (Fail)
//Storyboard Layer 2 (Pass)
//Storyboard Layer 3 (Foreground)
//Storyboard Sound Samples

[TimingPoints]
39.4776119402985,6,4,1,0,100,1,0

[HitObjects]
256,192,0,12,0,4962,0:0:0:0:
64,32,3,5,0,0:0:0:0:
96,32,6,1,0,0:0:0:0:
128,32,9,1,0,0:0:0:0:
160,32,12,1,0,0:0:0:0:
192,32,15,1,0,0:0:0:0:
224,32,18,1,0,0:0:0:0:
256,32,21,1,0,0:0:0:0:
288,32,24,1,0,0:0:0:0:
320,32,27,1,0,0:0:0:0:
352,32,30,1,0,0:0:0:0:
384,32,33,1,0,0:0:0:0:
416,32,36,1,0,0:0:0:0:
448,32,39,1,0,0:0:0:0:
480,32,42,1,0,0:0:0:0:
480,64,45,1,0,0:0:0:0:
448,64,48,1,0,0:0:0:0:
416,64,51,1,0,0:0:0:0:
384,64,54,1,0,0:0:0:0:
352,64,57,1,0,0:0:0:0:
320,64,60,1,0,0:0:0:0:
288,64,63,1,0,0:0:0:0:
256,64,66,1,0,0:0:0:0:
224,64,69,1,0,0:0:0:0:
192,64,72,1,0,0:0:0:0:
160,64,75,1,0,0:0:0:0:
128,64,78,1,0,0:0:0:0:
96,64,81,1,0,0:0:0:0:
64,64,84,1,0,0:0:0:0:
32,64,87,1,0,0:0:0:0:
32,96,90,1,0,0:0:0:0:
64,96,93,1,0,0:0:0:0:
96,96,96,1,0,0:0:0:0:
128,96,99,1,0,0:0:0:0:
160,96,102,1,0,0:0:0:0:
192,96,105,1,0,0:0:0:0:
224,96,108,1,0,0:0:0:0:
256,96,111,1,0,0:0:0:0:
288,96,114,1,0,0:0:0:0:
320,96,117,1,0,0:0:0:0:
352,96,120,1,0,0:0:0:0:
384,96,123,1,0,0:0:0:0:
416,96,126,1,0,0:0:0:0:
448,96,129,1,0,0:0:0:0:
480,96,132,1,0,0:0:0:0:
480,128,135,5,0,0:0:0:0:
448,128,138,1,0,0:0:0:0:
416,128,141,1,0,0:0:0:0:
384,128,144,1,0,0:0:0:0:
352,128,147,1,0,0:0:0:0:
320,128,150,1,0,0:0:0:0:
288,128,153,1,0,0:0:0:0:
256,128,156,1,0,0:0:0:0:
224,128,159,1,0,0:0:0:0:
192,128,162,1,0,0:0:0:0:
160,128,165,1,0,0:0:0:0:
128,128,168,1,0,0:0:0:0:
96,128,171,1,0,0:0:0:0:
64,128,174,1,0,0:0:0:0:
32,128,177,1,0,0:0:0:0:
32,160,180,1,0,0:0:0:0:
64,160,183,1,0,0:0:0:0:
96,160,186,1,0,0:0:0:0:
128,160,189,1,0,0:0:0:0:
160,160,192,1,0,0:0:0:0:
192,160,195,1,0,0:0:0:0:
224,160,198,1,0,0:0:0:0:
256,160,201,1,0,0:0:0:0:
288,160,204,1,0,0:0:0:0:
320,160,207,1,0,0:0:0:0:
352,160,210,1,0,0:0:0:0:
384,160,213,1,0,0:0:0:0:
416,160,216,1,0,0:0:0:0:
448,160,219,1,0,0:0:0:0:
480,160,222,1,0,0:0:0:0:
480,192,225,1,0,0:0:0:0:
448,192,228,1,0,0:0:0:0:
416,192,231,1,0,0:0:0:0:
384,192,234,1,0,0:0:0:0:
352,192,237,1,0,0:0:0:0:
320,192,240,1,0,0:0:0:0:
288,192,243,1,0,0:0:0:0:
256,192,246,1,0,0:0:0:0:
224,192,249,1,0,0:0:0:0:
192,192,252,1,0,0:0:0:0:
160,192,255,1,0,0:0:0:0:
128,192,258,1,0,0:0:0:0:
96,192,261,1,0,0:0:0:0:
64,192,264,1,0,0:0:0:0:
32,192,267,1,0,0:0:0:0:
32,224,270,1,0,0:0:0:0:
64,224,273,1,0,0:0:0:0:
96,224,276,1,0,0:0:0:0:
128,224,279,1,0,0:0:0:0:
160,224,282,1,0,0:0:0:0:
192,224,285,1,0,0:0:0:0:
224,224,288,1,0,0:0:0:0:
256,224,291,1,0,0:0:0:0:
288,224,294,1,0,0:0:0:0:
320,224,297,1,0,0:0:0:0:
352,224,300,1,0,0:0:0:0:
384,224,303,1,0,0:0:0:0:
416,224,306,1,0,0:0:0:0:
448,224,309,1,0,0:0:0:0:
480,224,312,1,0,0:0:0:0:
480,256,315,5,0,0:0:0:0:
448,256,318,1,0,0:0:0:0:
416,256,321,1,0,0:0:0:0:
384,256,324,1,0,0:0:0:0:
352,256,327,1,0,0:0:0:0:
320,256,330,1,0,0:0:0:0:
288,256,333,1,0,0:0:0:0:
256,256,336,1,0,0:0:0:0:
224,256,339,1,0,0:0:0:0:
192,256,342,1,0,0:0:0:0:
160,256,345,1,0,0:0:0:0:
128,256,348,1,0,0:0:0:0:
96,256,351,1,0,0:0:0:0:
64,256,354,1,0,0:0:0:0:
32,256,357,1,0,0:0:0:0:
32,288,360,1,0,0:0:0:0:
64,288,363,1,0,0:0:0:0:
96,288,366,1,0,0:0:0:0:
128,288,369,1,0,0:0:0:0:
160,288,372,1,0,0:0:0:0:
192,288,375,1,0,0:0:0:0:
224,288,378,1,0,0:0:0:0:
256,288,381,1,0,0:0:0:0:
288,288,384,1,0,0:0:0:0:
320,288,387,1,0,0:0:0:0:
352,288,390,1,0,0:0:0:0:
384,288,393,1,0,0:0:0:0:
416,288,396,1,0,0:0:0:0:
448,288,399,1,0,0:0:0:0:
480,288,402,1,0,0:0:0:0:
480,320,405,1,0,0:0:0:0:
448,320,408,1,0,0:0:0:0:
416,320,411,1,0,0:0:0:0:
384,320,414,1,0,0:0:0:0:
352,320,417,1,0,0:0:0:0:
320,320,420,1,0,0:0:0:0:
288,320,423,1,0,0:0:0:0:
256,320,426,1,0,0:0:0:0:
224,320,429,1,0,0:0:0:0:
192,320,432,1,0,0:0:0:0:
160,320,435,1,0,0:0:0:0:
128,320,438,1,0,0:0:0:0:
96,320,441,1,0,0:0:0:0:
64,320,444,1,0,0:0:0:0:
32,320,447,1,0,0:0:0:0:
32,352,450,1,0,0:0:0:0:
64,352,453,1,0,0:0:0:0:
96,352,456,1,0,0:0:0:0:
128,352,459,1,0,0:0:0:0:
160,352,462,1,0,0:0:0:0:
192,352,465,1,0,0:0:0:0:
224,352,468,1,0,0:0:0:0:
256,352,471,1,0,0:0:0:0:
288,352,474,1,0,0:0:0:0:
320,352,477,1,0,0:0:0:0:
352,352,480,1,0,0:0:0:0:
384,352,483,1,0,0:0:0:0:
416,352,486,1,0,0:0:0:0:
448,352,489,1,0,0:0:0:0:
480,352,492,1,0,0:0:0:0:
32,32,495,1,0,0:0:0:0:
64,32,498,1,0,0:0:0:0:
96,32,501,1,0,0:0:0:0:
128,32,504,1,0,0:0:0:0:
160,32,507,1,0,0:0:0:0:
192,32,510,1,0,0:0:0:0:
224,32,513,1,0,0:0:0:0:
256,32,516,1,0,0:0:0:0:
288,32,519,1,0,0:0:0:0:
320,32,522,1,0,0:0:0:0:
352,32,525,1,0,0:0:0:0:
384,32,528,1,0,0:0:0:0:
416,32,531,1,0,0:0:0:0:
448,32,534,1,0,0:0:0:0:
480,32,537,1,0,0:0:0:0:
480,64,540,1,0,0:0:0:0:
448,64,543,1,0,0:0:0:0:
416,64,546,1,0,0:0:0:0:
384,64,549,1,0,0:0:0:0:
352,64,552,1,0,0:0:0:0:
320,64,555,1,0,0:0:0:0:
288,64,558,1,0,0:0:0:0:
256,64,561,1,0,0:0:0:0:
224,64,564,1,0,0:0:0:0:
192,64,567,1,0,0:0:0:0:
160,64,570,1,0,0:0:0:0:
128,64,573,1,0,0:0:0:0:
96,64,576,1,0,0:0:0:0:
64,64,579,1,0,0:0:0:0:
32,64,582,1,0,0:0:0:0:
32,96,585,1,0,0:0:0:0:
64,96,588,1,0,0:0:0:0:
96,96,591,1,0,0:0:0:0:
128,96,594,1,0,0:0:0:0:
160,96,597,1,0,0:0:0:0:
192,96,600,1,0,0:0:0:0:
224,96,603,1,0,0:0:0:0:
256,96,606,1,0,0:0:0:0:
288,96,609,1,0,0:0:0:0:
320,96,612,1,0,0:0:0:0:
352,96,615,1,0,0:0:0:0:
384,96,618,1,0,0:0:0:0:
416,96,621,1,0,0:0:0:0:
448,96,624,1,0,0:0:0:0:
480,96,627,1,0,0:0:0:0:
480,128,630,5,0,0:0:0:0:
448,128,633,1,0,0:0:0:0:
416,128,636,1,0,0:0:0:0:
384,128,639,1,0,0:0:0:0:
352,128,642,1,0,0:0:0:0:
320,128,645,1,0,0:0:0:0:
288,128,648,1,0,0:0:0:0:
256,128,651,1,0,0:0:0:0:
224,128,654,1,0,0:0:0:0:
192,128,657,1,0,0:0:0:0:
160,128,660,1,0,0:0:0:0:
128,128,663,1,0,0:0:0:0:
96,128,666,1,0,0:0:0:0:
64,128,669,1,0,0:0:0:0:
32,128,672,1,0,0:0:0:0:
32,160,675,1,0,0:0:0:0:
64,160,678,1,0,0:0:0:0:
96,160,681,1,0,0:0:0:0:
128,160,684,1,0,0:0:0:0:
160,160,687,1,0,0:0:0:0:
192,160,690,1,0,0:0:0:0:
224,160,693,1,0,0:0:0:0:
256,160,696,1,0,0:0:0:0:
288,160,699,1,0,0:0:0:0:
320,160,702,1,0,0:0:0:0:
352,160,705,1,0,0:0:0:0:
384,160,708,1,0,0:0:0:0:
416,160,711,1,0,0:0:0:0:
448,160,714,1,0,0:0:0:0:
480,160,717,1,0,0:0:0:0:
480,192,720,1,0,0:0:0:0:
448,192,723,1,0,0:0:0:0:
416,192,726,1,0,0:0:0:0:
384,192,729,1,0,0:0:0:0:
352,192,732,1,0,0:0:0:0:
320,192,735,1,0,0:0:0:0:
288,192,738,1,0,0:0:0:0:
256,192,741,1,0,0:0:0:0:
224,192,744,1,0,0:0:0:0:
192,192,747,1,0,0:0:0:0:
160,192,750,1,0,0:0:0:0:
128,192,753,1,0,0:0:0:0:
96,192,756,1,0,0:0:0:0:
64,192,759,1,0,0:0:0:0:
32,192,762,1,0,0:0:0:0:
32,224,765,1,0,0:0:0:0:
64,224,768,1,0,0:0:0:0:
96,224,771,1,0,0:0:0:0:
128,224,774,1,0,0:0:0:0:
160,224,777,1,0,0:0:0:0:
192,224,780,1,0,0:0:0:0:
224,224,783,1,0,0:0:0:0:
256,224,786,1,0,0:0:0:0:
288,224,789,1,0,0:0:0:0:
320,224,792,1,0,0:0:0:0:
352,224,795,1,0,0:0:0:0:
384,224,798,1,0,0:0:0:0:
416,224,801,1,0,0:0:0:0:
448,224,804,1,0,0:0:0:0:
480,224,807,1,0,0:0:0:0:
480,256,810,5,0,0:0:0:0:
448,256,813,1,0,0:0:0:0:
416,256,816,1,0,0:0:0:0:
384,256,819,1,0,0:0:0:0:
352,256,822,1,0,0:0:0:0:
320,256,825,1,0,0:0:0:0:
288,256,828,1,0,0:0:0:0:
256,256,831,1,0,0:0:0:0:
224,256,834,1,0,0:0:0:0:
192,256,837,1,0,0:0:0:0:
160,256,840,1,0,0:0:0:0:
128,256,843,1,0,0:0:0:0:
96,256,846,1,0,0:0:0:0:
64,256,849,1,0,0:0:0:0:
32,256,852,1,0,0:0:0:0:
32,288,855,1,0,0:0:0:0:
64,288,858,1,0,0:0:0:0:
96,288,861,1,0,0:0:0:0:
128,288,864,1,0,0:0:0:0:
160,288,867,1,0,0:0:0:0:
192,288,870,1,0,0:0:0:0:
224,288,873,1,0,0:0:0:0:
256,288,876,1,0,0:0:0:0:
288,288,879,1,0,0:0:0:0:
320,288,882,1,0,0:0:0:0:
352,288,885,1,0,0:0:0:0:
384,288,888,1,0,0:0:0:0:
416,288,891,1,0,0:0:0:0:
448,288,894,1,0,0:0:0:0:
480,288,897,1,0,0:0:0:0:
480,320,900,1,0,0:0:0:0:
448,320,903,1,0,0:0:0:0:
416,320,906,1,0,0:0:0:0:
384,320,909,1,0,0:0:0:0:
352,320,912,1,0,0:0:0:0:
320,320,915,1,0,0:0:0:0:
288,320,918,1,0,0:0:0:0:
256,320,921,1,0,0:0:0:0:
224,320,924,1,0,0:0:0:0:
192,320,927,1,0,0:0:0:0:
160,320,930,1,0,0:0:0:0:
128,320,933,1,0,0:0:0:0:
96,320,936,1,0,0:0:0:0:
64,320,939,1,0,0:0:0:0:
32,320,942,1,0,0:0:0:0:
32,352,945,1,0,0:0:0:0:
64,352,948,1,0,0:0:0:0:
96,352,951,1,0,0:0:0:0:
128,352,954,1,0,0:0:0:0:
160,352,957,1,0,0:0:0:0:
192,352,960,1,0,0:0:0:0:
224,352,963,1,0,0:0:0:0:
256,352,966,1,0,0:0:0:0:
288,352,969,1,0,0:0:0:0:
320,352,972,1,0,0:0:0:0:
352,352,975,1,0,0:0:0:0:
384,352,978,1,0,0:0:0:0:
416,352,981,1,0,0:0:0:0:
448,352,984,1,0,0:0:0:0:
32,32,987,1,0,0:0:0:0:
64,32,990,1,0,0:0:0:0:
96,32,993,1,0,0:0:0:0:
128,32,996,1,0,0:0:0:0:
160,32,999,1,0,0:0:0:0:
192,32,1002,1,0,0:0:0:0:
224,32,1005,1,0,0:0:0:0:
256,32,1008,1,0,0:0:0:0:
288,32,1011,1,0,0:0:0:0:
320,32,1014,1,0,0:0:0:0:
352,32,1017,1,0,0:0:0:0:
384,32,1020,1,0,0:0:0:0:
416,32,1023,1,0,0:0:0:0:
448,32,1026,1,0,0:0:0:0:
480,32,1029,1,0,0:0:0:0:
480,64,1032,1,0,0:0:0:0:
448,64,1035,1,0,0:0:0:0:
416,64,1038,1,0,0:0:0:0:
384,64,1041,1,0,0:0:0:0:
352,64,1044,1,0,0:0:0:0:
320,64,1047,1,0,0:0:0:0:
288,64,1050,1,0,0:0:0:0:
256,64,1053,1,0,0:0:0:0:
224,64,1056,1,0,0:0:0:0:
192,64,1059,1,0,0:0:0:0:
160,64,1062,1,0,0:0:0:0:
128,64,1065,1,0,0:0:0:0:
96,64,1068,1,0,0:0:0:0:
64,64,1071,1,0,0:0:0:0:
32,64,1074,1,0,0:0:0:0:
32,96,1077,1,0,0:0:0:0:
64,96,1080,1,0,0:0:0:0:
96,96,1083,1,0,0:0:0:0:
128,96,1086,1,0,0:0:0:0:
160,96,1089,1,0,0:0:0:0:
192,96,1092,1,0,0:0:0:0:
224,96,1095,1,0,0:0:0:0:
256,96,1098,1,0,0:0:0:0:
288,96,1101,1,0,0:0:0:0:
320,96,1104,1,0,0:0:0:0:
352,96,1107,1,0,0:0:0:0:
384,96,1110,1,0,0:0:0:0:
416,96,1113,1,0,0:0:0:0:
448,96,1116,1,0,0:0:0:0:
480,96,1119,1,0,0:0:0:0:
480,128,1122,5,0,0:0:0:0:
448,128,1125,1,0,0:0:0:0:
416,128,1128,1,0,0:0:0:0:
384,128,1131,1,0,0:0:0:0:
352,128,1134,1,0,0:0:0:0:
320,128,1137,1,0,0:0:0:0:
288,128,1140,1,0,0:0:0:0:
256,128,1143,1,0,0:0:0:0:
224,128,1146,1,0,0:0:0:0:
192,128,1149,1,0,0:0:0:0:
160,128,1152,1,0,0:0:0:0:
128,128,1155,1,0,0:0:0:0:
96,128,1158,1,0,0:0:0:0:
64,128,1161,1,0,0:0:0:0:
32,128,1164,1,0,0:0:0:0:
32,160,1167,1,0,0:0:0:0:
64,160,1170,1,0,0:0:0:0:
96,160,1173,1,0,0:0:0:0:
128,160,1176,1,0,0:0:0:0:
160,160,1179,1,0,0:0:0:0:
192,160,1182,1,0,0:0:0:0:
224,160,1185,1,0,0:0:0:0:
256,160,1188,1,0,0:0:0:0:
288,160,1191,1,0,0:0:0:0:
320,160,1194,1,0,0:0:0:0:
352,160,1197,1,0,0:0:0:0:
384,160,1200,1,0,0:0:0:0:
416,160,1203,1,0,0:0:0:0:
448,160,1206,1,0,0:0:0:0:
480,160,1209,1,0,0:0:0:0:
480,192,1212,1,0,0:0:0:0:
448,192,1215,1,0,0:0:0:0:
416,192,1218,1,0,0:0:0:0:
384,192,1221,1,0,0:0:0:0:
352,192,1224,1,0,0:0:0:0:
320,192,1227,1,0,0:0:0:0:
288,192,1230,1,0,0:0:0:0:
256,192,1233,1,0,0:0:0:0:
224,192,1236,1,0,0:0:0:0:
192,192,1239,1,0,0:0:0:0:
160,192,1242,1,0,0:0:0:0:
128,192,1245,1,0,0:0:0:0:
96,192,1248,1,0,0:0:0:0:
64,192,1251,1,0,0:0:0:0:
32,192,1254,1,0,0:0:0:0:
32,224,1257,1,0,0:0:0:0:
64,224,1260,1,0,0:0:0:0:
96,224,1263,1,0,0:0:0:0:
128,224,1266,1,0,0:0:0:0:
160,224,1269,1,0,0:0:0:0:
192,224,1272,1,0,0:0:0:0:
224,224,1275,1,0,0:0:0:0:
256,224,1278,1,0,0:0:0:0:
288,224,1281,1,0,0:0:0:0:
320,224,1284,1,0,0:0:0:0:
352,224,1287,1,0,0:0:0:0:
384,224,1290,1,0,0:0:0:0:
416,224,1293,1,0,0:0:0:0:
448,224,1296,1,0,0:0:0:0:
480,224,1299,1,0,0:0:0:0:
480,256,1302,5,0,0:0:0:0:
448,256,1305,1,0,0:0:0:0:
416,256,1308,1,0,0:0:0:0:
384,256,1311,1,0,0:0:0:0:
352,256,1314,1,0,0:0:0:0:
320,256,1317,1,0,0:0:0:0:
288,256,1320,1,0,0:0:0:0:
256,256,1323,1,0,0:0:0:0:
224,256,1326,1,0,0:0:0:0:
192,256,1329,1,0,0:0:0:0:
160,256,1332,1,0,0:0:0:0:
128,256,1335,1,0,0:0:0:0:
96,256,1338,1,0,0:0:0:0:
64,256,1341,1,0,0:0:0:0:
32,256,1344,1,0,0:0:0:0:
32,288,1347,1,0,0:0:0:0:
64,288,1350,1,0,0:0:0:0:
96,288,1353,1,0,0:0:0:0:
128,288,1356,1,0,0:0:0:0:
160,288,1359,1,0,0:0:0:0:
192,288,1362,1,0,0:0:0:0:
224,288,1365,1,0,0:0:0:0:
256,288,1368,1,0,0:0:0:0:
288,288,1371,1,0,0:0:0:0:
320,288,1374,1,0,0:0:0:0:
352,288,1377,1,0,0:0:0:0:
384,288,1380,1,0,0:0:0:0:
416,288,1383,1,0,0:0:0:0:
448,288,1386,1,0,0:0:0:0:
480,288,1389,1,0,0:0:0:0:
480,320,1392,1,0,0:0:0:0:
448,320,1395,1,0,0:0:0:0:
416,320,1398,1,0,0:0:0:0:
384,320,1401,1,0,0:0:0:0:
352,320,1404,1,0,0:0:0:0:
320,320,1407,1,0,0:0:0:0:
288,320,1410,1,0,0:0:0:0:
256,320,1413,1,0,0:0:0:0:
224,320,1416,1,0,0:0:0:0:
192,320,1419,1,0,0:0:0:0:
160,320,1422,1,0,0:0:0:0:
128,320,1425,1,0,0:0:0:0:
96,320,1428,1,0,0:0:0:0:
64,320,1431,1,0,0:0:0:0:
32,320,1434,1,0,0:0:0:0:
32,352,1437,1,0,0:0:0:0:
64,352,1440,1,0,0:0:0:0:
96,352,1443,1,0,0:0:0:0:
128,352,1446,1,0,0:0:0:0:
160,352,1449,1,0,0:0:0:0:
192,352,1452,1,0,0:0:0:0:
224,352,1455,1,0,0:0:0:0:
256,352,1458,1,0,0:0:0:0:
288,352,1461,1,0,0:0:0:0:
320,352,1464,1,0,0:0:0:0:
352,352,1467,1,0,0:0:0:0:
384,352,1470,1,0,0:0:0:0:
416,352,1473,1,0,0:0:0:0:
448,352,1476,1,0,0:0:0:0:
32,32,1479,5,0,0:0:0:0:
64,32,1482,1,0,0:0:0:0:
96,32,1485,1,0,0:0:0:0:
128,32,1488,1,0,0:0:0:0:
160,32,1491,1,0,0:0:0:0:
192,32,1494,1,0,0:0:0:0:
224,32,1497,1,0,0:0:0:0:
256,32,1500,1,0,0:0:0:0:
288,32,1503,1,0,0:0:0:0:
320,32,1506,1,0,0:0:0:0:
352,32,1509,1,0,0:0:0:0:
384,32,1512,1,0,0:0:0:0:
416,32,1515,1,0,0:0:0:0:
448,32,1518,1,0,0:0:0:0:
480,32,1521,1,0,0:0:0:0:
480,64,1524,1,0,0:0:0:0:
448,64,1527,1,0,0:0:0:0:
416,64,1530,1,0,0:0:0:0:
384,64,1533,1,0,0:0:0:0:
352,64,1536,1,0,0:0:0:0:
320,64,1539,1,0,0:0:0:0:
288,64,1542,1,0,0:0:0:0:
256,64,1545,1,0,0:0:0:0:
224,64,1548,1,0,0:0:0:0:
192,64,1551,1,0,0:0:0:0:
160,64,1554,1,0,0:0:0:0:
128,64,1557,1,0,0:0:0:0:
96,64,1560,1,0,0:0:0:0:
64,64,1563,1,0,0:0:0:0:
32,64,1566,1,0,0:0:0:0:
32,96,1569,1,0,0:0:0:0:
64,96,1572,1,0,0:0:0:0:
96,96,1575,1,0,0:0:0:0:
128,96,1578,1,0,0:0:0:0:
160,96,1581,1,0,0:0:0:0:
192,96,1584,1,0,0:0:0:0:
224,96,1587,1,0,0:0:0:0:
256,96,1590,1,0,0:0:0:0:
288,96,1593,1,0,0:0:0:0:
320,96,1596,1,0,0:0:0:0:
352,96,1599,1,0,0:0:0:0:
384,96,1602,1,0,0:0:0:0:
416,96,1605,1,0,0:0:0:0:
448,96,1608,1,0,0:0:0:0:
480,96,1611,1,0,0:0:0:0:
480,128,1614,5,0,0:0:0:0:
448,128,1617,1,0,0:0:0:0:
416,128,1620,1,0,0:0:0:0:
384,128,1623,1,0,0:0:0:0:
352,128,1626,1,0,0:0:0:0:
320,128,1629,1,0,0:0:0:0:
288,128,1632,1,0,0:0:0:0:
256,128,1635,1,0,0:0:0:0:
224,128,1638,1,0,0:0:0:0:
192,128,1641,1,0,0:0:0:0:
160,128,1644,1,0,0:0:0:0:
128,128,1647,1,0,0:0:0:0:
96,128,1650,1,0,0:0:0:0:
64,128,1653,1,0,0:0:0:0:
32,128,1656,1,0,0:0:0:0:
32,160,1659,1,0,0:0:0:0:
64,160,1662,1,0,0:0:0:0:
96,160,1665,1,0,0:0:0:0:
128,160,1668,1,0,0:0:0:0:
160,160,1671,1,0,0:0:0:0:
192,160,1674,1,0,0:0:0:0:
224,160,1677,1,0,0:0:0:0:
256,160,1680,1,0,0:0:0:0:
288,160,1683,1,0,0:0:0:0:
320,160,1686,1,0,0:0:0:0:
352,160,1689,1,0,0:0:0:0:
384,160,1692,1,0,0:0:0:0:
416,160,1695,1,0,0:0:0:0:
448,160,1698,1,0,0:0:0:0:
480,160,1701,1,0,0:0:0:0:
480,192,1704,1,0,0:0:0:0:
448,192,1707,1,0,0:0:0:0:
416,192,1710,1,0,0:0:0:0:
384,192,1713,1,0,0:0:0:0:
352,192,1716,1,0,0:0:0:0:
320,192,1719,1,0,0:0:0:0:
288,192,1722,1,0,0:0:0:0:
256,192,1725,1,0,0:0:0:0:
224,192,1728,1,0,0:0:0:0:
192,192,1731,1,0,0:0:0:0:
160,192,1734,1,0,0:0:0:0:
128,192,1737,1,0,0:0:0:0:
96,192,1740,1,0,0:0:0:0:
64,192,1743,1,0,0:0:0:0:
32,192,1746,1,0,0:0:0:0:
32,224,1749,1,0,0:0:0:0:
64,224,1752,1,0,0:0:0:0:
96,224,1755,1,0,0:0:0:0:
128,224,1758,1,0,0:0:0:0:
160,224,1761,1,0,0:0:0:0:
192,224,1764,1,0,0:0:0:0:
224,224,1767,1,0,0:0:0:0:
256,224,1770,1,0,0:0:0:0:
288,224,1773,1,0,0:0:0:0:
320,224,1776,1,0,0:0:0:0:
352,224,1779,1,0,0:0:0:0:
384,224,1782,1,0,0:0:0:0:
416,224,1785,1,0,0:0:0:0:
448,224,1788,1,0,0:0:0:0:
480,224,1791,1,0,0:0:0:0:
480,256,1794,5,0,0:0:0:0:
448,256,1797,1,0,0:0:0:0:
416,256,1800,1,0,0:0:0:0:
384,256,1803,1,0,0:0:0:0:
352,256,1806,1,0,0:0:0:0:
320,256,1809,1,0,0:0:0:0:
288,256,1812,1,0,0:0:0:0:
256,256,1815,1,0,0:0:0:0:
224,256,1818,1,0,0:0:0:0:
192,256,1821,1,0,0:0:0:0:
160,256,1824,1,0,0:0:0:0:
128,256,1827,1,0,0:0:0:0:
96,256,1830,1,0,0:0:0:0:
64,256,1833,1,0,0:0:0:0:
32,256,1836,1,0,0:0:0:0:
32,288,1839,1,0,0:0:0:0:
64,288,1842,1,0,0:0:0:0:
96,288,1845,1,0,0:0:0:0:
128,288,1848,1,0,0:0:0:0:
160,288,1851,1,0,0:0:0:0:
192,288,1854,1,0,0:0:0:0:
224,288,1857,1,0,0:0:0:0:
256,288,1860,1,0,0:0:0:0:
288,288,1863,1,0,0:0:0:0:
320,288,1866,1,0,0:0:0:0:
352,288,1869,1,0,0:0:0:0:
384,288,1872,1,0,0:0:0:0:
416,288,1875,1,0,0:0:0:0:
448,288,1878,1,0,0:0:0:0:
480,288,1881,1,0,0:0:0:0:
480,320,1884,1,0,0:0:0:0:
448,320,1887,1,0,0:0:0:0:
416,320,1890,1,0,0:0:0:0:
384,320,1893,1,0,0:0:0:0:
352,320,1896,1,0,0:0:0:0:
320,320,1899,1,0,0:0:0:0:
288,320,1902,1,0,0:0:0:0:
256,320,1905,1,0,0:0:0:0:
224,320,1908,1,0,0:0:0:0:
192,320,1911,1,0,0:0:0:0:
160,320,1914,1,0,0:0:0:0:
128,320,1917,1,0,0:0:0:0:
96,320,1920,1,0,0:0:0:0:
64,320,1923,1,0,0:0:0:0:
32,320,1926,1,0,0:0:0:0:
32,352,1929,1,0,0:0:0:0:
64,352,1932,1,0,0:0:0:0:
96,352,1935,1,0,0:0:0:0:
128,352,1938,1,0,0:0:0:0:
160,352,1941,1,0,0:0:0:0:
192,352,1944,1,0,0:0:0:0:
224,352,1947,1,0,0:0:0:0:
256,352,1950,1,0,0:0:0:0:
288,352,1953,1,0,0:0:0:0:
320,352,1956,1,0,0:0:0:0:
352,352,1959,1,0,0:0:0:0:
384,352,1962,1,0,0:0:0:0:
416,352,1965,1,0,0:0:0:0:
448,352,1968,1,0,0:0:0:0:
480,352,1971,1,0,0:0:0:0:
32,32,1974,1,0,0:0:0:0:
64,32,1977,1,0,0:0:0:0:
96,32,1980,1,0,0:0:0:0:
128,32,1983,1,0,0:0:0:0:
160,32,1986,1,0,0:0:0:0:
192,32,1989,1,0,0:0:0:0:
224,32,1992,1,0,0:0:0:0:
256,32,1995,1,0,0:0:0:0:
288,32,1998,1,0,0:0:0:0:
320,32,2001,1,0,0:0:0:0:
352,32,2004,1,0,0:0:0:0:
384,32,2007,1,0,0:0:0:0:
416,32,2010,1,0,0:0:0:0:
448,32,2013,1,0,0:0:0:0:
480,32,2016,1,0,0:0:0:0:
480,64,2019,1,0,0:0:0:0:
448,64,2022,1,0,0:0:0:0:
416,64,2025,1,0,0:0:0:0:
384,64,2028,1,0,0:0:0:0:
352,64,2031,1,0,0:0:0:0:
320,64,2034,1,0,0:0:0:0:
288,64,2037,1,0,0:0:0:0:
256,64,2040,1,0,0:0:0:0:
224,64,2043,1,0,0:0:0:0:
192,64,2046,1,0,0:0:0:0:
160,64,2049,1,0,0:0:0:0:
128,64,2052,1,0,0:0:0:0:
96,64,2055,1,0,0:0:0:0:
64,64,2058,1,0,0:0:0:0:
32,64,2061,1,0,0:0:0:0:
32,96,2064,1,0,0:0:0:0:
64,96,2067,1,0,0:0:0:0:
96,96,2070,1,0,0:0:0:0:
128,96,2073,1,0,0:0:0:0:
160,96,2076,1,0,0:0:0:0:
192,96,2079,1,0,0:0:0:0:
224,96,2082,1,0,0:0:0:0:
256,96,2085,1,0,0:0:0:0:
288,96,2088,1,0,0:0:0:0:
320,96,2091,1,0,0:0:0:0:
352,96,2094,1,0,0:0:0:0:
384,96,2097,1,0,0:0:0:0:
416,96,2100,1,0,0:0:0:0:
448,96,2103,1,0,0:0:0:0:
480,96,2106,1,0,0:0:0:0:
480,128,2109,5,0,0:0:0:0:
448,128,2112,1,0,0:0:0:0:
416,128,2115,1,0,0:0:0:0:
384,128,2118,1,0,0:0:0:0:
352,128,2121,1,0,0:0:0:0:
320,128,2124,1,0,0:0:0:0:
288,128,2127,1,0,0:0:0:0:
256,128,2130,1,0,0:0:0:0:
224,128,2133,1,0,0:0:0:0:
192,128,2136,1,0,0:0:0:0:
160,128,2139,1,0,0:0:0:0:
128,128,2142,1,0,0:0:0:0:
96,128,2145,1,0,0:0:0:0:
64,128,2148,1,0,0:0:0:0:
32,128,2151,1,0,0:0:0:0:
32,160,2154,1,0,0:0:0:0:
64,160,2157,1,0,0:0:0:0:
96,160,2160,1,0,0:0:0:0:
128,160,2163,1,0,0:0:0:0:
160,160,2166,1,0,0:0:0:0:
192,160,2169,1,0,0:0:0:0:
224,160,2172,1,0,0:0:0:0:
256,160,2175,1,0,0:0:0:0:
288,160,2178,1,0,0:0:0:0:
320,160,2181,1,0,0:0:0:0:
352,160,2184,1,0,0:0:0:0:
384,160,2187,1,0,0:0:0:0:
416,160,2190,1,0,0:0:0:0:
448,160,2193,1,0,0:0:0:0:
480,160,2196,1,0,0:0:0:0:
480,192,2199,1,0,0:0:0:0:
448,192,2202,1,0,0:0:0:0:
416,192,2205,1,0,0:0:0:0:
384,192,2208,1,0,0:0:0:0:
352,192,2211,1,0,0:0:0:0:
320,192,2214,1,0,0:0:0:0:
288,192,2217,1,0,0:0:0:0:
256,192,2220,1,0,0:0:0:0:
224,192,2223,1,0,0:0:0:0:
192,192,2226,1,0,0:0:0:0:
160,192,2229,1,0,0:0:0:0:
128,192,2232,1,0,0:0:0:0:
96,192,2235,1,0,0:0:0:0:
64,192,2238,1,0,0:0:0:0:
32,192,2241,1,0,0:0:0:0:
32,224,2244,1,0,0:0:0:0:
64,224,2247,1,0,0:0:0:0:
96,224,2250,1,0,0:0:0:0:
128,224,2253,1,0,0:0:0:0:
160,224,2256,1,0,0:0:0:0:
192,224,2259,1,0,0:0:0:0:
224,224,2262,1,0,0:0:0:0:
256,224,2265,1,0,0:0:0:0:
288,224,2268,1,0,0:0:0:0:
320,224,2271,1,0,0:0:0:0:
352,224,2274,1,0,0:0:0:0:
384,224,2277,1,0,0:0:0:0:
416,224,2280,1,0,0:0:0:0:
448,224,2283,1,0,0:0:0:0:
480,224,2286,1,0,0:0:0:0:
480,256,2289,5,0,0:0:0:0:
448,256,2292,1,0,0:0:0:0:
416,256,2295,1,0,0:0:0:0:
384,256,2298,1,0,0:0:0:0:
352,256,2301,1,0,0:0:0:0:
320,256,2304,1,0,0:0:0:0:
288,256,2307,1,0,0:0:0:0:
256,256,2310,1,0,0:0:0:0:
224,256,2313,1,0,0:0:0:0:
192,256,2316,1,0,0:0:0:0:
160,256,2319,1,0,0:0:0:0:
128,256,2322,1,0,0:0:0:0:
96,256,2325,1,0,0:0:0:0:
64,256,2328,1,0,0:0:0:0:
32,256,2331,1,0,0:0:0:0:
32,288,2334,1,0,0:0:0:0:
64,288,2337,1,0,0:0:0:0:
96,288,2340,1,0,0:0:0:0:
128,288,2343,1,0,0:0:0:0:
160,288,2346,1,0,0:0:0:0:
192,288,2349,1,0,0:0:0:0:
224,288,2352,1,0,0:0:0:0:
256,288,2355,1,0,0:0:0:0:
288,288,2358,1,0,0:0:0:0:
320,288,2361,1,0,0:0:0:0:
352,288,2364,1,0,0:0:0:0:
384,288,2367,1,0,0:0:0:0:
416,288,2370,1,0,0:0:0:0:
448,288,2373,1,0,0:0:0:0:
480,288,2376,1,0,0:0:0:0:
480,320,2379,1,0,0:0:0:0:
448,320,2382,1,0,0:0:0:0:
416,320,2385,1,0,0:0:0:0:
384,320,2388,1,0,0:0:0:0:
352,320,2391,1,0,0:0:0:0:
320,320,2394,1,0,0:0:0:0:
288,320,2397,1,0,0:0:0:0:
256,320,2400,1,0,0:0:0:0:
224,320,2403,1,0,0:0:0:0:
192,320,2406,1,0,0:0:0:0:
160,320,2409,1,0,0:0:0:0:
128,320,2412,1,0,0:0:0:0:
96,320,2415,1,0,0:0:0:0:
64,320,2418,1,0,0:0:0:0:
32,320,2421,1,0,0:0:0:0:
32,352,2424,1,0,0:0:0:0:
64,352,2427,1,0,0:0:0:0:
96,352,2430,1,0,0:0:0:0:
128,352,2433,1,0,0:0:0:0:
160,352,2436,1,0,0:0:0:0:
192,352,2439,1,0,0:0:0:0:
224,352,2442,1,0,0:0:0:0:
256,352,2445,1,0,0:0:0:0:
288,352,2448,1,0,0:0:0:0:
320,352,2451,1,0,0:0:0:0:
352,352,2454,1,0,0:0:0:0:
384,352,2457,1,0,0:0:0:0:
416,352,2460,1,0,0:0:0:0:
448,352,2463,1,0,0:0:0:0:
32,32,2466,1,0,0:0:0:0:
64,32,2469,1,0,0:0:0:0:
96,32,2472,1,0,0:0:0:0:
128,32,2475,1,0,0:0:0:0:
160,32,2478,1,0,0:0:0:0:
192,32,2481,1,0,0:0:0:0:
224,32,2484,1,0,0:0:0:0:
256,32,2487,1,0,0:0:0:0:
288,32,2490,1,0,0:0:0:0:
320,32,2493,1,0,0:0:0:0:
352,32,2496,1,0,0:0:0:0:
384,32,2499,1,0,0:0:0:0:
416,32,2502,1,0,0:0:0:0:
448,32,2505,1,0,0:0:0:0:
480,32,2508,1,0,0:0:0:0:
480,64,2511,1,0,0:0:0:0:
448,64,2514,1,0,0:0:0:0:
416,64,2517,1,0,0:0:0:0:
384,64,2520,1,0,0:0:0:0:
352,64,2523,1,0,0:0:0:0:
320,64,2526,1,0,0:0:0:0:
288,64,2529,1,0,0:0:0:0:
256,64,2532,1,0,0:0:0:0:
224,64,2535,1,0,0:0:0:0:
192,64,2538,1,0,0:0:0:0:
160,64,2541,1,0,0:0:0:0:
128,64,2544,1,0,0:0:0:0:
96,64,2547,1,0,0:0:0:0:
64,64,2550,1,0,0:0:0:0:
32,64,2553,1,0,0:0:0:0:
32,96,2556,1,0,0:0:0:0:
64,96,2559,1,0,0:0:0:0:
96,96,2562,1,0,0:0:0:0:
128,96,2565,1,0,0:0:0:0:
160,96,2568,1,0,0:0:0:0:
192,96,2571,1,0,0:0:0:0:
224,96,2574,1,0,0:0:0:0:
256,96,2577,1,0,0:0:0:0:
288,96,2580,1,0,0:0:0:0:
320,96,2583,1,0,0:0:0:0:
352,96,2586,1,0,0:0:0:0:
384,96,2589,1,0,0:0:0:0:
416,96,2592,1,0,0:0:0:0:
448,96,2595,1,0,0:0:0:0:
480,96,2598,1,0,0:0:0:0:
480,128,2601,5,0,0:0:0:0:
448,128,2604,1,0,0:0:0:0:
416,128,2607,1,0,0:0:0:0:
384,128,2610,1,0,0:0:0:0:
352,128,2613,1,0,0:0:0:0:
320,128,2616,1,0,0:0:0:0:
288,128,2619,1,0,0:0:0:0:
256,128,2622,1,0,0:0:0:0:
224,128,2625,1,0,0:0:0:0:
192,128,2628,1,0,0:0:0:0:
160,128,2631,1,0,0:0:0:0:
128,128,2634,1,0,0:0:0:0:
96,128,2637,1,0,0:0:0:0:
64,128,2640,1,0,0:0:0:0:
32,128,2643,1,0,0:0:0:0:
32,160,2646,1,0,0:0:0:0:
64,160,2649,1,0,0:0:0:0:
96,160,2652,1,0,0:0:0:0:
128,160,2655,1,0,0:0:0:0:
160,160,2658,1,0,0:0:0:0:
192,160,2661,1,0,0:0:0:0:
224,160,2664,1,0,0:0:0:0:
256,160,2667,1,0,0:0:0:0:
288,160,2670,1,0,0:0:0:0:
320,160,2673,1,0,0:0:0:0:
352,160,2676,1,0,0:0:0:0:
384,160,2679,1,0,0:0:0:0:
416,160,2682,1,0,0:0:0:0:
448,160,2685,1,0,0:0:0:0:
480,160,2688,1,0,0:0:0:0:
480,192,2691,1,0,0:0:0:0:
448,192,2694,1,0,0:0:0:0:
416,192,2697,1,0,0:0:0:0:
384,192,2700,1,0,0:0:0:0:
352,192,2703,1,0,0:0:0:0:
320,192,2706,1,0,0:0:0:0:
288,192,2709,1,0,0:0:0:0:
256,192,2712,1,0,0:0:0:0:
224,192,2715,1,0,0:0:0:0:
192,192,2718,1,0,0:0:0:0:
160,192,2721,1,0,0:0:0:0:
128,192,2724,1,0,0:0:0:0:
96,192,2727,1,0,0:0:0:0:
64,192,2730,1,0,0:0:0:0:
32,192,2733,1,0,0:0:0:0:
32,224,2736,1,0,0:0:0:0:
64,224,2739,1,0,0:0:0:0:
96,224,2742,1,0,0:0:0:0:
128,224,2745,1,0,0:0:0:0:
160,224,2748,1,0,0:0:0:0:
192,224,2751,1,0,0:0:0:0:
224,224,2754,1,0,0:0:0:0:
256,224,2757,1,0,0:0:0:0:
288,224,2760,1,0,0:0:0:0:
320,224,2763,1,0,0:0:0:0:
352,224,2766,1,0,0:0:0:0:
384,224,2769,1,0,0:0:0:0:
416,224,2772,1,0,0:0:0:0:
448,224,2775,1,0,0:0:0:0:
480,224,2778,1,0,0:0:0:0:
480,256,2781,5,0,0:0:0:0:
448,256,2784,1,0,0:0:0:0:
416,256,2787,1,0,0:0:0:0:
384,256,2790,1,0,0:0:0:0:
352,256,2793,1,0,0:0:0:0:
320,256,2796,1,0,0:0:0:0:
288,256,2799,1,0,0:0:0:0:
256,256,2802,1,0,0:0:0:0:
224,256,2805,1,0,0:0:0:0:
192,256,2808,1,0,0:0:0:0:
160,256,2811,1,0,0:0:0:0:
128,256,2814,1,0,0:0:0:0:
96,256,2817,1,0,0:0:0:0:
64,256,2820,1,0,0:0:0:0:
32,256,2823,1,0,0:0:0:0:
32,288,2826,1,0,0:0:0:0:
64,288,2829,1,0,0:0:0:0:
96,288,2832,1,0,0:0:0:0:
128,288,2835,1,0,0:0:0:0:
160,288,2838,1,0,0:0:0:0:
192,288,2841,1,0,0:0:0:0:
224,288,2844,1,0,0:0:0:0:
256,288,2847,1,0,0:0:0:0:
288,288,2850,1,0,0:0:0:0:
320,288,2853,1,0,0:0:0:0:
352,288,2856,1,0,0:0:0:0:
384,288,2859,1,0,0:0:0:0:
416,288,2862,1,0,0:0:0:0:
448,288,2865,1,0,0:0:0:0:
480,288,2868,1,0,0:0:0:0:
480,320,2871,1,0,0:0:0:0:
448,320,2874,1,0,0:0:0:0:
416,320,2877,1,0,0:0:0:0:
384,320,2880,1,0,0:0:0:0:
352,320,2883,1,0,0:0:0:0:
320,320,2886,1,0,0:0:0:0:
288,320,2889,1,0,0:0:0:0:
256,320,2892,1,0,0:0:0:0:
224,320,2895,1,0,0:0:0:0:
192,320,2898,1,0,0:0:0:0:
160,320,2901,1,0,0:0:0:0:
128,320,2904,1,0,0:0:0:0:
96,320,2907,1,0,0:0:0:0:
64,320,2910,1,0,0:0:0:0:
32,320,2913,1,0,0:0:0:0:
32,352,2916,1,0,0:0:0:0:
64,352,2919,1,0,0:0:0:0:
96,352,2922,1,0,0:0:0:0:
128,352,2925,1,0,0:0:0:0:
160,352,2928,1,0,0:0:0:0:
192,352,2931,1,0,0:0:0:0:
224,352,2934,1,0,0:0:0:0:
256,352,2937,1,0,0:0:0:0:
288,352,2940,1,0,0:0:0:0:
320,352,2943,1,0,0:0:0:0:
352,352,2946,1,0,0:0:0:0:
384,352,2949,1,0,0:0:0:0:
416,352,2952,1,0,0:0:0:0:
448,352,2955,1,0,0:0:0:0:
32,32,2958,5,0,0:0:0:0:
64,32,2961,1,0,0:0:0:0:
96,32,2964,1,0,0:0:0:0:
128,32,2967,1,0,0:0:0:0:
160,32,2970,1,0,0:0:0:0:
192,32,2973,1,0,0:0:0:0:
224,32,2976,1,0,0:0:0:0:
256,32,2979,1,0,0:0:0:0:
288,32,2982,1,0,0:0:0:0:
320,32,2985,1,0,0:0:0:0:
352,32,2988,1,0,0:0:0:0:
384,32,2991,1,0,0:0:0:0:
416,32,2994,1,0,0:0:0:0:
448,32,2997,1,0,0:0:0:0:
480,32,3000,1,0,0:0:0:0:
480,64,3003,1,0,0:0:0:0:
448,64,3006,1,0,0:0:0:0:
416,64,3009,1,0,0:0:0:0:
384,64,3012,1,0,0:0:0:0:
352,64,3015,1,0,0:0:0:0:
320,64,3018,1,0,0:0:0:0:
288,64,3021,1,0,0:0:0:0:
256,64,3024,1,0,0:0:0:0:
224,64,3027,1,0,0:0:0:0:
192,64,3030,1,0,0:0:0:0:
160,64,3033,1,0,0:0:0:0:
128,64,3036,1,0,0:0:0:0:
96,64,3039,1,0,0:0:0:0:
64,64,3042,1,0,0:0:0:0:
32,64,3045,1,0,0:0:0:0:
32,96,3048,1,0,0:0:0:0:
64,96,3051,1,0,0:0:0:0:
96,96,3054,1,0,0:0:0:0:
128,96,3057,1,0,0:0:0:0:
160,96,3060,1,0,0:0:0:0:
192,96,3063,1,0,0:0:0:0:
224,96,3066,1,0,0:0:0:0:
256,96,3069,1,0,0:0:0:0:
288,96,3072,1,0,0:0:0:0:
320,96,3075,1,0,0:0:0:0:
352,96,3078,1,0,0:0:0:0:
384,96,3081,1,0,0:0:0:0:
416,96,3084,1,0,0:0:0:0:
448,96,3087,1,0,0:0:0:0:
480,96,3090,1,0,0:0:0:0:
480,128,3093,5,0,0:0:0:0:
448,128,3096,1,0,0:0:0:0:
416,128,3099,1,0,0:0:0:0:
384,128,3102,1,0,0:0:0:0:
352,128,3105,1,0,0:0:0:0:
320,128,3108,1,0,0:0:0:0:
288,128,3111,1,0,0:0:0:0:
256,128,3114,1,0,0:0:0:0:
224,128,3117,1,0,0:0:0:0:
192,128,3120,1,0,0:0:0:0:
160,128,3123,1,0,0:0:0:0:
128,128,3126,1,0,0:0:0:0:
96,128,3129,1,0,0:0:0:0:
64,128,3132,1,0,0:0:0:0:
32,128,3135,1,0,0:0:0:0:
32,160,3138,1,0,0:0:0:0:
64,160,3141,1,0,0:0:0:0:
96,160,3144,1,0,0:0:0:0:
128,160,3147,1,0,0:0:0:0:
160,160,3150,1,0,0:0:0:0:
192,160,3153,1,0,0:0:0:0:
224,160,3156,1,0,0:0:0:0:
256,160,3159,1,0,0:0:0:0:
288,160,3162,1,0,0:0:0:0:
320,160,3165,1,0,0:0:0:0:
352,160,3168,1,0,0:0:0:0:
384,160,3171,1,0,0:0:0:0:
416,160,3174,1,0,0:0:0:0:
448,160,3177,1,0,0:0:0:0:
480,160,3180,1,0,0:0:0:0:
480,192,3183,1,0,0:0:0:0:
448,192,3186,1,0,0:0:0:0:
416,192,3189,1,0,0:0:0:0:
384,192,3192,1,0,0:0:0:0:
352,192,3195,1,0,0:0:0:0:
320,192,3198,1,0,0:0:0:0:
288,192,3201,1,0,0:0:0:0:
256,192,3204,1,0,0:0:0:0:
224,192,3207,1,0,0:0:0:0:
192,192,3210,1,0,0:0:0:0:
160,192,3213,1,0,0:0:0:0:
128,192,3216,1,0,0:0:0:0:
96,192,3219,1,0,0:0:0:0:
64,192,3222,1,0,0:0:0:0:
32,192,3225,1,0,0:0:0:0:
32,224,3228,1,0,0:0:0:0:
64,224,3231,1,0,0:0:0:0:
96,224,3234,1,0,0:0:0:0:
128,224,3237,1,0,0:0:0:0:
160,224,3240,1,0,0:0:0:0:
192,224,3243,1,0,0:0:0:0:
224,224,3246,1,0,0:0:0:0:
256,224,3249,1,0,0:0:0:0:
288,224,3252,1,0,0:0:0:0:
320,224,3255,1,0,0:0:0:0:
352,224,3258,1,0,0:0:0:0:
384,224,3261,1,0,0:0:0:0:
416,224,3264,1,0,0:0:0:0:
448,224,3267,1,0,0:0:0:0:
480,224,3270,1,0,0:0:0:0:
480,256,3273,5,0,0:0:0:0:
448,256,3276,1,0,0:0:0:0:
416,256,3279,1,0,0:0:0:0:
384,256,3282,1,0,0:0:0:0:
352,256,3285,1,0,0:0:0:0:
320,256,3288,1,0,0:0:0:0:
288,256,3291,1,0,0:0:0:0:
256,256,3294,1,0,0:0:0:0:
224,256,3297,1,0,0:0:0:0:
192,256,3300,1,0,0:0:0:0:
160,256,3303,1,0,0:0:0:0:
128,256,3306,1,0,0:0:0:0:
96,256,3309,1,0,0:0:0:0:
64,256,3312,1,0,0:0:0:0:
32,256,3315,1,0,0:0:0:0:
32,288,3318,1,0,0:0:0:0:
64,288,3321,1,0,0:0:0:0:
96,288,3324,1,0,0:0:0:0:
128,288,3327,1,0,0:0:0:0:
160,288,3330,1,0,0:0:0:0:
192,288,3333,1,0,0:0:0:0:
224,288,3336,1,0,0:0:0:0:
256,288,3339,1,0,0:0:0:0:
288,288,3342,1,0,0:0:0:0:
320,288,3345,1,0,0:0:0:0:
352,288,3348,1,0,0:0:0:0:
384,288,3351,1,0,0:0:0:0:
416,288,3354,1,0,0:0:0:0:
448,288,3357,1,0,0:0:0:0:
480,288,3360,1,0,0:0:0:0:
480,320,3363,1,0,0:0:0:0:
448,320,3366,1,0,0:0:0:0:
416,320,3369,1,0,0:0:0:0:
384,320,3372,1,0,0:0:0:0:
352,320,3375,1,0,0:0:0:0:
320,320,3378,1,0,0:0:0:0:
288,320,3381,1,0,0:0:0:0:
256,320,3384,1,0,0:0:0:0:
224,320,3387,1,0,0:0:0:0:
192,320,3390,1,0,0:0:0:0:
160,320,3393,1,0,0:0:0:0:
128,320,3396,1,0,0:0:0:0:
96,320,3399,1,0,0:0:0:0:
64,320,3402,1,0,0:0:0:0:
32,320,3405,1,0,0:0:0:0:
32,352,3408,1,0,0:0:0:0:
64,352,3411,1,0,0:0:0:0:
96,352,3414,1,0,0:0:0:0:
128,352,3417,1,0,0:0:0:0:
160,352,3420,1,0,0:0:0:0:
192,352,3423,1,0,0:0:0:0:
224,352,3426,1,0,0:0:0:0:
256,352,3429,1,0,0:0:0:0:
288,352,3432,1,0,0:0:0:0:
320,352,3435,1,0,0:0:0:0:
352,352,3438,1,0,0:0:0:0:
384,352,3441,1,0,0:0:0:0:
416,352,3444,1,0,0:0:0:0:
448,352,3447,1,0,0:0:0:0:
480,352,3450,1,0,0:0:0:0:
32,32,3453,1,0,0:0:0:0:
64,32,3456,1,0,0:0:0:0:
96,32,3459,1,0,0:0:0:0:
128,32,3462,1,0,0:0:0:0:
160,32,3465,1,0,0:0:0:0:
192,32,3468,1,0,0:0:0:0:
224,32,3471,1,0,0:0:0:0:
256,32,3474,1,0,0:0:0:0:
288,32,3477,1,0,0:0:0:0:
320,32,3480,1,0,0:0:0:0:
352,32,3483,1,0,0:0:0:0:
384,32,3486,1,0,0:0:0:0:
416,32,3489,1,0,0:0:0:0:
448,32,3492,1,0,0:0:0:0:
480,32,3495,1,0,0:0:0:0:
480,64,3498,1,0,0:0:0:0:
448,64,3501,1,0,0:0:0:0:
416,64,3504,1,0,0:0:0:0:
384,64,3507,1,0,0:0:0:0:
352,64,3510,1,0,0:0:0:0:
320,64,3513,1,0,0:0:0:0:
288,64,3516,1,0,0:0:0:0:
256,64,3519,1,0,0:0:0:0:
224,64,3522,1,0,0:0:0:0:
192,64,3525,1,0,0:0:0:0:
160,64,3528,1,0,0:0:0:0:
128,64,3531,1,0,0:0:0:0:
96,64,3534,1,0,0:0:0:0:
64,64,3537,1,0,0:0:0:0:
32,64,3540,1,0,0:0:0:0:
32,96,3543,1,0,0:0:0:0:
64,96,3546,1,0,0:0:0:0:
96,96,3549,1,0,0:0:0:0:
128,96,3552,1,0,0:0:0:0:
160,96,3555,1,0,0:0:0:0:
192,96,3558,1,0,0:0:0:0:
224,96,3561,1,0,0:0:0:0:
256,96,3564,1,0,0:0:0:0:
288,96,3567,1,0,0:0:0:0:
320,96,3570,1,0,0:0:0:0:
352,96,3573,1,0,0:0:0:0:
384,96,3576,1,0,0:0:0:0:
416,96,3579,1,0,0:0:0:0:
448,96,3582,1,0,0:0:0:0:
480,96,3585,1,0,0:0:0:0:
480,128,3588,5,0,0:0:0:0:
448,128,3591,1,0,0:0:0:0:
416,128,3594,1,0,0:0:0:0:
384,128,3597,1,0,0:0:0:0:
352,128,3600,1,0,0:0:0:0:
320,128,3603,1,0,0:0:0:0:
288,128,3606,1,0,0:0:0:0:
256,128,3609,1,0,0:0:0:0:
224,128,3612,1,0,0:0:0:0:
192,128,3615,1,0,0:0:0:0:
160,128,3618,1,0,0:0:0:0:
128,128,3621,1,0,0:0:0:0:
96,128,3624,1,0,0:0:0:0:
64,128,3627,1,0,0:0:0:0:
32,128,3630,1,0,0:0:0:0:
32,160,3633,1,0,0:0:0:0:
64,160,3636,1,0,0:0:0:0:
96,160,3639,1,0,0:0:0:0:
128,160,3642,1,0,0:0:0:0:
160,160,3645,1,0,0:0:0:0:
192,160,3648,1,0,0:0:0:0:
224,160,3651,1,0,0:0:0:0:
256,160,3654,1,0,0:0:0:0:
288,160,3657,1,0,0:0:0:0:
320,160,3660,1,0,0:0:0:0:
352,160,3663,1,0,0:0:0:0:
384,160,3666,1,0,0:0:0:0:
416,160,3669,1,0,0:0:0:0:
448,160,3672,1,0,0:0:0:0:
480,160,3675,1,0,0:0:0:0:
480,192,3678,1,0,0:0:0:0:
448,192,3681,1,0,0:0:0:0:
416,192,3684,1,0,0:0:0:0:
384,192,3687,1,0,0:0:0:0:
352,192,3690,1,0,0:0:0:0:
320,192,3693,1,0,0:0:0:0:
288,192,3696,1,0,0:0:0:0:
256,192,3699,1,0,0:0:0:0:
224,192,3702,1,0,0:0:0:0:
192,192,3705,1,0,0:0:0:0:
160,192,3708,1,0,0:0:0:0:
128,192,3711,1,0,0:0:0:0:
96,192,3714,1,0,0:0:0:0:
64,192,3717,1,0,0:0:0:0:
32,192,3720,1,0,0:0:0:0:
32,224,3723,1,0,0:0:0:0:
64,224,3726,1,0,0:0:0:0:
96,224,3729,1,0,0:0:0:0:
128,224,3732,1,0,0:0:0:0:
160,224,3735,1,0,0:0:0:0:
192,224,3738,1,0,0:0:0:0:
224,224,3741,1,0,0:0:0:0:
256,224,3744,1,0,0:0:0:0:
288,224,3747,1,0,0:0:0:0:
320,224,3750,1,0,0:0:0:0:
352,224,3753,1,0,0:0:0:0:
384,224,3756,1,0,0:0:0:0:
416,224,3759,1,0,0:0:0:0:
448,224,3762,1,0,0:0:0:0:
480,224,3765,1,0,0:0:0:0:
480,256,3768,5,0,0:0:0:0:
448,256,3771,1,0,0:0:0:0:
416,256,3774,1,0,0:0:0:0:
384,256,3777,1,0,0:0:0:0:
352,256,3780,1,0,0:0:0:0:
320,256,3783,1,0,0:0:0:0:
288,256,3786,1,0,0:0:0:0:
256,256,3789,1,0,0:0:0:0:
224,256,3792,1,0,0:0:0:0:
192,256,3795,1,0,0:0:0:0:
160,256,3798,1,0,0:0:0:0:
128,256,3801,1,0,0:0:0:0:
96,256,3804,1,0,0:0:0:0:
64,256,3807,1,0,0:0:0:0:
32,256,3810,1,0,0:0:0:0:
32,288,3813,1,0,0:0:0:0:
64,288,3816,1,0,0:0:0:0:
96,288,3819,1,0,0:0:0:0:
128,288,3822,1,0,0:0:0:0:
160,288,3825,1,0,0:0:0:0:
192,288,3828,1,0,0:0:0:0:
224,288,3831,1,0,0:0:0:0:
256,288,3834,1,0,0:0:0:0:
288,288,3837,1,0,0:0:0:0:
320,288,3840,1,0,0:0:0:0:
352,288,3843,1,0,0:0:0:0:
384,288,3846,1,0,0:0:0:0:
416,288,3849,1,0,0:0:0:0:
448,288,3852,1,0,0:0:0:0:
480,288,3855,1,0,0:0:0:0:
480,320,3858,1,0,0:0:0:0:
448,320,3861,1,0,0:0:0:0:
416,320,3864,1,0,0:0:0:0:
384,320,3867,1,0,0:0:0:0:
352,320,3870,1,0,0:0:0:0:
320,320,3873,1,0,0:0:0:0:
288,320,3876,1,0,0:0:0:0:
256,320,3879,1,0,0:0:0:0:
224,320,3882,1,0,0:0:0:0:
192,320,3885,1,0,0:0:0:0:
160,320,3888,1,0,0:0:0:0:
128,320,3891,1,0,0:0:0:0:
96,320,3894,1,0,0:0:0:0:
64,320,3897,1,0,0:0:0:0:
32,320,3900,1,0,0:0:0:0:
32,352,3903,1,0,0:0:0:0:
64,352,3906,1,0,0:0:0:0:
96,352,3909,1,0,0:0:0:0:
128,352,3912,1,0,0:0:0:0:
160,352,3915,1,0,0:0:0:0:
192,352,3918,1,0,0:0:0:0:
224,352,3921,1,0,0:0:0:0:
256,352,3924,1,0,0:0:0:0:
288,352,3927,1,0,0:0:0:0:
320,352,3930,1,0,0:0:0:0:
352,352,3933,1,0,0:0:0:0:
384,352,3936,1,0,0:0:0:0:
416,352,3939,1,0,0:0:0:0:
448,352,3942,1,0,0:0:0:0:
32,32,3945,1,0,0:0:0:0:
64,32,3948,1,0,0:0:0:0:
96,32,3951,1,0,0:0:0:0:
128,32,3954,1,0,0:0:0:0:
160,32,3957,1,0,0:0:0:0:
192,32,3960,1,0,0:0:0:0:
224,32,3963,1,0,0:0:0:0:
256,32,3966,1,0,0:0:0:0:
288,32,3969,1,0,0:0:0:0:
320,32,3972,1,0,0:0:0:0:
352,32,3975,1,0,0:0:0:0:
384,32,3978,1,0,0:0:0:0:
416,32,3981,1,0,0:0:0:0:
448,32,3984,1,0,0:0:0:0:
480,32,3987,1,0,0:0:0:0:
480,64,3990,1,0,0:0:0:0:
448,64,3993,1,0,0:0:0:0:
416,64,3996,1,0,0:0:0:0:
384,64,3999,1,0,0:0:0:0:
352,64,4002,1,0,0:0:0:0:
320,64,4005,1,0,0:0:0:0:
288,64,4008,1,0,0:0:0:0:
256,64,4011,1,0,0:0:0:0:
224,64,4014,1,0,0:0:0:0:
192,64,4017,1,0,0:0:0:0:
160,64,4020,1,0,0:0:0:0:
128,64,4023,1,0,0:0:0:0:
96,64,4026,1,0,0:0:0:0:
64,64,4029,1,0,0:0:0:0:
32,64,4032,1,0,0:0:0:0:
32,96,4035,1,0,0:0:0:0:
64,96,4038,1,0,0:0:0:0:
96,96,4041,1,0,0:0:0:0:
128,96,4044,1,0,0:0:0:0:
160,96,4047,1,0,0:0:0:0:
192,96,4050,1,0,0:0:0:0:
224,96,4053,1,0,0:0:0:0:
256,96,4056,1,0,0:0:0:0:
288,96,4059,1,0,0:0:0:0:
320,96,4062,1,0,0:0:0:0:
352,96,4065,1,0,0:0:0:0:
384,96,4068,1,0,0:0:0:0:
416,96,4071,1,0,0:0:0:0:
448,96,4074,1,0,0:0:0:0:
480,96,4077,1,0,0:0:0:0:
480,128,4080,5,0,0:0:0:0:
448,128,4083,1,0,0:0:0:0:
416,128,4086,1,0,0:0:0:0:
384,128,4089,1,0,0:0:0:0:
352,128,4092,1,0,0:0:0:0:
320,128,4095,1,0,0:0:0:0:
288,128,4098,1,0,0:0:0:0:
256,128,4101,1,0,0:0:0:0:
224,128,4104,1,0,0:0:0:0:
192,128,4107,1,0,0:0:0:0:
160,128,4110,1,0,0:0:0:0:
128,128,4113,1,0,0:0:0:0:
96,128,4116,1,0,0:0:0:0:
64,128,4119,1,0,0:0:0:0:
32,128,4122,1,0,0:0:0:0:
32,160,4125,1,0,0:0:0:0:
64,160,4128,1,0,0:0:0:0:
96,160,4131,1,0,0:0:0:0:
128,160,4134,1,0,0:0:0:0:
160,160,4137,1,0,0:0:0:0:
192,160,4140,1,0,0:0:0:0:
224,160,4143,1,0,0:0:0:0:
256,160,4146,1,0,0:0:0:0:
288,160,4149,1,0,0:0:0:0:
320,160,4152,1,0,0:0:0:0:
352,160,4155,1,0,0:0:0:0:
384,160,4158,1,0,0:0:0:0:
416,160,4161,1,0,0:0:0:0:
448,160,4164,1,0,0:0:0:0:
480,160,4167,1,0,0:0:0:0:
480,192,4170,1,0,0:0:0:0:
448,192,4173,1,0,0:0:0:0:
416,192,4176,1,0,0:0:0:0:
384,192,4179,1,0,0:0:0:0:
352,192,4182,1,0,0:0:0:0:
320,192,4185,1,0,0:0:0:0:
288,192,4188,1,0,0:0:0:0:
256,192,4191,1,0,0:0:0:0:
224,192,4194,1,0,0:0:0:0:
192,192,4197,1,0,0:0:0:0:
160,192,4200,1,0,0:0:0:0:
128,192,4203,1,0,0:0:0:0:
96,192,4206,1,0,0:0:0:0:
64,192,4209,1,0,0:0:0:0:
32,192,4212,1,0,0:0:0:0:
32,224,4215,1,0,0:0:0:0:
64,224,4218,1,0,0:0:0:0:
96,224,4221,1,0,0:0:0:0:
128,224,4224,1,0,0:0:0:0:
160,224,4227,1,0,0:0:0:0:
192,224,4230,1,0,0:0:0:0:
224,224,4233,1,0,0:0:0:0:
256,224,4236,1,0,0:0:0:0:
288,224,4239,1,0,0:0:0:0:
320,224,4242,1,0,0:0:0:0:
352,224,4245,1,0,0:0:0:0:
384,224,4248,1,0,0:0:0:0:
416,224,4251,1,0,0:0:0:0:
448,224,4254,1,0,0:0:0:0:
480,224,4257,1,0,0:0:0:0:
480,256,4260,5,0,0:0:0:0:
448,256,4263,1,0,0:0:0:0:
416,256,4266,1,0,0:0:0:0:
384,256,4269,1,0,0:0:0:0:
352,256,4272,1,0,0:0:0:0:
320,256,4275,1,0,0:0:0:0:
288,256,4278,1,0,0:0:0:0:
256,256,4281,1,0,0:0:0:0:
224,256,4284,1,0,0:0:0:0:
192,256,4287,1,0,0:0:0:0:
160,256,4290,1,0,0:0:0:0:
128,256,4293,1,0,0:0:0:0:
96,256,4296,1,0,0:0:0:0:
64,256,4299,1,0,0:0:0:0:
32,256,4302,1,0,0:0:0:0:
32,288,4305,1,0,0:0:0:0:
64,288,4308,1,0,0:0:0:0:
96,288,4311,1,0,0:0:0:0:
128,288,4314,1,0,0:0:0:0:
160,288,4317,1,0,0:0:0:0:
192,288,4320,1,0,0:0:0:0:
224,288,4323,1,0,0:0:0:0:
256,288,4326,1,0,0:0:0:0:
288,288,4329,1,0,0:0:0:0:
320,288,4332,1,0,0:0:0:0:
352,288,4335,1,0,0:0:0:0:
384,288,4338,1,0,0:0:0:0:
416,288,4341,1,0,0:0:0:0:
448,288,4344,1,0,0:0:0:0:
480,288,4347,1,0,0:0:0:0:
480,320,4350,1,0,0:0:0:0:
448,320,4353,1,0,0:0:0:0:
416,320,4356,1,0,0:0:0:0:
384,320,4359,1,0,0:0:0:0:
352,320,4362,1,0,0:0:0:0:
320,320,4365,1,0,0:0:0:0:
288,320,4368,1,0,0:0:0:0:
256,320,4371,1,0,0:0:0:0:
224,320,4374,1,0,0:0:0:0:
192,320,4377,1,0,0:0:0:0:
160,320,4380,1,0,0:0:0:0:
128,320,4383,1,0,0:0:0:0:
96,320,4386,1,0,0:0:0:0:
64,320,4389,1,0,0:0:0:0:
32,320,4392,1,0,0:0:0:0:
32,352,4395,1,0,0:0:0:0:
64,352,4398,1,0,0:0:0:0:
96,352,4401,1,0,0:0:0:0:
128,352,4404,1,0,0:0:0:0:
160,352,4407,1,0,0:0:0:0:
192,352,4410,1,0,0:0:0:0:
224,352,4413,1,0,0:0:0:0:
256,352,4416,1,0,0:0:0:0:
288,352,4419,1,0,0:0:0:0:
320,352,4422,1,0,0:0:0:0:
352,352,4425,1,0,0:0:0:0:
384,352,4428,1,0,0:0:0:0:
416,352,4431,1,0,0:0:0:0:
448,352,4434,1,0,0:0:0:0:
480,352,4437,1,0,0:0:0:0:
256,192,4587,12,0,41097,0:0:0:0:
32,32,4608,6,0,L|467:65,487,420
32,32,5623,2,0,L|467:65,487,420
4,92,5626,2,0,L|439:125,487,420
27,102,7218,2,0,L|462:135,487,420
31,35,17313,2,0,B|31:381|103:308|89:125|97:106|258:68|368:231|243:278|232:278|358:318|467:270|494:116|345:47|205:46|174:330|217:314,633,840
