osu file format v14

[General]
AudioFilename: audio.mp3
AudioLeadIn: 0
PreviewTime: 63660
Countdown: 0
SampleSet: Soft
StackLeniency: 0.9
Mode: 0
LetterboxInBreaks: 0
WidescreenStoryboard: 0

[Editor]
DistanceSpacing: 1
BeatDivisor: 4
GridSize: 4
TimelineZoom: 1.5

[Metadata]
Title:Dream Trigger (TV Size)
TitleUnicode:ドリームトリガー (TV Size)
Artist:Pile
ArtistUnicode:Pile
Creator:Yudragen
Version:Roulette of Fate
Source:ワールドトリガー
Tags:world trigger chaoticred anime japanese opening 3 third jrock rock
BeatmapID:2397765
BeatmapSetID:1148455

[Difficulty]
HPDrainRate:6
CircleSize:4.1
OverallDifficulty:8
ApproachRate:9.3
SliderMultiplier:1.72
SliderTickRate:1

[Events]
//Background and Video events
0,0,"thumb-1920-812098.jpg",0,0
//Break Periods
//Storyboard Layer 0 (Background)
//Storyboard Layer 1 (Fail)
//Storyboard Layer 2 (Pass)
//Storyboard Layer 3 (Foreground)
//Storyboard Layer 4 (Overlay)
//Storyboard Sound Samples

[TimingPoints]
531,357.142857142857,4,2,1,55,1,0
531,-142.857142857143,4,2,1,55,0,0
8477,-142.857142857143,4,2,1,5,0,0
8566,-142.857142857143,4,2,1,55,0,0
12495,-55.5555555555556,4,2,1,90,0,0
12852,-55.5555555555556,4,2,1,5,0,0
12941,-55.5555555555556,4,2,1,90,0,0
13120,-55.5555555555556,4,2,1,5,0,0
13388,-80,4,2,1,80,0,0
19102,-100,4,2,1,70,0,0
23923,-66.6666666666667,4,2,1,85,0,0
24816,-100,4,2,1,70,0,0
27673,-66.6666666666667,4,2,1,85,0,0
30530,-100,4,2,1,70,0,0
35352,-66.6666666666667,4,2,1,85,0,0
36245,-100,4,2,1,70,0,0
39102,-66.6666666666667,4,2,1,85,0,0
41959,-100,4,2,1,70,0,0
51959,-80,4,2,1,80,0,0
53388,-166.666666666667,4,2,1,50,0,0
58388,-66.6666666666667,4,2,1,90,0,0
58566,-66.6666666666667,4,2,1,5,0,0
58655,-66.6666666666667,4,2,1,90,0,0
58834,-66.6666666666667,4,2,1,5,0,0
59102,-90.9090909090909,4,2,1,80,0,0
64816,-250,4,2,1,65,0,0
65709,-250,4,2,1,80,0,0
66245,-83.3333333333333,4,2,1,90,0,1
86245,-1000,4,2,1,90,0,0
86334,-1000,4,2,1,5,0,0

[Colours]
Combo1 : 231,197,63
Combo2 : 70,77,193
Combo3 : 213,49,90
Combo4 : 70,210,137

[HitObjects]
69,47,531,5,2,0:0:0:0:
69,47,709,2,0,P|82:98|95:177,1,120.399996325684,2|2,0:0|0:0,0:0:0:0:
201,304,1245,5,2,0:0:0:0:
150,249,1423,1,0,0:0:0:0:
221,219,1602,1,0,0:0:0:0:
284,345,1780,5,2,0:0:0:0:
344,300,1959,2,0,P|397:301|439:358,1,120.399996325684,2|0,0:0|0:0,0:0:0:0:
508,216,2495,5,2,0:0:0:0:
440,183,2673,2,0,P|385:201|363:209,2,60.1999981628419,2|0|0,0:0|0:0|0:0,0:0:0:0:
512,222,3209,1,2,0:0:0:0:
377,82,3388,6,0,B|306:97|337:134|264:154,1,120.399996325684,2|0,0:0|0:0,0:0:0:0:
215,96,3923,1,2,0:0:0:0:
128,205,4102,2,0,B|199:220|168:257|241:277,1,120.399996325684,2|0,0:0|0:0,0:0:0:0:
299,236,4638,1,2,0:0:0:0:
423,357,4816,5,2,0:0:0:0:
423,357,4995,1,0,0:0:0:0:
466,240,5173,2,0,P|493:303|495:322,1,60.1999981628419,2|0,0:0|0:0,0:0:0:0:
414,149,5530,2,0,P|387:212|385:231,1,60.1999981628419,2|0,0:0|0:0,0:0:0:0:
470,88,5888,1,2,0:0:0:0:
421,27,6066,1,2,0:0:0:0:
280,148,6245,5,2,0:0:0:0:
280,148,6423,2,0,P|237:126|204:119,1,60.1999981628419,2|0,0:0|0:0,0:0:0:0:
102,60,6780,2,0,P|127:103|150:187,1,120.399996325684,2|2,0:0|0:0,0:0:0:0:
147,170,7495,1,2,0:0:0:0:
42,268,7673,5,2,0:0:0:0:
109,306,7852,2,0,P|159:283|186:281,1,60.1999981628419,2|0,0:0|0:0,0:0:0:0:
305,279,8209,2,0,P|257:327|255:370,1,90.2999972442628,2|0,0:0|0:0,0:0:0:0:
261,354,8566,2,0,P|288:299|246:214,1,150.499995407105,2|0,0:0|0:0,0:0:0:0:
242,216,9102,5,2,0:0:0:0:
203,149,9280,2,0,P|214:125|220:70,1,60.1999981628419,2|0,0:0|0:0,0:0:0:0:
291,3,9638,2,0,P|301:57|325:134,2,120.399996325684,2|2|2,0:0|0:0|0:0,0:0:0:0:
394,172,10530,5,2,0:0:0:0:
450,121,10709,2,0,P|463:76|445:46,1,60.1999981628419,2|0,0:0|0:0,0:0:0:0:
505,228,11066,1,2,0:0:0:0:
512,221,11126,2,0,B|426:231|474:294|368:306,1,160.533328434245,2|0,0:0|0:0,0:0:0:0:
73,103,12495,5,4,3:0:0:0:
77,114,12554,1,4,3:0:0:0:
81,125,12614,1,4,3:0:0:0:
85,136,12673,2,0,B|116:224|116:224|57:275,1,154.799995275879,8|0,3:2|0:0,0:0:0:0:
22,331,12941,2,0,B|53:243|53:243|-6:192,1,154.799995275879,8|0,3:2|0:0,0:0:0:0:
184,375,13388,6,0,P|255:342|342:326,1,161.25,4|0,3:2|0:0,0:0:0:0:
346,335,13745,2,0,P|375:280|363:223,1,107.5,8|0,3:2|0:0,0:0:0:0:
262,166,14013,1,4,3:0:0:0:
262,166,14102,2,0,P|252:201|236:243,1,53.75,4|0,3:0|3:0,0:0:0:0:
408,105,14280,1,2,3:2:0:0:
292,0,14459,1,10,3:2:0:0:
152,61,14638,1,2,3:2:0:0:
152,61,14727,2,0,P|89:41|33:32,1,107.5,4|0,3:0|3:0,0:0:0:0:
33,38,14995,1,4,3:0:0:0:
154,156,15173,2,0,P|120:169|79:188,1,53.75,10|0,3:2|0:0,0:0:0:0:
0,256,15352,6,0,B|83:274|83:274|106:309|106:309|197:328,1,215,0|2,3:2|0:0,0:0:0:0:
257,380,15798,1,0,3:0:0:0:
257,380,15888,2,0,B|280:331|280:331|251:266,1,107.5,10|0,3:2|0:0,0:0:0:0:
364,209,16155,1,4,3:0:0:0:
364,209,16245,6,0,P|296:186|265:108,1,161.25,2|0,3:2|0:0,0:0:0:0:
278,93,16602,1,8,3:2:0:0:
487,268,16780,1,0,3:0:0:0:
487,268,16870,1,0,3:0:0:0:
487,268,16959,1,4,3:0:0:0:
487,268,17048,2,0,P|505:225|515:193,1,53.75,0|0,3:0|3:0,0:0:0:0:
376,335,17227,1,0,3:0:0:0:
376,335,17316,1,8,3:2:0:0:
376,335,17405,2,0,P|314:310|255:296,1,107.5,0|0,3:0|3:0,0:0:0:0:
260,309,17673,1,4,3:0:0:0:
79,153,17852,6,0,P|116:226|146:349,1,161.25,10|0,3:2|0:0,0:0:0:0:
130,316,18209,1,10,3:2:0:0:
259,210,18388,1,0,3:0:0:0:
259,210,18477,1,0,3:0:0:0:
259,210,18566,2,0,B|227:201|227:201|199:168,1,53.75,10|0,3:2|3:0,0:0:0:0:
144,66,18745,1,0,3:0:0:0:
175,83,18834,1,0,3:0:0:0:
212,86,18923,1,4,3:0:0:0:
247,73,19012,1,4,3:0:0:0:
273,45,19102,5,4,3:2:0:0:
389,182,19280,1,2,0:0:0:0:
489,16,19459,2,0,P|422:46|387:57,1,86,10|2,3:2|0:0,0:0:0:0:
472,117,19727,1,4,3:0:0:0:
472,117,19816,2,0,P|492:124|512:134,1,43,0|4,3:0|3:0,0:0:0:0:
378,189,19995,1,2,3:2:0:0:
504,282,20173,1,10,3:2:0:0:
379,354,20352,1,2,3:2:0:0:
379,354,20441,6,0,P|312:324|277:313,1,86,0|0,3:0|3:0,0:0:0:0:
281,329,20709,1,2,3:2:0:0:
393,204,20888,1,10,3:2:0:0:
235,134,21066,2,0,B|163:123|186:178|86:177,1,129,2|0,3:2|0:0,0:0:0:0:
100,168,21423,1,0,3:0:0:0:
278,56,21602,1,8,3:2:0:0:
130,277,21870,1,4,3:0:0:0:
130,277,21959,6,0,P|158:343|164:379,1,86,4|2,3:0|0:0,0:0:0:0:
224,221,22316,1,8,3:2:0:0:
44,81,22495,1,2,0:0:0:0:
44,81,22584,1,4,3:0:0:0:
44,81,22673,2,0,P|100:103|118:112,1,43,2|4,3:2|3:0,0:0:0:0:
202,0,22852,1,2,3:2:0:0:
323,122,23030,1,8,3:2:0:0:
208,210,23209,5,2,3:2:0:0:
204,197,23298,1,2,0:3:0:0:
200,184,23388,1,2,0:3:0:0:
196,171,23477,1,2,0:3:0:0:
191,157,23566,1,2,3:2:0:0:
321,260,23745,5,8,3:2:0:0:
311,277,23834,1,0,3:0:0:0:
300,294,23923,2,0,P|309:325|336:341,1,64.5000024604798,2|0,3:1|3:0,0:0:0:0:
445,232,24102,1,0,3:0:0:0:
435,215,24191,1,0,3:0:0:0:
424,198,24280,2,0,P|433:167|460:151,1,64.5000024604798,2|0,3:1|3:0,0:0:0:0:
480,39,24459,1,8,3:2:0:0:
435,36,24548,1,0,3:0:0:0:
396,57,24637,1,4,3:0:0:0:
359,84,24726,1,4,3:0:0:0:
315,92,24816,6,0,P|272:73|201:55,1,86,4|2,3:2|0:0,0:0:0:0:
111,142,25173,1,10,3:2:0:0:
250,247,25352,1,2,0:0:0:0:
250,247,25441,1,4,3:0:0:0:
250,247,25530,2,0,P|271:202|278:180,2,43,2|4|0,3:2|3:0|3:0,0:0:0:0:
133,332,25888,1,10,3:2:0:0:
0,247,26066,1,2,3:2:0:0:
0,247,26155,1,4,3:0:0:0:
0,247,26245,6,0,L|49:232,1,43,2|4,0:0|3:0,0:0:0:0:
138,345,26423,1,2,3:2:0:0:
198,145,26602,1,10,3:2:0:0:
343,256,26780,2,0,L|459:287,1,86,2|0,3:2|3:0,0:0:0:0:
512,107,27138,1,0,3:0:0:0:
503,116,27227,1,0,3:0:0:0:
495,126,27316,2,0,L|379:157,1,86,8|2,3:2|0:0,0:0:0:0:
233,23,27584,1,4,3:0:0:0:
249,12,27673,6,0,P|311:56|264:187,1,193.50000738144,6|0,3:2|0:0,0:0:0:0:
239,218,28030,2,0,B|215:191|215:191|184:186,1,64.5000024604798,10|0,3:2|3:0,0:0:0:0:
45,86,28209,1,2,3:2:0:0:
53,103,28298,1,0,3:0:0:0:
60,120,28388,2,0,B|71:153|71:153|60:183,1,64.5000024604798,2|4,3:2|3:0,0:0:0:0:
80,334,28566,2,0,B|95:302|95:302|124:289,1,64.5000024604798,2|4,0:0|3:0,0:0:0:0:
376,373,28745,1,10,3:2:0:0:
359,363,28834,2,0,P|289:343|224:326,1,129.00000492096,4|4,3:0|3:0,0:0:0:0:
218,336,29102,5,8,3:0:0:0:
408,269,29280,2,0,B|385:196|385:196|422:152|422:152|394:1,2,258.000009841919,10|10|10,3:2|3:2|3:2,0:0:0:0:
288,148,30173,1,0,3:0:0:0:
245,133,30262,1,0,3:0:0:0:
201,141,30351,1,0,3:0:0:0:
166,169,30440,1,0,3:0:0:0:
149,210,30530,5,4,3:2:0:0:
43,116,30709,1,2,0:0:0:0:
0,253,30888,2,0,P|19:306|30:354,1,86,10|2,3:2|0:0,0:0:0:0:
92,384,31155,1,4,3:0:0:0:
92,384,31245,2,0,P|144:361|157:358,1,43,2|4,3:2|3:0,0:0:0:0:
281,304,31423,1,2,3:2:0:0:
136,202,31602,1,10,3:2:0:0:
277,100,31780,1,2,3:2:0:0:
277,100,31870,6,0,P|311:162|314:179,1,86,4|4,3:0|3:0,0:0:0:0:
311,189,32138,1,0,3:0:0:0:
415,44,32316,1,10,3:2:0:0:
512,193,32495,2,0,P|476:335|478:346,1,129,0|0,3:0|0:0,0:0:0:0:
483,330,32852,1,0,3:0:0:0:
298,203,33030,1,8,3:2:0:0:
512,73,33298,1,4,3:0:0:0:
512,73,33388,6,0,P|456:60|401:41,1,86,0|2,3:2|0:0,0:0:0:0:
203,173,33745,2,0,P|147:186|92:205,1,86,10|2,3:2|0:0,0:0:0:0:
49,111,34013,1,4,3:0:0:0:
49,111,34102,2,0,P|94:124|115:132,1,43,2|4,3:2|3:0,0:0:0:0:
226,264,34280,1,2,3:2:0:0:
294,84,34459,1,10,3:2:0:0:
457,205,34638,5,2,3:2:0:0:
454,217,34727,1,2,0:3:0:0:
451,229,34816,1,2,0:3:0:0:
447,241,34905,1,2,0:3:0:0:
444,253,34995,1,2,3:2:0:0:
328,328,35173,5,10,3:2:0:0:
310,320,35263,1,0,3:0:0:0:
292,312,35352,2,0,B|243:293|243:293|136:368,1,129.00000492096,2|0,3:1|3:0,0:0:0:0:
23,251,35620,1,0,3:0:0:0:
40,259,35709,2,0,B|89:278|89:278|196:203,1,129.00000492096,2|4,3:1|3:0,0:0:0:0:
280,67,35977,1,0,3:0:0:0:
241,100,36066,1,4,3:0:0:0:
228,150,36155,1,4,3:0:0:0:
247,198,36244,5,4,3:2:0:0:
370,96,36423,1,2,0:0:0:0:
185,18,36602,2,0,P|99:40|63:46,1,86,10|0,3:2|0:0,0:0:0:0:
9,46,36870,1,4,3:0:0:0:
9,46,36959,2,0,P|36:81|45:110,1,43,2|4,3:2|3:0,0:0:0:0:
145,163,37138,1,2,3:2:0:0:
9,239,37316,1,10,3:2:0:0:
133,338,37495,1,2,3:2:0:0:
133,338,37584,1,4,3:0:0:0:
133,338,37673,6,0,P|144:319|159:304,1,43,2|4,0:0|3:0,0:0:0:0:
250,182,37852,2,0,P|260:200|275:215,1,43,2|0,3:2|3:0,0:0:0:0:
376,338,38030,1,10,3:2:0:0:
496,196,38209,2,0,P|445:180|373:151,1,129,2|0,3:2|0:0,0:0:0:0:
362,139,38566,1,2,3:2:0:0:
486,69,38745,1,8,3:2:0:0:
367,3,38923,1,2,0:0:0:0:
367,3,39013,1,4,3:0:0:0:
367,3,39102,6,0,B|271:2|304:92|151:103,1,193.50000738144,6|0,3:2|0:0,0:0:0:0:
128,72,39459,2,0,B|119:104|119:104|151:160,1,64.5000024604798,10|4,3:2|3:0,0:0:0:0:
251,184,39638,1,2,3:2:0:0:
256,201,39727,1,4,3:0:0:0:
260,219,39816,2,0,B|269:251|269:251|237:307,1,64.5000024604798,4|0,3:0|3:0,0:0:0:0:
161,352,39995,2,0,P|227:381|257:403,1,64.5000024604798,2|4,0:0|3:0,0:0:0:0:
143,239,40173,2,0,P|77:268|47:290,1,64.5000024604798,10|4,3:2|3:0,0:0:0:0:
27,355,40352,1,2,0:0:0:0:
27,355,40441,1,4,3:0:0:0:
27,355,40530,5,0,3:0:0:0:
146,143,40709,1,10,3:2:0:0:
342,312,40888,1,4,3:0:0:0:
359,303,40977,1,4,3:0:0:0:
377,297,41066,1,10,3:2:0:0:
208,366,41245,1,4,3:0:0:0:
191,357,41334,1,4,3:0:0:0:
173,351,41423,1,4,3:0:0:0:
335,211,41602,1,8,3:2:0:0:
130,128,41780,2,0,P|170:116|204:91,1,64.5000024604798,2|0,3:2|3:0,0:0:0:0:
176,3,41959,6,0,P|247:36|340:46,1,172,6|10,3:2|3:2,0:0:0:0:
458,130,42495,1,2,3:2:0:0:
458,130,42584,1,4,3:0:0:0:
458,130,42673,1,0,3:0:0:0:
326,197,42852,1,2,3:2:0:0:
490,337,43030,1,10,3:2:0:0:
469,234,43209,1,2,3:2:0:0:
469,234,43298,6,0,P|410:267|370:283,1,86,4|4,3:0|3:0,0:0:0:0:
387,285,43566,1,0,3:0:0:0:
236,164,43745,1,10,3:2:0:0:
191,333,43923,1,2,0:0:0:0:
191,333,44013,1,4,3:0:0:0:
191,333,44102,1,0,3:0:0:0:
335,210,44280,1,0,3:0:0:0:
149,125,44459,1,10,3:2:0:0:
14,255,44638,1,2,0:0:0:0:
14,255,44727,1,0,3:0:0:0:
14,255,44816,5,4,3:2:0:0:
88,298,44995,1,2,0:0:0:0:
158,241,45173,1,10,3:2:0:0:
84,193,45352,1,2,0:0:0:0:
84,193,45441,1,4,3:0:0:0:
84,193,45530,2,0,P|58:126|58:120,1,43,2|4,3:2|3:0,0:0:0:0:
247,55,45709,2,0,P|238:74|226:92,1,43,4|0,3:0|0:0,0:0:0:0:
83,13,45888,1,10,3:2:0:0:
246,243,46066,5,10,3:2:0:0:
329,205,46245,2,0,P|397:218|442:230,1,86,2|0,0:0|3:0,0:0:0:0:
512,21,46602,1,8,3:2:0:0:
512,21,46691,2,0,P|481:51|481:123,2,86,4|2|10,3:0|0:2|3:2,0:0:0:0:
335,118,47227,1,4,3:0:0:0:
335,118,47316,1,8,3:2:0:0:
510,241,47495,1,4,3:0:0:0:
510,241,47584,1,4,3:0:0:0:
510,241,47673,5,4,3:2:0:0:
400,368,47852,1,2,3:2:0:0:
257,263,48030,1,10,3:2:0:0:
227,257,48119,1,4,3:0:0:0:
198,262,48208,1,2,0:0:0:0:
172,278,48297,1,4,3:0:0:0:
154,302,48387,1,2,3:2:0:0:
28,207,48566,1,2,3:2:0:0:
166,127,48745,2,0,P|141:57|131:20,1,86,10|2,3:2|0:0,0:0:0:0:
243,3,49013,1,4,3:0:0:0:
243,3,49102,6,0,P|227:38|208:64,1,43,0|4,3:0|3:0,0:0:0:0:
57,116,49280,1,2,3:2:0:0:
204,233,49459,1,10,3:2:0:0:
204,233,49548,2,0,P|254:208|306:197,1,86,4|4,3:0|3:0,0:0:0:0:
349,234,49816,2,0,P|392:247|411:248,1,43,2|4,3:2|3:0,0:0:0:0:
461,218,49995,1,2,3:2:0:0:
308,106,50173,1,10,3:2:0:0:
465,24,50352,1,2,0:0:0:0:
419,121,50530,5,0,3:0:0:0:
290,11,50709,1,2,3:2:0:0:
176,121,50888,1,8,3:2:0:0:
176,121,50977,2,0,P|126:96|74:85,1,86,4|4,3:0|3:0,0:0:0:0:
79,93,51245,1,2,3:2:0:0:
227,203,51423,1,2,3:2:0:0:
77,275,51602,1,10,3:2:0:0:
225,380,51780,1,2,3:0:0:0:
225,380,51870,1,4,3:0:0:0:
225,380,51959,6,0,P|281:344|348:332,1,107.5,6|0,3:2|0:0,0:0:0:0:
394,373,52227,1,4,3:0:0:0:
394,373,52316,2,0,P|412:327|428:309,1,53.75,2|0,3:2|0:0,0:0:0:0:
512,163,52495,2,0,B|398:147|439:253|293:241,1,215,6|0,3:2|3:0,0:0:0:0:
250,208,52941,1,4,3:0:0:0:
250,208,53030,2,0,P|234:177|271:143,1,53.75,4|0,3:0|0:0,0:0:0:0:
409,59,53209,1,4,3:0:0:0:
415,73,53298,1,4,3:0:0:0:
420,87,53388,6,0,P|353:69|302:64,1,103.199996850586,2|0,0:0|0:0,0:0:0:0:
243,13,53923,1,2,0:0:0:0:
243,13,54102,2,0,P|194:35|154:45,1,77.3999976379395,2|0,0:0|0:0,0:0:0:0:
161,37,54459,2,0,P|121:26|97:23,1,51.599998425293,2|0,0:0|0:0,0:0:0:0:
0,88,54816,6,0,P|36:136|21:196,1,103.199996850586,2|0,0:0|0:0,0:0:0:0:
111,226,55352,1,2,0:0:0:0:
111,226,55530,2,0,P|75:274|90:334,1,103.199996850586,2|0,0:0|0:0,0:0:0:0:
231,181,56245,6,0,B|316:173|290:239|388:233,1,154.799995275879,2|2,0:0|0:0,0:0:0:0:
440,293,56959,2,0,P|458:243|463:225,1,51.599998425293,2|0,0:0|0:0,0:0:0:0:
505,177,57316,2,0,P|487:127|482:109,1,51.599998425293,2|0,0:0|0:0,0:0:0:0:
506,0,57673,6,0,P|476:22|394:44,1,103.199996850586,2|2,0:0|0:0,0:0:0:0:
108,38,58388,6,0,B|141:118|141:118|116:210,1,129.00000492096,10|0,3:2|0:0,0:0:0:0:
68,257,58655,2,0,B|35:177|35:177|46:136,1,129.00000492096,8|0,3:2|0:0,0:0:0:0:
269,307,59102,6,0,P|301:249|288:205,1,94.600002886963,6|2,3:2|0:0,0:0:0:0:
251,157,59370,1,4,3:0:0:0:
251,157,59459,2,0,P|232:113|233:86,1,47.3000014434815,10|0,3:2|0:0,0:0:0:0:
107,21,59638,2,0,B|173:45|173:45|251:11,1,141.900004330444,6|0,3:2|0:0,0:0:0:0:
326,43,59995,1,2,3:2:0:0:
326,43,60084,1,4,3:0:0:0:
326,43,60173,2,0,P|369:22|393:14,1,47.3000014434815,10|0,3:2|3:0,0:0:0:0:
433,228,60352,6,0,P|403:168|463:88,1,141.900004330444,6|0,3:2|0:0,0:0:0:0:
496,51,60709,2,0,P|517:118|518:133,1,47.3000014434815,2|0,3:2|0:0,0:0:0:0:
315,170,60888,2,0,P|294:237|293:252,1,47.3000014434815,10|0,3:2|0:0,0:0:0:0:
491,371,61066,2,0,P|428:339|329:324,1,141.900004330444,6|0,3:2|0:0,0:0:0:0:
288,359,61423,1,2,3:2:0:0:
288,359,61513,1,4,3:0:0:0:
288,359,61602,2,0,P|242:373|214:400,1,47.3000014434815,10|0,3:2|0:0,0:0:0:0:
76,165,61780,1,4,3:0:0:0:
98,174,61869,1,4,3:0:0:0:
119,183,61959,5,6,3:2:0:0:
306,151,62138,1,2,3:2:0:0:
79,80,62316,6,0,P|135:98|158:110,1,47.3000014434815,10|4,3:2|3:0,0:0:0:0:
349,236,62495,2,0,P|326:242|304:251,1,47.3000014434815,2|4,3:2|3:0,0:0:0:0:
97,273,62673,5,10,3:2:0:0:
143,274,62762,1,4,3:0:0:0:
185,253,62851,1,0,3:0:0:0:
210,214,62940,1,4,3:0:0:0:
213,167,63030,1,10,3:2:0:0:
217,120,63120,1,4,3:0:0:0:
242,81,63209,1,0,3:0:0:0:
284,60,63298,1,4,3:0:0:0:
331,62,63387,5,6,3:2:0:0:
119,183,63566,1,2,3:2:0:0:
334,339,63745,1,10,3:2:0:0:
334,339,63834,1,4,3:0:0:0:
334,339,63923,1,4,3:0:0:0:
443,282,64102,6,0,P|419:276|397:268,1,47.3000014434815,2|4,3:2|3:0,0:0:0:0:
340,219,64280,1,4,3:0:0:0:
334,204,64340,1,4,3:0:0:0:
328,189,64400,1,4,3:0:0:0:
322,174,64459,1,8,3:2:0:0:
407,109,64638,1,2,0:0:0:0:
316,46,64816,6,0,P|254:68|141:92,1,172,6|4,0:0|3:0,0:0:0:0:
150,90,65769,1,4,3:0:0:0:
61,164,65888,2,0,P|75:153|71:163,1,51.6,8|0,3:2|0:0,0:0:0:0:
11,232,66245,5,6,3:2:0:0:
207,340,66423,2,0,P|138:361|94:386,1,103.199996850586,2|8,0:0|3:2,0:0:0:0:
271,160,66780,1,2,0:0:0:0:
423,384,66959,1,2,3:2:0:0:
404,366,67048,1,4,3:0:0:0:
385,348,67138,2,0,P|398:293|413:238,1,103.199996850586,2|8,3:2|3:2,0:0:0:0:
252,164,67495,1,2,3:2:0:0:
414,5,67673,5,2,3:2:0:0:
495,192,67852,1,0,3:0:0:0:
253,63,68030,1,8,3:2:0:0:
169,202,68209,1,2,3:2:0:0:
181,224,68298,1,4,3:0:0:0:
193,247,68388,1,4,3:0:0:0:
14,79,68566,2,0,P|80:106|128:110,1,103.199996850586,2|8,3:2|3:2,0:0:0:0:
274,193,68923,1,2,0:0:0:0:
286,169,69013,1,4,3:0:0:0:
297,145,69102,6,0,L|280:96,1,51.599998425293,2|4,3:2|3:0,0:0:0:0:
91,284,69280,2,0,L|62:401,1,103.199996850586,2|8,3:2|3:2,0:0:0:0:
266,283,69638,2,0,B|356:267|335:337|434:327,1,154.799995275879,2|4,3:2|3:0,0:0:0:0:
471,366,69995,1,0,3:0:0:0:
486,345,70084,1,4,3:0:0:0:
500,323,70173,2,0,P|478:280|472:249,1,51.599998425293,8|0,3:2|3:0,0:0:0:0:
373,141,70352,1,4,3:0:0:0:
402,156,70441,1,4,3:0:0:0:
432,170,70530,5,6,3:2:0:0:
298,32,70709,2,0,P|258:80|274:160,1,103.199996850586,2|8,0:0|3:2,0:0:0:0:
70,27,71066,1,2,3:2:0:0:
95,18,71155,1,4,3:0:0:0:
119,6,71245,1,4,3:0:0:0:
42,178,71423,2,0,P|82:226|66:306,1,103.199996850586,2|8,3:2|3:2,0:0:0:0:
215,384,71780,2,0,P|235:325|251:297,1,51.599998425293,2|4,3:2|3:0,0:0:0:0:
318,233,71959,5,2,3:2:0:0:
441,357,72138,1,2,3:2:0:0:
214,230,72316,1,10,3:2:0:0:
421,122,72495,1,2,3:2:0:0:
310,368,72673,1,2,3:2:0:0:
333,356,72763,1,4,3:0:0:0:
357,347,72852,1,0,3:0:0:0:
167,108,73030,1,8,3:2:0:0:
411,267,73209,1,2,3:2:0:0:
362,21,73388,6,0,P|334:87|300:231,1,206.399993701172,2|8,3:2|3:2,0:0:0:0:
209,29,73923,1,2,0:0:0:0:
233,19,74013,1,4,3:0:0:0:
256,7,74102,1,2,3:2:0:0:
114,213,74280,1,0,3:0:0:0:
0,27,74459,1,8,3:2:0:0:
285,212,74638,5,6,3:2:0:0:
158,298,74816,1,2,3:2:0:0:
295,369,74995,1,2,3:2:0:0:
213,122,75173,5,10,3:2:0:0:
74,382,75352,1,2,3:2:0:0:
83,358,75441,2,0,P|55:287|45:268,1,51.599998425293,4|4,3:0|3:0,0:0:0:0:
0,267,75620,1,4,3:0:0:0:
180,384,75798,1,4,3:0:0:0:
204,374,75888,1,8,3:2:0:0:
369,296,76066,1,4,3:0:0:0:
399,306,76155,1,4,3:0:0:0:
430,317,76245,5,6,3:2:0:0:
231,100,76423,2,0,P|260:199|268:246,1,103.199996850586,2|8,0:0|3:2,0:0:0:0:
360,28,76780,2,0,P|314:50|293:58,1,51.599998425293,2|4,3:2|3:0,0:0:0:0:
147,177,76959,1,2,3:2:0:0:
354,275,77138,2,0,P|366:224|383:176,1,103.199996850586,2|8,3:2|3:2,0:0:0:0:
446,373,77495,1,2,3:2:0:0:
469,362,77584,1,4,3:0:0:0:
493,353,77673,5,2,3:2:0:0:
237,293,77852,2,0,P|172:309|131:329,1,103.199996850586,2|8,3:2|3:2,0:0:0:0:
368,165,78209,1,2,3:2:0:0:
137,65,78388,1,2,3:2:0:0:
121,85,78477,2,0,B|96:133|96:133|123:193,1,103.199996850586,4|0,3:0|0:0,0:0:0:0:
125,192,78745,1,8,3:2:0:0:
273,0,78923,1,0,3:0:0:0:
381,192,79102,5,2,3:2:0:0:
512,32,79280,2,0,P|455:47|411:119,1,103.199996850586,2|8,0:0|3:2,0:0:0:0:
464,247,79638,1,2,3:2:0:0:
486,235,79727,1,4,3:0:0:0:
509,224,79816,1,2,3:2:0:0:
326,310,79995,2,0,P|269:294|225:222,1,103.199996850586,2|8,3:2|3:2,0:0:0:0:
130,118,80352,2,0,P|160:184|161:199,1,51.599998425293,2|4,3:2|3:0,0:0:0:0:
22,384,80530,5,2,3:2:0:0:
41,367,80620,2,0,P|62:282|69:252,1,103.199996850586,4|4,3:0|3:0,0:0:0:0:
36,200,80888,1,8,3:2:0:0:
328,107,81066,2,0,P|340:157|352:207,1,103.199996850586,2|0,3:2|0:0,0:0:0:0:
306,269,81334,1,4,3:0:0:0:
294,291,81423,1,2,3:2:0:0:
426,140,81602,1,8,3:2:0:0:
512,317,81780,1,4,3:0:0:0:
480,329,81869,1,4,3:0:0:0:
449,342,81959,5,10,3:2:0:0:
317,94,82138,1,0,3:0:0:0:
273,382,82316,5,10,3:2:0:0:
401,42,82495,1,2,3:2:0:0:
370,384,82673,5,10,3:2:0:0:
230,55,82852,1,0,3:0:0:0:
153,363,83030,5,8,3:2:0:0:
376,203,83209,1,2,3:2:0:0:
356,219,83298,1,4,3:0:0:0:
337,237,83388,6,0,P|296:222|265:211,1,51.599998425293,10|4,3:2|3:0,0:0:0:0:
102,74,83566,1,0,3:0:0:0:
121,90,83655,1,4,3:0:0:0:
142,105,83745,2,0,P|183:90|246:67,1,103.199996850586,10|0,3:2|0:0,0:0:0:0:
311,107,84013,1,4,3:0:0:0:
334,118,84102,1,8,3:2:0:0:
64,221,84280,1,4,3:0:0:0:
40,210,84370,1,4,3:0:0:0:
16,199,84459,1,10,3:2:0:0:
274,369,84638,1,2,3:0:0:0:
128,87,84816,5,10,3:2:0:0:
28,356,84995,1,8,3:2:0:0:
279,184,85173,5,8,3:2:0:0:
255,173,85263,1,4,3:0:0:0:
230,163,85352,1,4,3:0:0:0:
379,384,85530,6,0,P|395:345|410:317,1,51.599998425293,8|4,3:2|3:0,0:0:0:0:
501,153,85709,1,4,3:0:0:0:
292,324,85888,6,0,P|282:300|271:276,1,51.599998425293,8|4,3:2|3:0,0:0:0:0:
137,96,86066,1,4,3:0:0:0:
447,48,86245,6,0,P|430:73|415:130,1,90.3,6|0,3:2|0:0,0:0:0:0:
