osu file format v14

[General]
AudioFilename: audio.mp3
AudioLeadIn: 0
PreviewTime: 63660
Countdown: 0
SampleSet: Soft
StackLeniency: 0.9
Mode: 0
LetterboxInBreaks: 0
WidescreenStoryboard: 1

[Editor]
DistanceSpacing: 1
BeatDivisor: 4
GridSize: 4
TimelineZoom: 1.5

[Metadata]
Title:Dream Trigger (TV Size)
TitleUnicode:ドリームトリガー (TV Size)
Artist:Pile
ArtistUnicode:Pile
Creator:Yudragen
Version:Hard
Source:ワールドトリガー
Tags:world trigger chaoticred anime japanese opening 3 third jrock rock
BeatmapID:2397762
BeatmapSetID:1148455

[Difficulty]
HPDrainRate:4.5
CircleSize:3.5
OverallDifficulty:5.5
ApproachRate:7.5
SliderMultiplier:1.52
SliderTickRate:1

[Events]
//Background and Video events
0,0,"thumb-1920-812098.jpg",0,0
//Break Periods
//Storyboard Layer 0 (Background)
//Storyboard Layer 1 (Fail)
//Storyboard Layer 2 (Pass)
//Storyboard Layer 3 (Foreground)
//Storyboard Layer 4 (Overlay)
//Storyboard Sound Samples

[TimingPoints]
531,357.142857142857,4,2,1,55,1,0
531,-142.857142857143,4,2,1,55,0,0
12495,-142.857142857143,4,2,1,90,0,0
12673,-83.3333333333333,4,2,1,90,0,0
13388,-100,4,2,1,80,0,0
19102,-117.647058823529,4,2,1,70,0,0
23923,-117.647058823529,4,2,1,85,0,0
24816,-117.647058823529,4,2,1,70,0,0
27673,-117.647058823529,4,2,1,85,0,0
30530,-117.647058823529,4,2,1,70,0,0
35352,-117.647058823529,4,2,1,85,0,0
36245,-117.647058823529,4,2,1,70,0,0
39102,-117.647058823529,4,2,1,85,0,0
41959,-117.647058823529,4,2,1,70,0,0
51959,-117.647058823529,4,2,1,80,0,0
53388,-166.666666666667,4,2,1,50,0,0
58388,-90.9090909090909,4,2,1,90,0,0
59102,-105.263157894737,4,2,1,80,0,0
64816,-105.263157894737,4,2,1,65,0,0
65709,-105.263157894737,4,2,1,80,0,0
66245,-90.9090909090909,4,2,1,90,0,1
86245,-90.9090909090909,4,2,1,90,0,0

[Colours]
Combo1 : 231,197,63
Combo2 : 70,77,193
Combo3 : 213,49,90
Combo4 : 70,210,137

[HitObjects]
202,69,531,6,0,P|144:85|87:111,1,106.39999675293,2|0,0:0|0:0,0:0:0:0:
24,146,1066,1,2,0:0:0:0:
100,196,1245,2,0,P|158:212|215:238,1,106.39999675293,2|0,0:0|0:0,0:0:0:0:
265,183,1780,1,2,0:0:0:0:
329,272,1959,6,0,P|313:313|309:346,2,53.1999983764649,2|0|0,0:0|0:0|0:0,0:0:0:0:
395,224,2495,1,2,0:0:0:0:
395,224,2673,2,0,P|376:161|373:99,1,106.39999675293,2|0,0:0|0:0,0:0:0:0:
502,0,3388,6,0,P|466:24|384:22,1,106.39999675293,2|0,0:0|0:0,0:0:0:0:
328,49,3923,1,2,0:0:0:0:
231,4,4102,2,0,P|178:5|133:32,1,106.39999675293,2|0,0:0|0:0,0:0:0:0:
56,51,4638,1,2,0:0:0:0:
139,133,4816,6,0,P|151:172|154:205,1,53.1999983764649,2|0,0:0|0:0,0:0:0:0:
105,250,5173,2,0,P|69:230|-8:207,2,106.39999675293,2|2|2,0:0|0:0|0:0,0:0:0:0:
145,316,6066,1,2,0:0:0:0:
218,278,6245,5,2,0:0:0:0:
218,278,6423,2,0,P|270:290|288:296,1,53.1999983764649,2|0,0:0|0:0,0:0:0:0:
337,339,6780,1,2,0:0:0:0:
445,231,7138,2,0,P|431:185|426:119,1,106.39999675293,2|2,0:0|0:0,0:0:0:0:
482,62,7673,5,2,0:0:0:0:
482,62,7852,2,0,P|449:50|412:34,1,53.1999983764649,2|0,0:0|0:0,0:0:0:0:
362,4,8209,2,0,B|302:13|326:39|265:54,1,106.39999675293,2|2,0:0|0:0,0:0:0:0:
46,31,9102,5,2,0:0:0:0:
46,31,9280,2,0,P|66:66|71:87,1,53.1999983764649,2|0,0:0|0:0,0:0:0:0:
137,125,9638,2,0,P|107:173|93:245,1,106.39999675293,2|2,0:0|0:0,0:0:0:0:
21,316,10352,1,2,0:0:0:0:
79,371,10530,5,2,0:0:0:0:
79,371,10709,2,0,P|131:353|152:349,1,53.1999983764649,2|0,0:0|0:0,0:0:0:0:
185,302,11066,2,0,P|227:327|348:347,1,159.599995129395,2|0,0:0|0:0,0:0:0:0:
466,166,12495,6,0,L|474:140,2,17.733332792155,4|4|4,3:0|3:0|3:0,0:0:0:0:
474,175,12673,2,0,P|481:221|498:328,1,136.799995825195,8|8,3:2|3:2,0:0:0:0:
325,258,13388,6,0,B|251:247|268:304|178:301,1,152,4|8,3:2|3:2,0:0:0:0:
122,350,13923,1,0,0:0:0:0:
122,350,14102,2,0,P|101:302|98:269,1,76,4|2,3:0|3:2,0:0:0:0:
145,213,14459,1,10,3:2:0:0:
90,157,14638,2,0,P|111:109|114:76,1,76,2|0,3:2|0:0,0:0:0:0:
170,29,14995,5,4,3:0:0:0:
230,86,15173,1,10,3:2:0:0:
230,86,15352,2,0,P|273:71|385:57,1,152,0|2,3:2|0:0,0:0:0:0:
448,97,15888,1,10,3:2:0:0:
386,152,16066,1,0,0:0:0:0:
386,152,16155,1,4,3:0:0:0:
386,152,16245,6,0,P|352:189|383:306,1,152,2|8,3:2|3:2,0:0:0:0:
466,355,16780,1,0,3:0:0:0:
466,355,16959,2,0,P|482:283|440:222,1,152,4|8,3:0|3:2,0:0:0:0:
285,353,17673,5,4,3:0:0:0:
285,353,17852,2,0,P|230:332|197:319,1,76,10|0,3:2|0:0,0:0:0:0:
165,260,18209,2,0,P|220:239|253:226,1,76,10|0,3:2|3:0,0:0:0:0:
293,173,18566,1,10,3:2:0:0:
293,173,18655,1,0,3:0:0:0:
293,173,18745,2,0,P|273:137|274:122,3,38,0|0|4|4,3:0|3:0|3:0|3:0,0:0:0:0:
290,125,19102,5,4,3:2:0:0:
290,125,19459,2,0,P|325:103|373:104,1,64.6000012321472,10|2,3:2|0:0,0:0:0:0:
436,86,19816,1,0,3:0:0:0:
436,86,19995,1,2,3:2:0:0:
405,166,20173,2,0,P|440:188|488:187,1,64.6000012321472,10|2,3:2|3:2,0:0:0:0:
509,260,20530,6,0,P|494:291|471:401,1,129.200002464294,2|10,0:2|3:2,0:0:0:0:
397,303,21066,2,0,B|328:301|362:348|251:350,1,129.200002464294,2|0,3:2|3:0,0:0:0:0:
208,381,21602,1,8,3:2:0:0:
80,266,21959,5,4,3:0:0:0:
129,204,22138,2,0,P|110:156|103:69,1,129.200002464294,2|2,0:0|0:0,0:0:0:0:
151,18,22673,1,2,3:2:0:0:
151,18,22852,2,0,P|205:35|240:45,1,64.6000012321472,2|8,3:2|3:2,0:0:0:0:
271,94,23209,6,0,P|315:68|401:53,1,129.200002464294,2|2,3:2|3:2,0:0:0:0:
465,89,23745,1,8,3:2:0:0:
405,146,23923,1,2,3:1:0:0:
512,262,24280,2,0,L|471:287,3,32.3000006160736,2|0|8|0,3:1|3:0|3:2|3:0,0:0:0:0:
478,309,24638,1,4,3:0:0:0:
478,309,24727,1,4,3:0:0:0:
478,309,24816,6,0,P|419:280|330:271,1,129.200002464294,4|10,3:2|3:2,0:0:0:0:
281,319,25352,1,2,0:0:0:0:
281,319,25530,2,0,P|238:334|201:338,1,64.6000012321472,2|0,3:2|3:0,0:0:0:0:
146,302,25888,1,10,3:2:0:0:
204,240,26066,1,2,3:2:0:0:
111,215,26245,6,0,P|94:172|90:152,1,64.6000012321472,2|2,0:0|3:2,0:0:0:0:
133,85,26602,1,10,3:2:0:0:
201,133,26780,2,0,P|244:108|328:84,1,129.200002464294,2|0,3:2|3:0,0:0:0:0:
457,165,27495,1,2,0:0:0:0:
402,227,27673,6,0,P|419:275|424:297,1,64.6000012321472,6|2,3:2|0:0,0:0:0:0:
334,303,28030,2,0,P|322:333|313:364,1,64.6000012321472,10|2,3:2|3:2,0:0:0:0:
217,243,28388,2,0,P|228:273|237:304,1,64.6000012321472,2|2,3:2|0:0,0:0:0:0:
185,365,28745,1,10,3:2:0:0:
118,322,28923,2,0,P|75:338|35:357,1,64.6000012321472,2|8,0:0|3:0,0:0:0:0:
2,286,29280,2,0,P|25:237|47:142,2,129.200002464294,10|10|10,3:2|3:2|3:2,0:0:0:0:
141,247,30352,1,0,3:0:0:0:
141,247,30441,1,0,3:0:0:0:
141,247,30530,6,0,P|183:232|211:229,1,64.6000012321472,4|2,3:2|0:0,0:0:0:0:
261,284,30888,2,0,P|303:299|331:302,1,64.6000012321472,10|2,3:2|0:0,0:0:0:0:
395,265,31245,2,0,P|417:303|422:334,2,64.6000012321472,2|2|10,3:2|3:2|3:2,0:0:0:0:
336,210,31780,1,2,3:2:0:0:
399,156,31959,6,0,P|426:105|395:13,1,129.200002464294,2|10,0:0|3:2,0:0:0:0:
341,71,32495,1,0,3:0:0:0:
280,20,32673,2,0,P|239:40|137:64,1,129.200002464294,2|8,0:0|3:2,0:0:0:0:
43,239,33388,5,0,3:2:0:0:
112,287,33566,1,2,0:0:0:0:
112,287,33745,2,0,P|151:271|188:264,1,64.6000012321472,10|2,3:2|0:0,0:0:0:0:
243,222,34102,2,0,P|251:254|264:283,1,64.6000012321472,2|2,3:2|3:2,0:0:0:0:
330,337,34459,1,10,3:2:0:0:
330,337,34638,1,2,3:2:0:0:
389,277,34816,6,0,P|401:248|410:217,1,64.6000012321472,2|2,0:2|3:2,0:0:0:0:
481,179,35173,1,10,3:2:0:0:
434,113,35352,2,0,P|396:126|303:142,1,129.200002464294,2|2,3:1|3:1,0:0:0:0:
171,34,36066,1,4,3:0:0:0:
171,34,36155,1,4,3:0:0:0:
171,34,36245,6,0,P|145:78|133:116,1,64.6000012321472,4|2,3:2|0:0,0:0:0:0:
75,136,36602,2,0,P|97:187|106:270,1,129.200002464294,10|2,3:2|3:2,0:0:0:0:
58,327,37138,1,2,3:2:0:0:
126,370,37316,2,0,P|170:354|197:351,1,64.6000012321472,10|2,3:2|3:2,0:0:0:0:
245,279,37673,5,2,0:0:0:0:
245,279,37852,1,2,3:2:0:0:
304,341,38030,1,10,3:2:0:0:
364,285,38209,2,0,P|341:227|329:134,2,129.200002464294,2|2|2,3:2|3:2|0:0,0:0:0:0:
441,243,39102,6,0,P|457:212|471:168,1,64.6000012321472,6|2,3:2|0:0,0:0:0:0:
512,116,39459,2,0,P|496:85|482:41,1,64.6000012321472,10|2,3:2|3:2,0:0:0:0:
420,14,39816,1,4,3:0:0:0:
420,14,39995,1,2,0:0:0:0:
352,61,40173,1,10,3:2:0:0:
284,23,40352,2,0,P|240:39|194:48,1,64.6000012321472,2|0,0:0|3:0,0:0:0:0:
146,17,40709,5,10,3:2:0:0:
80,78,40888,1,4,3:0:0:0:
80,78,40977,1,4,3:0:0:0:
80,78,41066,2,0,P|72:136|49:228,1,129.200002464294,10|4,3:2|3:0,0:0:0:0:
97,274,41602,1,8,3:2:0:0:
155,216,41780,1,2,3:2:0:0:
226,161,41959,6,0,P|279:178|306:185,1,64.6000012321472,6|2,3:2|0:0,0:0:0:0:
333,112,42316,1,10,3:2:0:0:
411,137,42495,2,0,P|448:165|457:255,1,129.200002464294,2|2,3:2|3:2,0:0:0:0:
499,315,43030,1,10,3:2:0:0:
499,315,43209,1,2,3:2:0:0:
429,358,43388,6,0,P|395:337|299:321,1,129.200002464294,2|10,0:0|3:2,0:0:0:0:
249,268,43923,2,0,P|264:227|267:195,2,64.6000012321472,2|0|0,0:0|3:0|3:0,0:0:0:0:
181,307,44459,1,10,3:2:0:0:
120,249,44638,1,2,0:0:0:0:
120,249,44816,6,0,P|85:259|42:280,1,64.6000012321472,4|2,3:2|0:0,0:0:0:0:
0,215,45173,2,0,P|12:185|21:154,1,64.6000012321472,10|2,3:2|0:0,0:0:0:0:
74,94,45530,2,0,P|135:116|216:130,1,129.200002464294,2|10,3:2|3:2,0:0:0:0:
262,80,46066,1,10,3:2:0:0:
323,136,46245,6,0,B|400:117|379:176|471:165,1,129.200002464294,2|8,0:0|3:2,0:0:0:0:
506,213,46780,1,2,0:0:0:0:
468,282,46959,2,0,B|391:263|412:322|320:311,1,129.200002464294,2|8,3:2|3:2,0:0:0:0:
289,367,47495,1,4,3:0:0:0:
289,367,47584,1,4,3:0:0:0:
289,367,47673,5,4,3:2:0:0:
218,309,47852,1,2,3:2:0:0:
218,309,48030,2,0,P|181:322|143:332,1,64.6000012321472,10|2,3:2|0:0,0:0:0:0:
130,251,48388,2,0,P|93:238|55:228,1,64.6000012321472,2|2,3:2|3:2,0:0:0:0:
18,166,48745,1,10,3:2:0:0:
77,113,48923,1,2,0:0:0:0:
77,113,49102,6,0,P|122:94|145:88,1,64.6000012321472,0|2,3:0|3:2,0:0:0:0:
209,130,49459,2,0,P|254:149|277:155,1,64.6000012321472,10|2,3:2|0:0,0:0:0:0:
341,114,49816,1,2,3:2:0:0:
341,114,49995,1,2,3:2:0:0:
364,188,50173,2,0,P|420:170|435:164,1,64.6000012321472,10|2,3:2|0:0,0:0:0:0:
500,138,50530,5,0,3:0:0:0:
512,217,50709,2,0,P|488:259|467:355,1,129.200002464294,2|2,3:2|0:0,0:0:0:0:
394,371,51245,2,0,P|362:356|325:343,1,64.6000012321472,2|2,3:2|3:2,0:0:0:0:
276,287,51602,1,10,3:2:0:0:
220,347,51780,1,2,3:0:0:0:
220,347,51870,1,4,3:0:0:0:
220,347,51959,6,0,P|173:326|73:305,1,129.200002464294,6|2,3:2|3:2,0:0:0:0:
46,240,52495,2,0,P|108:225|168:200,1,129.200002464294,6|0,3:2|3:0,0:0:0:0:
227,143,53030,2,0,P|238:107|243:68,1,64.6000012321472,4|4,3:0|3:0,0:0:0:0:
304,28,53388,6,0,P|353:53|448:85,1,136.799995825195,2|2,0:0|0:0,0:0:0:0:
503,138,54102,2,0,P|460:156|419:190,1,91.199997216797,2|2,0:0|0:0,0:0:0:0:
270,225,54816,6,0,P|327:251|353:330,1,136.799995825195,2|2,0:0|0:0,0:0:0:0:
303,379,55530,2,0,P|275:360|203:343,1,91.199997216797,2|0,0:0|0:0,0:0:0:0:
20,215,56245,6,0,B|95:199|76:257|157:243,1,136.799995825195,2|2,0:0|0:0,0:0:0:0:
207,191,56959,2,0,P|215:159|218:141,1,45.5999986083985,2|0,0:0|0:0,0:0:0:0:
149,108,57316,2,0,P|141:76|138:58,1,45.5999986083985,2|0,0:0|0:0,0:0:0:0:
192,7,57673,5,2,0:0:0:0:
314,92,58030,1,2,0:0:0:0:
421,6,58388,2,0,P|450:47|437:134,1,125.400003826904,10|8,3:2|3:2,0:0:0:0:
502,237,59102,6,0,P|464:250|432:275,1,72.1999980720521,6|2,3:2|0:0,0:0:0:0:
398,337,59459,1,10,3:2:0:0:
328,297,59638,2,0,P|262:293|192:361,1,144.399996144104,6|2,3:2|3:2,0:0:0:0:
129,370,60173,1,10,3:2:0:0:
71,315,60352,6,0,P|102:215|105:142,1,144.399996144104,6|2,3:2|3:2,0:0:0:0:
57,115,60888,1,10,3:2:0:0:
116,62,61066,2,0,P|178:78|267:102,1,144.399996144104,6|2,3:2|3:2,0:0:0:0:
310,162,61602,1,10,3:2:0:0:
373,111,61780,1,4,3:0:0:0:
444,152,61959,6,0,P|458:200|460:232,1,72.1999980720521,6|2,3:2|3:2,0:0:0:0:
495,297,62316,2,0,P|460:333|433:350,1,72.1999980720521,10|2,3:2|3:2,0:0:0:0:
371,384,62673,2,0,P|322:372|293:357,1,72.1999980720521,10|0,3:2|3:0,0:0:0:0:
229,339,63030,2,0,P|214:291|213:258,1,72.1999980720521,10|0,3:2|3:0,0:0:0:0:
256,202,63388,5,6,3:2:0:0:
256,202,63566,1,2,3:2:0:0:
185,154,63745,2,0,P|123:176|36:195,2,144.399996144104,10|2|8,3:2|3:2|3:2,0:0:0:0:
232,88,64638,1,2,0:0:0:0:
308,119,64816,5,6,0:0:0:0:
308,119,65709,6,0,L|383:88,1,72.1999980720521,4|8,3:0|3:2,0:0:0:0:
125,16,66245,5,6,3:2:0:0:
74,77,66423,2,0,P|50:123|43:163,1,83.6000025512696,2|8,0:0|3:2,0:0:0:0:
96,216,66780,1,2,0:0:0:0:
96,216,66959,1,2,3:2:0:0:
40,274,67138,2,0,P|77:297|214:253,1,167.200005102539,2|2,3:2|3:2,0:0:0:0:
299,185,67673,5,2,3:2:0:0:
321,269,67852,2,0,P|303:330|298:360,1,83.6000025512696,0|8,3:0|3:2,0:0:0:0:
371,384,68209,2,0,P|411:375|451:362,1,83.6000025512696,2|4,3:2|3:0,0:0:0:0:
498,296,68566,2,0,P|471:248|509:140,1,167.200005102539,2|2,3:2|0:0,0:0:0:0:
463,4,69102,5,2,3:2:0:0:
389,40,69280,2,0,P|333:15|300:3,1,83.6000025512696,2|8,3:2|3:2,0:0:0:0:
309,91,69638,2,0,P|248:109|146:154,1,167.200005102539,2|2,3:2|3:2,0:0:0:0:
92,85,70173,1,8,3:2:0:0:
0,354,70530,5,6,3:2:0:0:
51,290,70709,2,0,P|102:269|163:255,1,83.6000025512696,2|8,0:0|3:2,0:0:0:0:
226,252,71066,1,2,3:2:0:0:
276,316,71245,1,4,3:0:0:0:
341,268,71423,2,0,P|392:289|453:303,1,83.6000025512696,2|8,3:2|3:2,0:0:0:0:
500,293,71780,1,2,3:2:0:0:
432,200,71959,6,0,P|407:160|406:120,1,83.6000025512696,2|2,3:2|3:2,0:0:0:0:
462,65,72316,1,10,3:2:0:0:
462,65,72495,1,2,3:2:0:0:
386,22,72673,2,0,P|330:44|261:58,2,125.400003826904,2|2|2,3:2|3:2|3:2,0:0:0:0:
462,65,73388,6,0,P|508:123|503:248,1,167.200005102539,2|8,3:2|3:2,0:0:0:0:
437,214,73923,1,2,0:0:0:0:
389,280,74102,2,0,B|296:261|325:337|235:330,1,167.200005102539,2|8,3:2|3:2,0:0:0:0:
160,214,74638,5,6,3:2:0:0:
160,214,74816,1,2,3:2:0:0:
97,287,74995,1,2,3:2:0:0:
9,255,75173,1,10,3:2:0:0:
73,194,75352,2,0,P|47:134|40:21,1,167.200005102539,2|0,3:2|0:0,0:0:0:0:
331,24,76066,1,4,3:0:0:0:
331,24,76155,1,4,3:0:0:0:
331,24,76245,5,6,3:2:0:0:
262,74,76423,2,0,P|241:120|234:163,1,83.6000025512696,2|8,0:0|3:2,0:0:0:0:
289,216,76780,1,2,3:2:0:0:
289,216,76959,1,2,3:2:0:0:
350,163,77138,2,0,P|368:200|377:241,1,83.6000025512696,2|8,3:2|3:2,0:0:0:0:
451,279,77495,1,2,3:2:0:0:
381,374,77673,5,2,3:2:0:0:
303,332,77852,2,0,P|261:347|218:362,1,83.6000025512696,2|8,3:2|3:2,0:0:0:0:
170,290,78209,1,2,3:2:0:0:
170,290,78388,1,2,3:2:0:0:
106,343,78566,2,0,P|67:288|59:176,1,167.200005102539,0|0,3:0|3:0,0:0:0:0:
77,49,79102,5,2,3:2:0:0:
142,98,79280,2,0,P|179:76|223:60,1,83.6000025512696,2|8,0:0|3:2,0:0:0:0:
301,83,79638,1,2,3:2:0:0:
301,83,79816,1,2,3:2:0:0:
375,99,79995,2,0,P|406:172|361:238,1,167.200005102539,2|2,3:2|3:2,0:0:0:0:
321,339,80530,5,2,3:2:0:0:
250,291,80709,2,0,P|194:277|162:272,1,83.6000025512696,2|8,0:0|3:2,0:0:0:0:
98,240,81066,2,0,P|135:166|137:67,1,167.200005102539,2|2,3:2|3:2,0:0:0:0:
88,21,81602,1,8,3:2:0:0:
234,135,81959,6,0,P|295:107|336:99,1,83.6000025512696,10|0,3:2|3:0,0:0:0:0:
388,46,82316,1,10,3:2:0:0:
448,116,82495,1,2,3:2:0:0:
448,116,82673,2,0,P|420:165|413:211,1,83.6000025512696,10|0,3:2|3:0,0:0:0:0:
332,240,83030,2,0,P|360:289|367:335,1,83.6000025512696,8|2,3:2|3:2,0:0:0:0:
300,383,83388,5,10,3:2:0:0:
300,383,83566,1,0,3:0:0:0:
226,318,83745,1,10,3:2:0:0:
226,318,83923,1,0,0:0:0:0:
143,361,84102,1,8,3:2:0:0:
61,315,84280,1,4,3:0:0:0:
122,249,84459,2,0,P|136:193|143:150,1,83.6000025512696,10|2,3:2|3:0,0:0:0:0:
94,85,84816,5,10,3:2:0:0:
94,85,84995,1,8,3:2:0:0:
167,29,85173,1,8,3:2:0:0:
167,29,85263,1,4,3:0:0:0:
167,29,85352,1,4,3:0:0:0:
239,80,85530,2,0,P|286:56|342:42,1,83.6000025512696,8|4,3:2|3:0,0:0:0:0:
393,100,85888,2,0,P|369:147|355:203,1,83.6000025512696,8|4,3:2|3:0,0:0:0:0:
409,256,86245,5,6,3:2:0:0:
