osu file format v14

[General]
AudioFilename: audio.mp3
AudioLeadIn: 0
PreviewTime: 10205
Countdown: 1
SampleSet: Normal
StackLeniency: 0.7
Mode: 1
LetterboxInBreaks: 0
WidescreenStoryboard: 0

[Editor]
DistanceSpacing: 0.5
BeatDivisor: 2
GridSize: 32
TimelineZoom: 3.999998

[Metadata]
Title:PPAP Bass Boosted Ver.
TitleUnicode:PPAP Bass Boosted Ver.
Artist:Pikotaro
ArtistUnicode:Pikotaro
Creator:Topreflex
Version:R.I.P Headphone Users
Source:
Tags:
BeatmapID:1478126
BeatmapSetID:697841

[Difficulty]
HPDrainRate:5
CircleSize:2
OverallDifficulty:6
ApproachRate:5
SliderMultiplier:1.3999999666214
SliderTickRate:1

[Events]
//Background and Video events
0,0,"maxresdefault.jpg",0,0
//Break Periods
//Storyboard Layer 0 (Background)
//Storyboard Layer 1 (Fail)
//Storyboard Layer 2 (Pass)
//Storyboard Layer 3 (Foreground)
//Storyboard Sound Samples

[TimingPoints]
500,220.588235294118,4,1,0,100,1,0
3147,-25,4,1,0,100,0,1
3367,-100,4,1,0,100,0,0
8496,-98.5221674876847,4,1,0,100,0,0
8551,-96.1538461538461,4,1,0,100,0,0
8606,-94.3396226415094,4,1,0,100,0,0
8661,-92.5925925925926,4,1,0,100,0,0
8716,-90.9090909090909,4,1,0,100,0,0
8772,-89.2857142857143,4,1,0,100,0,0
8827,-87.719298245614,4,1,0,100,0,0
8882,-86.2068965517241,4,1,0,100,0,0
8937,-84.7457627118644,4,1,0,100,0,0
8992,-83.3333333333333,4,1,0,100,0,0
9047,-81.9672131147541,4,1,0,100,0,0
9102,-80.6451612903226,4,1,0,100,0,0
9158,-79.3650793650794,4,1,0,100,0,0
9213,-78.125,4,1,0,100,0,0
9268,-76.9230769230769,4,1,0,100,0,0
9323,-75.7575757575758,4,1,0,100,0,0
10205,-60.9756097560976,4,1,0,100,0,1
17264,-100,4,1,0,100,0,0
21676,-50,4,1,0,100,0,0
21897,-100,4,1,0,100,0,0
28735,-50,4,1,0,100,0,0
28955,-100,4,1,0,100,0,0
31382,-75.187969924812,4,1,0,100,0,1
31492,-75.187969924812,4,1,0,100,0,0
31823,-75.187969924812,4,1,0,100,0,1
31933,-75.187969924812,4,1,0,100,0,0
32264,-75.187969924812,4,1,0,100,0,1
32375,-75.187969924812,4,1,0,100,0,0
32705,-37.593984962406,4,1,0,100,0,1
32816,-37.593984962406,4,1,0,100,0,0
33147,-60.2409638554217,4,1,0,100,0,1
33257,-60.2409638554217,4,1,0,100,0,0
33588,-60.2409638554217,4,1,0,100,0,1
33698,-60.2409638554217,4,1,0,100,0,0
34029,-60.2409638554217,4,1,0,100,0,1
34139,-60.2409638554217,4,1,0,100,0,0
34470,-30.1204819277108,4,1,0,100,0,1
34580,-30.1204819277108,4,1,0,100,0,0
34911,-50,4,1,0,100,0,1
35022,-50,4,1,0,100,0,0
35352,-50,4,1,0,100,0,1
35463,-50,4,1,0,100,0,0
35794,-50,4,1,0,100,0,1
35904,-50,4,1,0,100,0,0
36676,-100,4,1,0,100,0,0
38441,-66.6666666666667,4,1,0,100,0,1
43735,-100,4,1,0,100,0,0
45500,-25,4,1,0,100,0,0

[HitObjects]
256,192,3147,5,6,0:0:0:0:
256,192,6676,1,2,0:0:0:0:
256,192,6897,1,2,0:0:0:0:
256,192,7117,1,0,0:0:0:0:
256,192,7338,1,0,0:0:0:0:
256,192,7558,1,2,0:0:0:0:
256,192,7779,1,2,0:0:0:0:
256,192,8000,1,0,0:0:0:0:
256,192,8220,1,0,0:0:0:0:
256,192,8441,1,0,0:0:0:0:
256,192,8496,1,0,0:0:0:0:
256,192,8551,1,0,0:0:0:0:
256,192,8606,1,0,0:0:0:0:
256,192,8661,1,2,0:0:0:0:
256,192,8716,1,0,0:0:0:0:
256,192,8772,1,0,0:0:0:0:
256,192,8827,1,0,0:0:0:0:
256,192,8882,1,2,0:0:0:0:
256,192,8937,1,2,0:0:0:0:
256,192,8992,1,0,0:0:0:0:
256,192,9047,1,0,0:0:0:0:
256,192,9102,1,2,0:0:0:0:
256,192,9158,1,2,0:0:0:0:
256,192,9213,1,2,0:0:0:0:
256,192,9268,1,2,0:0:0:0:
256,192,9323,1,2,0:0:0:0:
256,192,9544,1,2,0:0:0:0:
256,192,9764,1,0,0:0:0:0:
256,192,9985,1,2,0:0:0:0:
256,192,10205,1,4,0:0:0:0:
256,192,10426,1,2,0:0:0:0:
256,192,10454,1,2,0:0:0:0:
256,192,10647,1,0,0:0:0:0:
256,192,10674,1,0,0:0:0:0:
256,192,10867,1,2,0:0:0:0:
256,192,10895,1,2,0:0:0:0:
256,192,11088,1,4,0:0:0:0:
256,192,11308,1,2,0:0:0:0:
256,192,11336,1,2,0:0:0:0:
256,192,11529,1,0,0:0:0:0:
256,192,11556,1,0,0:0:0:0:
256,192,11750,1,2,0:0:0:0:
256,192,11777,1,2,0:0:0:0:
256,192,11970,1,4,0:0:0:0:
256,192,12191,1,2,0:0:0:0:
256,192,12218,1,2,0:0:0:0:
256,192,12411,1,0,0:0:0:0:
256,192,12439,1,0,0:0:0:0:
256,192,12632,1,2,0:0:0:0:
256,192,12659,1,2,0:0:0:0:
256,192,12687,1,2,0:0:0:0:
256,192,12715,1,2,0:0:0:0:
256,192,13073,1,0,0:0:0:0:
256,192,13101,1,0,0:0:0:0:
256,192,13294,1,2,0:0:0:0:
256,192,13321,1,2,0:0:0:0:
256,192,13514,1,2,0:0:0:0:
256,192,13542,1,2,0:0:0:0:
256,192,13735,1,4,0:0:0:0:
256,192,13955,1,2,0:0:0:0:
256,192,13983,1,2,0:0:0:0:
256,192,14176,1,0,0:0:0:0:
256,192,14204,1,0,0:0:0:0:
256,192,14397,1,2,0:0:0:0:
256,192,14424,1,2,0:0:0:0:
256,192,14617,1,4,0:0:0:0:
256,192,14838,1,2,0:0:0:0:
256,192,14865,1,2,0:0:0:0:
256,192,15058,1,0,0:0:0:0:
256,192,15086,1,0,0:0:0:0:
256,192,15279,1,2,0:0:0:0:
256,192,15306,1,2,0:0:0:0:
256,192,15500,1,4,0:0:0:0:
256,192,15720,1,2,0:0:0:0:
256,192,15748,1,2,0:0:0:0:
256,192,15941,1,0,0:0:0:0:
256,192,15968,1,0,0:0:0:0:
256,192,16161,1,2,0:0:0:0:
256,192,16189,1,2,0:0:0:0:
256,192,16216,1,2,0:0:0:0:
256,192,16244,1,2,0:0:0:0:
256,192,17264,1,0,0:0:0:0:
256,192,17485,1,2,0:0:0:0:
256,192,17558,1,0,0:0:0:0:
256,192,17632,1,0,0:0:0:0:
256,192,17705,1,2,0:0:0:0:
256,192,17761,1,2,0:0:0:0:
256,192,17816,1,0,0:0:0:0:
256,192,17871,1,0,0:0:0:0:
256,192,17926,1,2,0:0:0:0:
256,192,17981,1,0,0:0:0:0:
256,192,18036,1,2,0:0:0:0:
256,192,18091,1,0,0:0:0:0:
256,192,18147,1,2,0:0:0:0:
256,192,18367,1,2,0:0:0:0:
256,192,18395,1,2,0:0:0:0:
256,192,18588,1,0,0:0:0:0:
256,192,18615,1,0,0:0:0:0:
256,192,18808,1,2,0:0:0:0:
256,192,18836,1,2,0:0:0:0:
256,192,19029,1,0,0:0:0:0:
256,192,19250,1,0,0:0:0:0:
256,192,19323,1,0,0:0:0:0:
256,192,19397,1,0,0:0:0:0:
256,192,19470,1,2,0:0:0:0:
288,192,19525,1,0,0:0:0:0:
288,192,19580,1,0,0:0:0:0:
288,192,19636,1,0,0:0:0:0:
256,192,19691,1,2,0:0:0:0:
256,192,19746,1,2,0:0:0:0:
256,192,19801,1,2,0:0:0:0:
256,192,19856,1,0,0:0:0:0:
256,192,19911,1,2,0:0:0:0:
256,192,20132,1,0,0:0:0:0:
256,192,20159,1,0,0:0:0:0:
256,192,20352,1,2,0:0:0:0:
256,192,20380,1,2,0:0:0:0:
256,192,20573,1,2,0:0:0:0:
256,192,20601,1,2,0:0:0:0:
256,192,20794,1,4,0:0:0:0:
256,192,21014,1,2,0:0:0:0:
256,192,21042,1,2,0:0:0:0:
256,192,21235,1,0,0:0:0:0:
256,192,21262,1,0,0:0:0:0:
256,192,21455,1,2,0:0:0:0:
256,192,21483,1,2,0:0:0:0:
256,192,21676,1,4,0:0:0:0:
256,192,21897,1,2,0:0:0:0:
256,192,21924,1,2,0:0:0:0:
256,192,22117,1,0,0:0:0:0:
256,192,22145,1,0,0:0:0:0:
256,192,22338,1,2,0:0:0:0:
256,192,22365,1,2,0:0:0:0:
256,192,22558,1,2,0:0:0:0:
256,192,22613,1,2,0:0:0:0:
256,192,22669,1,0,0:0:0:0:
256,192,22724,1,0,0:0:0:0:
256,192,22779,1,2,0:0:0:0:
256,192,22852,1,2,0:0:0:0:
256,192,22926,1,0,0:0:0:0:
256,192,23000,1,2,0:0:0:0:
256,192,23036,1,0,0:0:0:0:
256,192,23073,1,0,0:0:0:0:
256,192,23110,1,2,0:0:0:0:
256,192,23147,1,0,0:0:0:0:
256,192,23183,1,0,0:0:0:0:
256,192,23220,1,2,0:0:0:0:
256,192,23441,1,2,0:0:0:0:
256,192,23468,1,2,0:0:0:0:
256,192,23661,1,0,0:0:0:0:
256,192,23689,1,0,0:0:0:0:
256,192,23882,1,2,0:0:0:0:
256,192,23909,1,2,0:0:0:0:
256,192,24102,1,2,0:0:0:0:
256,192,24130,1,2,0:0:0:0:
256,192,24323,1,0,0:0:0:0:
256,192,24544,1,2,0:0:0:0:
256,192,24617,1,0,0:0:0:0:
256,192,24691,1,0,0:0:0:0:
256,192,24764,1,2,0:0:0:0:
256,192,24819,1,2,0:0:0:0:
256,192,24875,1,0,0:0:0:0:
256,192,24930,1,0,0:0:0:0:
256,192,24985,1,2,0:0:0:0:
256,192,25040,1,0,0:0:0:0:
256,192,25095,1,2,0:0:0:0:
256,192,25150,1,0,0:0:0:0:
256,192,25205,1,2,0:0:0:0:
256,192,25426,1,0,0:0:0:0:
256,192,25454,1,0,0:0:0:0:
256,192,25647,1,2,0:0:0:0:
256,192,25674,1,2,0:0:0:0:
256,192,25867,1,0,0:0:0:0:
256,192,25895,1,0,0:0:0:0:
256,192,26088,1,0,0:0:0:0:
256,192,26308,1,0,0:0:0:0:
256,192,26382,1,0,0:0:0:0:
256,192,26455,1,0,0:0:0:0:
256,192,26529,1,2,0:0:0:0:
256,192,26584,1,0,0:0:0:0:
256,192,26639,1,0,0:0:0:0:
256,192,26694,1,0,0:0:0:0:
256,192,26750,1,2,0:0:0:0:
256,192,26786,1,2,0:0:0:0:
256,192,26823,1,0,0:0:0:0:
256,192,26860,1,2,0:0:0:0:
256,192,26897,1,2,0:0:0:0:
256,192,26933,1,0,0:0:0:0:
256,192,26970,1,2,0:0:0:0:
256,192,27191,1,0,0:0:0:0:
256,192,27218,1,0,0:0:0:0:
256,192,27411,1,2,0:0:0:0:
256,192,27439,1,2,0:0:0:0:
256,192,27632,1,2,0:0:0:0:
256,192,27659,1,2,0:0:0:0:
256,192,27852,1,0,0:0:0:0:
256,192,28073,1,2,0:0:0:0:
256,192,28101,1,2,0:0:0:0:
256,192,28294,1,0,0:0:0:0:
256,192,28321,1,0,0:0:0:0:
256,192,28514,1,2,0:0:0:0:
256,192,28542,1,2,0:0:0:0:
256,192,28735,1,4,0:0:0:0:
256,192,28955,1,0,0:0:0:0:
256,192,28983,1,0,0:0:0:0:
256,192,29176,1,2,0:0:0:0:
256,192,29204,1,2,0:0:0:0:
256,192,29397,1,0,0:0:0:0:
256,192,29424,1,0,0:0:0:0:
256,192,29617,1,2,0:0:0:0:
256,192,29672,1,2,0:0:0:0:
256,192,29727,1,0,0:0:0:0:
256,192,29783,1,2,0:0:0:0:
256,192,29838,1,0,0:0:0:0:
256,192,29893,1,2,0:0:0:0:
256,192,29948,1,0,0:0:0:0:
256,192,30003,1,0,0:0:0:0:
256,192,30058,1,2,0:0:0:0:
256,192,30132,1,0,0:0:0:0:
256,192,30205,1,0,0:0:0:0:
256,192,30279,1,2,0:0:0:0:
256,192,30316,1,2,0:0:0:0:
256,192,30352,1,2,0:0:0:0:
256,192,30389,1,0,0:0:0:0:
256,192,30426,1,0,0:0:0:0:
256,192,30463,1,0,0:0:0:0:
256,192,30500,1,2,0:0:0:0:
256,192,30720,1,0,0:0:0:0:
256,192,30748,1,0,0:0:0:0:
256,192,30941,1,2,0:0:0:0:
256,192,30968,1,2,0:0:0:0:
256,192,31161,1,2,0:0:0:0:
256,192,31189,1,2,0:0:0:0:
256,192,31382,1,4,0:0:0:0:
256,192,31492,1,2,0:0:0:0:
256,192,31547,1,2,0:0:0:0:
256,192,31602,1,2,0:0:0:0:
256,192,31713,1,2,0:0:0:0:
256,192,31823,1,4,0:0:0:0:
256,192,31933,1,2,0:0:0:0:
256,192,31988,1,2,0:0:0:0:
256,192,32044,1,2,0:0:0:0:
256,192,32154,1,2,0:0:0:0:
256,192,32264,1,4,0:0:0:0:
256,192,32705,1,2,0:0:0:0:
256,192,33147,1,4,0:0:0:0:
256,192,33257,1,2,0:0:0:0:
256,192,33312,1,2,0:0:0:0:
256,192,33367,1,2,0:0:0:0:
256,192,33477,1,2,0:0:0:0:
256,192,33588,1,4,0:0:0:0:
256,192,33698,1,2,0:0:0:0:
256,192,33753,1,2,0:0:0:0:
256,192,33808,1,2,0:0:0:0:
256,192,33919,1,2,0:0:0:0:
256,192,34029,1,4,0:0:0:0:
256,192,34470,1,2,0:0:0:0:
256,192,34911,1,4,0:0:0:0:
256,192,35352,1,4,0:0:0:0:
256,192,35794,1,6,0:0:0:0:
256,192,36676,1,2,0:0:0:0:
256,192,36897,1,0,0:0:0:0:
256,192,36970,1,0,0:0:0:0:
256,192,37044,1,0,0:0:0:0:
256,192,37117,1,2,0:0:0:0:
256,192,37172,1,2,0:0:0:0:
256,192,37227,1,0,0:0:0:0:
256,192,37283,1,0,0:0:0:0:
256,192,37338,1,2,0:0:0:0:
256,192,37411,1,2,0:0:0:0:
256,192,37485,1,0,0:0:0:0:
256,192,37558,1,2,0:0:0:0:
256,192,37613,1,2,0:0:0:0:
256,192,37669,1,2,0:0:0:0:
256,192,37724,1,0,0:0:0:0:
256,192,37779,1,2,0:0:0:0:
256,192,37834,1,2,0:0:0:0:
256,192,37889,1,2,0:0:0:0:
256,192,37944,1,0,0:0:0:0:
256,192,38000,1,0,0:0:0:0:
256,192,38441,1,4,0:0:0:0:
256,192,38661,1,2,0:0:0:0:
256,192,38675,1,2,0:0:0:0:
256,192,38882,1,0,0:0:0:0:
256,192,38896,1,0,0:0:0:0:
256,192,39102,1,2,0:0:0:0:
256,192,39116,1,2,0:0:0:0:
256,192,39323,1,4,0:0:0:0:
256,192,39544,1,2,0:0:0:0:
256,192,39557,1,2,0:0:0:0:
256,192,39764,1,0,0:0:0:0:
256,192,39778,1,0,0:0:0:0:
256,192,39985,1,2,0:0:0:0:
256,192,39999,1,2,0:0:0:0:
256,192,40205,1,4,0:0:0:0:
256,192,40426,1,2,0:0:0:0:
256,192,40440,1,2,0:0:0:0:
256,192,40647,1,0,0:0:0:0:
256,192,40660,1,0,0:0:0:0:
256,192,40867,1,2,0:0:0:0:
256,192,40881,1,2,0:0:0:0:
256,192,41308,1,0,0:0:0:0:
256,192,41529,1,2,0:0:0:0:
256,192,41750,1,2,0:0:0:0:
256,192,41970,1,4,0:0:0:0:
256,192,42191,1,2,0:0:0:0:
256,192,42204,1,2,0:0:0:0:
256,192,42411,1,0,0:0:0:0:
256,192,42425,1,0,0:0:0:0:
256,192,42632,1,2,0:0:0:0:
256,192,42646,1,2,0:0:0:0:
256,192,42852,1,4,0:0:0:0:
256,192,43073,1,2,0:0:0:0:
256,192,43087,1,2,0:0:0:0:
256,192,43294,1,2,0:0:0:0:
256,192,43735,1,2,0:0:0:0:
256,192,43955,1,0,0:0:0:0:
256,192,44066,1,0,0:0:0:0:
256,192,44176,1,2,0:0:0:0:
256,192,44250,1,2,0:0:0:0:
256,192,44323,1,0,0:0:0:0:
256,192,44397,1,2,0:0:0:0:
256,192,44470,1,0,0:0:0:0:
256,192,44544,1,0,0:0:0:0:
256,192,44617,1,2,0:0:0:0:
256,192,44672,1,2,0:0:0:0:
256,192,44727,1,2,0:0:0:0:
256,192,44783,1,0,0:0:0:0:
256,192,44838,1,2,0:0:0:0:
256,192,44875,1,0,0:0:0:0:
256,192,44911,1,0,0:0:0:0:
256,192,44948,1,2,0:0:0:0:
256,192,44985,1,0,0:0:0:0:
256,192,45022,1,0,0:0:0:0:
256,192,45058,1,2,0:0:0:0:
256,192,45500,12,2,50352,0:0:0:0:
