osu file format v14

[General]
AudioFilename: audio.mp3
AudioLeadIn: 0
PreviewTime: 31361
Countdown: 0
SampleSet: Normal
StackLeniency: 0.7
Mode: 0
LetterboxInBreaks: 0
WidescreenStoryboard: 0

[Editor]
DistanceSpacing: 1.6
BeatDivisor: 4
GridSize: 16
TimelineZoom: 1

[Metadata]
Title:PPAP Song
TitleUnicode:PPAP Song
Artist:Piko-Taro
ArtistUnicode:Piko-Taro
Creator:Synxx3
Version:Pen-Pineapple-Apple-Pen
Source:
Tags:
BeatmapID:1097606
BeatmapSetID:516522

[Difficulty]
HPDrainRate:6
CircleSize:4.6
OverallDifficulty:7.5
ApproachRate:8
SliderMultiplier:1.4
SliderTickRate:1

[Events]
//Background and Video events
0,0,"background.jpg",0,0
Video,0,"PPAP Pen Pineapple Apple Pen.mp4"
//Break Periods
//Storyboard Layer 0 (Background)
//Storyboard Layer 1 (Fail)
//Storyboard Layer 2 (Pass)
//Storyboard Layer 3 (Foreground)
//Storyboard Sound Samples

[TimingPoints]
6656,441.176470588235,4,1,0,70,1,0

[Colours]
Combo1 : 0,0,255
Combo2 : 255,255,128
Combo3 : 255,0,0
Combo4 : 0,255,0

[HitObjects]
144,224,6656,5,0,2:0:0:0:
368,208,6876,1,0,2:0:0:0:
288,112,7097,1,0,2:0:0:0:
256,288,7317,1,0,2:0:0:0:
192,128,7538,1,0,2:0:0:0:
368,208,7758,1,0,2:0:0:0:
144,224,7979,1,0,2:0:0:0:
320,320,8200,1,0,2:0:0:0:
256,192,8420,12,0,9082,2:0:0:0:
224,208,9303,5,0,2:0:0:0:
384,112,9523,2,0,L|292:92,1,70,0|0,1:0|3:0,3:0:0:0:
128,96,9964,1,0,0:0:0:0:
112,232,10185,6,0,L|184:296,1,70,0|0,1:0|3:0,3:0:0:0:
128,96,10626,1,0,2:0:0:0:
272,160,10847,1,0,2:0:0:0:
432,80,11067,2,0,L|360:144,1,70,0|0,1:0|3:0,3:0:0:0:
144,240,11508,1,0,2:0:0:0:
272,336,11729,1,0,2:0:0:0:
185,56,11950,2,0,L|121:100,1,70,0|0,1:0|3:0,3:0:0:0:
144,240,12391,1,0,1:0:0:0:
379,126,12611,2,0,L|399:198,1,70,0|0,1:0|3:0,0:0:0:0:
127,95,13053,1,0,0:0:0:0:
256,192,13273,1,0,0:0:0:0:
352,64,13494,1,0,0:0:0:0:
380,316,13714,6,0,L|344:224,1,70,0|0,1:0|3:0,3:0:0:0:
104,240,14156,1,0,2:0:0:0:
160,96,14376,1,0,2:0:0:0:
384,144,14597,2,0,L|348:208,1,70,0|0,1:0|3:0,3:0:0:0:
32,224,15038,1,0,2:0:0:0:
176,300,15258,1,0,2:0:0:0:
248,40,15479,2,0,L|180:72,1,70,0|0,1:0|3:0,3:0:0:0:
96,172,15920,1,0,2:0:0:0:
384,144,16141,2,0,L|128:312,1,280,0|0,0:0|3:0,0:0:0:0:
120,120,17244,5,0,2:0:0:0:
240,224,17464,1,0,2:0:0:0:
272,80,17685,2,0,L|208:132,1,70,0|0,1:0|3:0,3:0:0:0:
80,272,18126,1,0,2:0:0:0:
240,272,18347,1,0,2:0:0:0:
360,124,18567,2,0,L|424:60,1,70,0|0,1:0|3:0,3:0:0:0:
120,176,19008,1,0,2:0:0:0:
256,256,19229,1,0,2:0:0:0:
96,288,19450,2,0,L|76:360,1,70,0|0,1:0|3:0,3:0:0:0:
288,128,19891,2,0,L|264:212,1,70,0|0,1:0|3:0,3:0:0:0:
416,240,20332,2,0,L|432:312,1,70,0|0,1:0|3:0,3:0:0:0:
156,108,20773,5,0,2:0:0:0:
304,64,20994,1,0,2:0:0:0:
272,208,21214,2,0,L|336:256,1,70,0|0,1:0|3:0,3:0:0:0:
120,176,21656,1,0,0:0:0:0:
272,208,21876,1,0,2:0:0:0:
160,292,22097,2,0,L|224:336,1,70,0|0,1:0|3:0,3:0:0:0:
272,48,22538,2,0,L|216:104,1,70,0|0,1:0|3:0,0:0:0:0:
160,224,22979,1,0,0:0:0:0:
352,144,23200,2,0,L|404:216,1,70,0|0,1:0|3:0,0:0:0:0:
208,64,23641,1,0,1:0:0:0:
72,200,23861,2,0,L|148:260,1,70,0|0,1:0|3:0,3:0:0:0:
236,168,24303,5,0,2:0:0:0:
384,112,24523,1,0,2:0:0:0:
316,296,24744,2,0,L|396:268,1,70,0|0,1:0|3:0,3:0:0:0:
44,160,25185,1,0,2:0:0:0:
200,128,25406,1,0,2:0:0:0:
128,264,25626,2,0,L|212:304,1,70,0|0,1:0|3:0,3:0:0:0:
344,96,26067,1,0,2:0:0:0:
192,64,26288,1,0,2:0:0:0:
240,204,26508,2,0,L|156:260,1,70,0|0,1:0|3:0,3:0:0:0:
100,160,26950,1,0,2:0:0:0:
92,284,27170,2,0,L|152:336,1,70,0|0,1:0|3:0,0:0:0:0:
272,240,27611,1,0,2:0:0:0:
208,96,27832,5,0,2:0:0:0:
356,84,28053,1,0,2:0:0:0:
100,192,28273,2,0,L|140:264,1,70,0|0,1:0|3:0,3:0:0:0:
432,256,28714,1,0,0:0:0:0:
288,320,28935,1,0,2:0:0:0:
200,176,29155,2,0,L|256:228,1,70,0|0,1:0|3:0,3:0:0:0:
96,48,29597,1,0,2:0:0:0:
80,212,29817,1,0,2:0:0:0:
240,144,30038,1,0,2:0:0:0:
164,288,30258,2,0,L|252:316,1,70,0|0,1:0|3:0,0:0:0:0:
143,132,30700,1,0,0:0:0:0:
288,52,30920,2,0,L|312:120,1,70,0|0,1:0|3:0,0:0:0:0:
96,248,31361,5,0,2:0:0:0:
240,192,31582,1,0,2:0:0:0:
160,320,31803,1,0,2:0:0:0:
176,160,32023,1,0,2:0:0:0:
336,208,32244,1,0,2:0:0:0:
224,96,32464,1,0,2:0:0:0:
240,256,32685,1,0,2:0:0:0:
304,112,32905,1,0,2:0:0:0:
151,81,33126,5,0,1:0:0:0:
92,192,33347,2,0,L|128:256,1,70,0|0,1:0|3:0,3:0:0:0:
320,72,33788,2,0,B|376:148|224:160|248:255,1,210,0|0,1:0|3:0,3:0:0:0:
101,280,34670,1,0,2:0:0:0:
160,128,34891,1,0,2:0:0:0:
320,72,35111,1,0,2:0:0:0:
320,224,35332,1,0,2:0:0:0:
160,256,35553,1,0,2:0:0:0:
192,64,35773,2,0,L|180:140,1,70,0|0,0:0|3:0,0:0:0:0:
124,192,36655,5,0,3:0:0:0:
368,144,36876,1,0,3:0:0:0:
240,316,37097,1,0,3:0:0:0:
240,64,37317,1,0,3:0:0:0:
356,304,37538,1,0,3:0:0:0:
244,176,37758,1,0,3:0:0:0:
168,204,37979,2,0,P|172:148|188:120,1,70,0|0,0:0|3:0,0:0:0:0:
288,80,38420,5,0,2:0:0:0:
400,192,38641,1,0,2:0:0:0:
184,208,38861,2,0,L|224:124,1,70,0|0,1:0|3:0,3:0:0:0:
368,144,39303,1,0,2:0:0:0:
352,304,39523,1,0,2:0:0:0:
104,248,39744,2,0,L|200:284,1,70,0|0,1:0|3:0,3:0:0:0:
184,76,40185,1,0,2:0:0:0:
70,181,40405,1,0,2:0:0:0:
320,128,40626,2,0,L|308:212,1,70,0|0,1:0|3:0,3:0:0:0:
70,181,41288,1,0,2:0:0:0:
244,268,41508,2,0,L|312:296,1,70,0|0,1:0|3:0,1:0:0:0:
288,84,41950,5,0,2:0:0:0:
135,95,42170,1,0,2:0:0:0:
156,231,42391,2,0,L|104:311,1,70,0|0,1:0|3:0,3:0:0:0:
396,304,42832,1,0,2:0:0:0:
344,160,43053,1,0,2:0:0:0:
216,276,43273,2,0,L|176:208,1,70,0|0,1:0|3:0,3:0:0:0:
296,80,43714,5,0,3:0:0:0:
140,284,43935,1,0,3:0:0:0:
360,240,44155,1,0,3:0:0:0:
108,136,44376,1,0,2:0:0:0:
280,56,44597,1,0,3:0:0:0:
256,192,44817,1,0,3:0:0:0:
192,240,45038,2,0,P|240:268|264:272,1,70,0|0,1:0|3:0,0:0:0:0:
256,192,45479,12,0,49891,2:0:0:0:
