osu file format v14

[General]
AudioFilename: audio.mp3
AudioLeadIn: 1511
PreviewTime: 58868
Countdown: 0
SampleSet: Soft
StackLeniency: 0.7
Mode: 0
LetterboxInBreaks: 0
WidescreenStoryboard: 0

[Editor]
DistanceSpacing: 1
BeatDivisor: 2
GridSize: 4
TimelineZoom: 3.299999

[Metadata]
Title:Sakurane
TitleUnicode:桜音
Artist:Piko
ArtistUnicode:ピコ
Creator:kanor
Version:Normal
Source:よりぬき銀魂さん
Tags:さくらね samfree タイラヨオ yorinuki gintama san tv size ending [_Abhor_] Sandrew Ryuusei Aika rsak
BeatmapID:1394789
BeatmapSetID:652066

[Difficulty]
HPDrainRate:3.5
CircleSize:3.2
OverallDifficulty:4
ApproachRate:5
SliderMultiplier:1.2
SliderTickRate:1

[Events]
//Background and Video events
0,0,"gintama.jpg",0,0
Video,250,"Yorinuki Gintama-san ED4.AVI"
//Break Periods
//Storyboard Layer 0 (Background)
//Storyboard Layer 1 (Fail)
//Storyboard Layer 2 (Pass)
//Storyboard Layer 3 (Foreground)
//Storyboard Sound Samples

[TimingPoints]
952,333.333333333333,4,2,2,35,1,0
2951,-125,4,2,2,70,0,0
27618,-100,4,2,1,70,0,0
34285,-100,4,2,1,70,0,0
34951,-100,4,2,1,50,0,0
35618,-100,4,2,1,50,0,0
44951,-100,4,2,1,75,0,0
46285,-100,4,2,1,60,0,0
50118,-100,4,2,1,70,0,0
51618,-100,4,2,1,60,0,0
59618,-100,4,2,1,80,0,1
74785,-100,4,2,1,80,0,1
78951,-100,4,2,1,80,0,1
83618,-100,4,2,1,70,0,0

[Colours]
Combo1 : 255,155,106
Combo2 : 255,155,155
Combo3 : 250,214,139
Combo4 : 251,104,79

[HitObjects]
256,192,951,12,8,2285,0:0:0:0:
55,73,2951,6,0,P|109:60|160:72,1,96,8|8,0:0|0:0,0:0:0:0:
231,114,3618,6,0,L|235:4,2,96,8|0|2,0:0|0:0|0:0,0:0:0:0:
323,85,4618,1,0,0:0:0:0:
300,178,4951,2,0,B|298:301|298:301|360:242,1,192,8|2,0:0|0:0,0:0:0:0:
411,181,5951,1,2,0:0:0:0:
503,209,6285,6,0,B|505:332|505:332|443:273,2,192,8|2|8,0:0|0:0|0:0,0:0:0:0:
362,340,8285,1,2,0:0:0:0:
277,295,8618,1,2,0:0:0:0:
184,321,8951,6,0,P|128:333|80:313,1,96,8|0,0:0|0:0,0:0:0:0:
15,263,9618,2,0,P|3:207|23:159,1,96,2|0,0:0|0:0,0:0:0:0:
100,213,10285,1,8,0:0:0:0:
91,117,10618,2,0,L|60:80,2,48,2|2|2,0:0|0:0|0:0,0:0:0:0:
178,156,11285,1,2,0:0:0:0:
252,95,11618,6,0,P|344:67|447:107,2,192,8|2|8,0:0|0:0|0:0,0:0:0:0:
422,183,13618,1,2,0:0:0:0:
492,248,13951,1,2,0:0:0:0:
398,271,14285,6,0,L|395:373,1,96,8|0,0:0|0:0,0:0:0:0:
303,337,14951,2,0,L|306:235,1,96,2|0,0:0|0:0,0:0:0:0:
212,262,15618,2,0,P|109:293|37:252,1,192,8|2,0:0|0:0,0:0:0:0:
35,165,16618,1,2,0:0:0:0:
124,200,16951,6,0,L|133:81,1,96,8|0,0:0|0:0,0:0:0:0:
215,150,17618,2,0,L|224:31,1,96,2|0,0:0|0:0,0:0:0:0:
303,105,18285,2,0,L|312:-14,2,96,8|0|2,0:0|0:0|0:0,0:0:0:0:
346,124,19118,2,0,L|439:122,2,48,0|2|2,0:0|0:0|0:0,0:0:0:0:
306,150,19618,6,0,L|297:269,1,96,8|0,0:0|0:0,0:0:0:0:
391,219,20285,2,0,P|390:269|349:322,1,96,2|0,0:0|0:0,0:0:0:0:
323,328,20785,1,0,0:0:0:0:
323,328,20951,2,0,L|195:326,1,96,8|0,0:0|0:0,0:0:0:0:
190,237,21618,2,0,L|62:239,1,96,2|2,0:0|0:0,0:0:0:0:
50,260,22118,1,2,0:0:0:0:
50,260,22285,6,0,P|59:212|47:163,1,96,8|0,0:0|0:0,0:0:0:0:
73,74,22951,2,0,P|110:105|158:119,1,96,2|0,0:0|0:0,0:0:0:0:
202,120,23451,1,0,0:0:0:0:
202,120,23618,2,0,P|239:88|287:74,1,96,8|0,0:0|0:0,0:0:0:0:
370,114,24285,2,0,P|378:162|366:211,2,96,2|2|10,0:0|0:0|0:0,0:0:0:0:
479,311,26951,6,0,L|398:288,1,48,0|0,0:0|0:0,0:0:0:0:
393,326,27285,2,0,L|312:349,1,48,0|0,0:0|0:0,0:0:0:0:
287,327,27618,6,0,P|231:314|163:337,1,120,4|8,0:0|0:0,0:0:0:0:
52,316,28285,2,0,P|91:274|105:203,1,120,0|8,0:0|0:0,0:0:0:0:
186,126,28951,2,0,P|202:180|256:228,1,120,0|8,0:0|0:0,0:0:0:0:
292,262,29451,1,0,0:0:0:0:
292,262,29618,2,0,L|422:259,1,120,0|8,0:0|0:0,0:0:0:0:
475,157,30285,6,0,L|345:160,1,120,4|8,0:0|0:0,0:0:0:0:
413,55,30951,2,0,L|283:58,1,120,0|8,0:0|0:0,0:0:0:0:
227,158,31618,2,0,P|242:220|215:279,1,120,0|8,0:0|0:0,0:0:0:0:
168,296,32118,1,0,0:0:0:0:
110,313,32285,2,0,L|30:308,2,60,0|0|8,0:0|0:0|0:0,0:0:0:0:
82,196,32951,6,0,P|67:134|94:75,1,120,4|8,0:0|0:0,0:0:0:0:
141,58,33451,1,0,0:0:0:0:
199,41,33618,2,0,L|279:46,1,60,0|0,0:0|0:0,0:0:0:0:
310,75,33951,2,0,L|390:80,1,60,8|0,0:0|0:0,0:0:0:0:
429,68,34285,1,4,0:0:0:0:
449,90,35618,6,0,P|436:153|454:221,1,120,4|8,0:0|0:0,0:0:0:0:
477,258,36118,2,0,L|307:238,2,120,0|8|0,0:0|0:0|0:0,0:0:0:0:
489,316,36951,2,0,L|471:387,2,60,2|0|8,0:0|0:0|0:0,0:0:0:0:
370,337,37618,2,0,L|311:328,1,60,0|0,0:0|0:0,0:0:0:0:
250,327,37951,2,0,L|191:336,1,60,8|0,0:0|0:0,0:0:0:0:
131,349,38285,6,0,P|144:286|126:218,1,120,2|8,0:0|0:0,0:0:0:0:
103,181,38785,2,0,L|273:201,2,120,0|8|0,0:0|0:0|0:0,0:0:0:0:
52,149,39618,2,0,L|70:78,2,60,2|0|8,0:0|0:0|0:0,0:0:0:0:
156,90,40285,2,0,L|215:99,1,60,0|0,0:0|0:0,0:0:0:0:
251,51,40618,2,0,L|310:42,1,60,8|0,0:0|0:0,0:0:0:0:
368,26,40951,6,0,L|367:184,1,120,4|8,0:0|0:0,0:0:0:0:
476,195,41618,2,0,L|480:111,2,60,0|0|8,0:0|0:0|0:0,0:0:0:0:
479,255,42118,2,0,P|395:227|314:261,1,180,0|8,0:0|0:0,0:0:0:0:
277,308,42785,2,0,L|414:311,2,120,0|0|0,0:0|0:0|0:0,0:0:0:0:
227,342,43618,6,0,L|90:339,1,120,4|8,0:0|0:0,0:0:0:0:
29,247,44285,2,0,L|17:335,2,60,0|0|8,1:0|1:0|0:0,0:0:0:0:
71,204,44785,2,0,P|80:139|56:92,1,120,0|0,0:0|0:0,0:0:0:0:
28,39,45285,2,0,L|125:42,1,60,2|0,0:0|0:0,0:0:0:0:
143,64,45618,2,0,L|240:67,2,60,8|0|8,0:0|0:0|0:0,0:0:0:0:
202,168,46285,6,0,P|192:233|217:280,1,120,4|0,0:0|1:0,0:0:0:0:
262,318,46785,2,0,P|323:303|383:323,1,120,8|8,0:0|0:0,0:0:0:0:
492,287,47451,2,0,P|517:233|506:175,1,120,4|0,0:0|0:0,0:0:0:0:
484,119,47951,2,0,L|461:64,1,60,0|0,1:0|0:0,0:0:0:0:
400,69,48285,2,0,L|377:124,2,60,8|0|8,0:0|0:0|0:0,0:0:0:0:
280,76,48951,6,0,P|289:141|265:188,1,120,4|0,0:0|1:0,0:0:0:0:
220,226,49451,2,0,P|159:211|99:231,1,120,8|8,0:0|0:0,0:0:0:0:
33,323,50118,2,0,B|88:361|153:323|153:323|206:354,1,180,4|0,0:0|1:0,0:0:0:0:
257,340,50785,1,0,0:0:0:0:
316,334,50951,2,0,L|314:246,2,60,8|8|12,0:0|0:0|0:0,0:0:0:0:
434,352,51618,6,0,L|438:229,1,120,4|0,0:0|1:0,0:0:0:0:
460,176,52118,2,0,P|393:185|338:157,1,120,8|8,0:0|0:0,0:0:0:0:
298,128,52618,1,0,0:0:0:0:
298,128,52785,2,0,P|242:106|184:116,1,120,4|0,0:0|0:0,0:0:0:0:
144,160,53285,2,0,L|118:238,1,60,0|0,1:0|0:0,0:0:0:0:
64,213,53618,2,0,L|45:156,2,60,8|0|8,0:0|0:0|0:0,0:0:0:0:
106,325,54285,6,0,P|166:308|233:336,1,120,4|0,0:0|1:0,0:0:0:0:
329,279,54951,2,0,P|389:296|456:268,1,120,8|8,0:0|0:0,0:0:0:0:
482,234,55451,1,4,0:0:0:0:
256,192,55618,12,6,56951,0:0:0:0:
482,234,58951,5,2,0:0:0:0:
432,124,59285,1,0,0:0:0:0:
502,26,59618,6,0,P|443:3|374:22,1,120,4|8,0:0|0:0,0:0:0:0:
293,87,60285,2,0,P|234:110|165:91,1,120,0|8,0:0|0:0,0:0:0:0:
74,42,60951,2,0,L|48:188,1,120,4|8,0:0|0:0,0:0:0:0:
35,217,61451,1,0,0:0:0:0:
17,274,61618,2,0,P|71:251|130:261,1,120,0|8,0:0|0:0,0:0:0:0:
196,361,62285,6,0,P|141:383|82:373,1,120,4|8,0:0|0:0,0:0:0:0:
130,261,62951,2,0,P|184:238|243:248,1,120,0|8,0:0|0:0,0:0:0:0:
363,248,63618,2,0,L|353:392,1,120,4|8,0:0|0:0,0:0:0:0:
411,346,64118,1,0,0:0:0:0:
465,321,64285,2,0,L|470:249,1,60,0|0,0:0|0:0,0:0:0:0:
479,201,64618,2,0,L|474:129,1,60,8|0,0:0|0:0,0:0:0:0:
486,82,64951,6,0,P|426:97|359:72,1,120,4|8,0:0|0:0,0:0:0:0:
252,66,65618,2,0,P|294:110|306:180,1,120,0|8,0:0|0:0,0:0:0:0:
354,276,66285,2,0,P|371:216|426:171,1,120,4|8,0:0|0:0,0:0:0:0:
471,189,66785,1,0,0:0:0:0:
499,241,66951,2,0,L|488:336,1,60,0|0,0:0|0:0,0:0:0:0:
463,354,67285,2,0,P|420:348|362:353,1,60,8|0,0:0|0:0,0:0:0:0:
345,365,67618,5,4,0:0:0:0:
235,316,67951,2,0,P|186:339|106:326,2,120,8|8|8,0:0|0:0|0:0,0:0:0:0:
166,217,68951,2,0,L|177:76,1,120,12|8,0:0|0:0,0:0:0:0:
138,49,69451,1,0,0:0:0:0:
85,20,69618,2,0,P|50:12|3:17,2,60,8|0|8,0:0|0:0|0:0,0:0:0:0:
44,134,70285,6,0,L|33:275,1,120,4|8,0:0|0:0,0:0:0:0:
88,360,70951,2,0,P|151:342|212:356,1,120,0|8,0:0|0:0,0:0:0:0:
304,287,71618,2,0,P|367:305|428:291,1,120,4|8,0:0|0:0,0:0:0:0:
469,261,72118,1,0,0:0:0:0:
491,205,72285,2,0,P|499:158|493:113,1,60,0|0,0:0|0:0,0:0:0:0:
444,118,72618,2,0,P|436:71|442:26,1,60,8|0,0:0|0:0,0:0:0:0:
382,32,72951,6,0,L|220:52,1,120,4|8,0:0|0:0,0:0:0:0:
184,137,73618,2,0,L|303:151,1,120,0|8,0:0|0:0,0:0:0:0:
377,246,74285,2,0,L|257:260,1,120,4|10,0:0|0:0,0:0:0:0:
233,315,74785,1,0,0:0:0:0:
208,369,74951,2,0,L|130:356,1,60,8|0,0:0|0:0,0:0:0:0:
89,349,75285,2,0,L|10:334,1,60,8|0,0:0|0:0,0:0:0:0:
26,277,75618,6,0,P|13:215|39:148,1,120,6|8,0:0|0:0,0:0:0:0:
126,91,76285,2,0,P|139:153|113:220,1,120,8|8,0:0|0:0,0:0:0:0:
140,263,76785,1,0,0:0:0:0:
191,293,76951,2,0,L|324:313,2,120,6|8|10,0:0|0:0|0:0,0:0:0:0:
287,221,77951,2,0,L|383:241,1,60,8|0,0:0|0:0,0:0:0:0:
405,238,78285,6,0,P|392:300|418:367,1,120,6|8,0:0|0:0,0:0:0:0:
508,285,78952,2,0,P|521:223|495:156,1,120,8|8,0:0|0:0,0:0:0:0:
467,123,79451,1,0,0:0:0:0:
409,103,79618,2,0,L|246:94,1,120,8|8,0:0|0:0,0:0:0:0:
214,190,80285,2,0,L|377:199,1,120,10|10,0:0|0:0,0:0:0:0:
396,298,80951,1,12,0:0:0:0:
72,301,82285,6,0,L|88:243,1,60,8|8,0:0|0:0,0:0:0:0:
81,63,82951,2,0,L|114:131,1,60,2|0,0:0|0:0,0:0:0:0:
155,153,83285,2,0,L|185:102,1,60,2|0,0:0|0:0,0:0:0:0:
225,57,83618,6,0,P|281:70|349:47,1,120,4|0,0:0|1:0,0:0:0:0:
460,68,84285,2,0,P|420:109|406:180,1,120,8|8,0:0|0:0,0:0:0:0:
326,258,84951,2,0,P|309:203|255:155,1,120,4|0,0:0|1:0,0:0:0:0:
220,122,85451,1,0,0:0:0:0:
220,122,85618,2,0,L|90:125,1,120,8|8,0:0|0:0,0:0:0:0:
37,227,86285,6,0,L|167:224,1,120,4|0,0:0|1:0,0:0:0:0:
235,314,86951,1,8,0:0:0:0:
353,335,87285,1,8,0:0:0:0:
465,292,87618,1,4,0:0:0:0:
