osu file format v14

[General]
AudioFilename: audio.mp3
AudioLeadIn: 1511
PreviewTime: 58868
Countdown: 0
SampleSet: Soft
StackLeniency: 0.7
Mode: 0
LetterboxInBreaks: 0
WidescreenStoryboard: 0

[Editor]
DistanceSpacing: 1.3
BeatDivisor: 4
GridSize: 4
TimelineZoom: 2.3

[Metadata]
Title:Sakurane
TitleUnicode:桜音
Artist:Piko
ArtistUnicode:ピコ
Creator:kanor
Version:Abhor's Hard
Source:よりぬき銀魂さん
Tags:さくらね samfree タイラヨオ yorinuki gintama san tv size ending [_Abhor_] Sandrew Ryuusei Aika rsak
BeatmapID:1382694
BeatmapSetID:652066

[Difficulty]
HPDrainRate:5
CircleSize:4
OverallDifficulty:6
ApproachRate:7.5
SliderMultiplier:1.5
SliderTickRate:1

[Events]
//Background and Video events
0,0,"gintama.jpg",0,0
Video,250,"Yorinuki Gintama-san ED4.AVI"
//Break Periods
//Storyboard Layer 0 (Background)
//Storyboard Layer 1 (Fail)
//Storyboard Layer 2 (Pass)
//Storyboard Layer 3 (Foreground)
//Storyboard Sound Samples

[TimingPoints]
952,333.333333333333,4,2,2,35,1,0
2951,-133.333333333333,4,2,2,70,0,0
27618,-100,4,2,1,70,0,0
34951,-100,4,2,1,50,0,0
44951,-100,4,2,1,75,0,0
46285,-100,4,2,1,60,0,0
50118,-100,4,2,1,70,0,0
51618,-100,4,2,1,60,0,0
59618,-100,4,2,1,80,0,1
74785,-100,4,2,2,80,0,1
75618,-100,4,2,1,80,0,1
80951,-133.333333333333,4,2,1,80,0,1
82951,-133.333333333333,4,2,1,80,0,1
83618,-100,4,2,1,70,0,0

[Colours]
Combo1 : 255,155,106
Combo2 : 255,155,155
Combo3 : 250,214,139
Combo4 : 251,104,79

[HitObjects]
399,81,951,5,8,0:0:0:0:
399,81,1285,1,0,0:0:0:0:
397,230,1618,1,0,0:0:0:0:
397,230,1951,1,0,0:0:0:0:
268,151,2285,1,8,0:0:0:0:
268,151,2618,1,0,0:0:0:0:
380,154,2951,6,0,L|267:150,1,112.500004291535,8|8,0:0|0:0,0:0:0:0:
118,137,3618,5,8,0:0:0:0:
228,238,3951,1,0,0:0:0:0:
199,90,4285,1,2,0:0:0:0:
138,227,4618,1,0,0:0:0:0:
267,150,4951,6,0,B|296:143|322:154|322:154|352:166|393:148,1,112.500004291535,8|0,0:0|0:0,0:0:0:0:
496,68,5618,1,2,0:0:0:0:
350,76,5951,1,2,0:0:0:0:
461,170,6285,6,0,P|475:223|461:290,1,112.500004291535,8|0,0:0|0:0,0:0:0:0:
324,317,6951,1,2,0:0:0:0:
465,279,7285,1,0,0:0:0:0:
324,317,7618,6,0,B|271:298|271:298|218:317,1,112.500004291535,8|0,0:0|0:0,0:0:0:0:
156,356,8118,1,0,0:0:0:0:
156,356,8285,2,0,P|177:311|159:248,1,112.500004291535,2|2,0:0|0:0,0:0:0:0:
58,153,8951,5,8,0:0:0:0:
83,297,9285,1,0,0:0:0:0:
146,167,9618,1,2,0:0:0:0:
17,235,9951,1,0,0:0:0:0:
162,252,10285,6,0,P|216:265|271:253,1,112.500004291535,8|2,0:0|0:0,0:0:0:0:
313,193,10785,1,2,0:0:0:0:
313,193,10951,2,0,B|321:156|321:156|311:123|311:123|318:79,1,112.500004291535,2|2,0:0|0:0,0:0:0:0:
462,66,11618,6,0,B|454:103|454:103|464:136|464:136|457:180,1,112.500004291535,8|0,0:0|0:0,0:0:0:0:
395,228,12118,1,0,0:0:0:0:
395,228,12285,2,0,P|448:229|492:280,1,112.500004291535,2|0,0:0|0:0,0:0:0:0:
347,307,12951,6,0,P|292:327|243:307,1,112.500004291535,8|0,0:0|0:0,0:0:0:0:
184,174,13618,1,2,0:0:0:0:
97,292,13951,1,2,0:0:0:0:
32,160,14285,6,0,L|27:96,2,56.2500021457673,8|0|0,0:0|0:0|0:0,0:0:0:0:
106,205,14785,1,0,0:0:0:0:
186,174,14951,2,0,P|233:162|298:177,1,112.500004291535,2|0,0:0|0:0,0:0:0:0:
416,256,15618,6,0,P|361:271|303:254,1,112.500004291535,8|0,0:0|0:0,0:0:0:0:
364,121,16285,1,2,0:0:0:0:
416,256,16618,1,2,0:0:0:0:
294,175,16951,5,8,0:0:0:0:
440,172,17285,1,0,0:0:0:0:
324,261,17618,1,2,0:0:0:0:
364,121,17951,1,0,0:0:0:0:
206,160,18285,6,0,P|154:147|90:159,1,112.500004291535,8|0,0:0|0:0,0:0:0:0:
58,218,18785,1,0,0:0:0:0:
58,218,18951,2,0,P|55:257|60:282,2,56.2500021457673,2|0|2,0:0|0:0|0:0,0:0:0:0:
139,250,19451,1,2,0:0:0:0:
139,250,19618,6,0,P|157:281|182:301,2,56.2500021457673,8|0|0,0:0|0:0|0:0,0:0:0:0:
147,104,20285,2,0,L|266:93,1,112.500004291535,2|0,0:0|0:0,0:0:0:0:
312,144,20785,1,0,0:0:0:0:
312,144,20951,6,0,P|299:198|325:263,2,112.500004291535,8|0|2,0:0|0:0|0:0,0:0:0:0:
428,54,21951,1,2,0:0:0:0:
428,54,22118,1,2,0:0:0:0:
428,54,22285,6,0,L|441:176,1,112.500004291535,8|0,0:0|0:0,0:0:0:0:
463,310,22951,2,0,P|405:294|351:304,1,112.500004291535,2|0,0:0|0:0,0:0:0:0:
289,337,23451,1,0,0:0:0:0:
289,337,23618,6,0,P|236:353|174:338,1,112.500004291535,8|0,0:0|0:0,0:0:0:0:
113,211,24285,1,2,0:0:0:0:
100,356,24618,2,0,L|107:285,1,56.2500021457673,2|2,0:0|0:0,0:0:0:0:
113,211,24951,5,10,0:0:0:0:
47,79,25285,1,0,0:0:0:0:
47,79,25451,1,0,0:0:0:0:
47,79,25618,2,0,P|100:103|167:98,1,112.500004291535,0|0,0:0|0:0,0:0:0:0:
284,37,26285,6,0,P|267:88|282:143,1,112.500004291535,2|0,0:0|0:0,0:0:0:0:
428,150,26951,2,0,L|420:195,3,28.1250010728836,0|0|0|0,0:0|0:0|0:0|0:0,0:0:0:0:
389,193,27285,2,0,L|393:227,3,28.1250010728836,0|0|0|0,0:0|0:0|0:0|0:0,0:0:0:0:
372,265,27618,6,0,P|294:290|227:256,1,150,4|8,0:0|0:0,0:0:0:0:
194,191,28118,1,0,0:0:0:0:
155,117,28285,2,0,L|135:274,1,150,0|8,0:0|0:0,0:0:0:0:
64,306,28785,1,0,0:0:0:0:
47,225,28951,6,0,L|67:68,1,150,0|8,0:0|0:0,0:0:0:0:
136,33,29451,1,0,0:0:0:0:
213,60,29618,2,0,P|248:69|301:66,1,75,0|0,0:0|0:0,0:0:0:0:
369,63,29951,1,8,0:0:0:0:
391,47,30285,6,0,P|381:105|403:207,1,150,4|8,0:0|0:0,0:0:0:0:
444,261,30785,1,0,0:0:0:0:
384,317,30951,2,0,P|339:327|300:330,1,75,0|0,0:0|0:0,0:0:0:0:
230,306,31285,1,8,0:0:0:0:
210,288,31618,6,0,B|193:242|193:242|210:129,1,150,0|8,0:0|0:0,0:0:0:0:
225,61,32118,1,0,0:0:0:0:
146,87,32285,2,0,P|107:98|63:98,1,75,0|0,0:0|0:0,0:0:0:0:
14,40,32618,1,8,0:0:0:0:
35,23,32951,6,0,L|46:191,1,150,4|8,0:0|0:0,0:0:0:0:
56,254,33451,1,0,0:0:0:0:
124,300,33618,2,0,L|198:288,1,75,0|0,0:0|0:0,0:0:0:0:
267,243,33951,2,0,L|346:265,1,75,8|0,0:0|0:0,0:0:0:0:
378,277,34201,1,0,0:0:0:0:
378,277,34285,5,4,0:0:0:0:
440,213,34951,5,2,0:0:0:0:
440,213,35118,1,0,0:0:0:0:
392,145,35285,1,2,0:0:0:0:
392,145,35451,1,0,0:0:0:0:
433,73,35618,6,0,P|361:117|282:114,1,150,4|8,0:0|0:0,0:0:0:0:
246,53,36118,2,0,P|222:81|214:122,1,75,0|0,0:0|0:0,0:0:0:0:
257,187,36451,2,0,P|266:223|256:268,1,75,0|8,0:0|0:0,0:0:0:0:
181,287,36785,6,0,B|146:277|106:290|106:290|63:306|25:283,1,150,0|0,0:0|0:0,0:0:0:0:
72,214,37285,2,0,L|77:130,1,75,8|0,0:0|0:0,0:0:0:0:
110,63,37618,1,0,0:0:0:0:
110,63,37785,1,0,0:0:0:0:
179,106,37951,1,8,0:0:0:0:
179,106,38118,1,0,0:0:0:0:
197,186,38285,6,0,P|230:114|317:80,1,150,2|8,0:0|0:0,0:0:0:0:
372,87,38785,2,0,L|386:174,1,75,0|0,0:0|0:0,0:0:0:0:
456,200,39118,2,0,L|437:289,1,75,0|8,0:0|0:0,0:0:0:0:
471,350,39451,6,0,B|425:366|386:338|386:338|305:351,1,150,0|0,0:0|0:0,0:0:0:0:
250,314,39951,2,0,P|241:266|241:233,1,75,8|0,0:0|0:0,0:0:0:0:
243,156,40285,1,0,0:0:0:0:
173,199,40451,1,0,0:0:0:0:
90,208,40618,2,0,P|91:159|81:121,1,75,8|0,0:0|0:0,0:0:0:0:
32,70,40951,6,0,B|71:38|120:57|120:57|153:45|197:63,1,150,4|8,0:0|0:0,0:0:0:0:
255,76,41451,1,0,0:0:0:0:
329,112,41618,2,0,P|337:75|330:39,1,75,0|0,0:0|0:0,0:0:0:0:
255,76,41951,1,8,0:0:0:0:
256,158,42118,6,0,P|316:196|389:172,1,150,0|0,0:0|0:0,0:0:0:0:
445,115,42618,1,8,0:0:0:0:
463,195,42785,2,0,P|470:237|472:278,1,75,0|0,0:0|0:0,0:0:0:0:
410,324,43118,2,0,P|372:326|326:321,1,75,0|8,0:0|0:0,0:0:0:0:
265,278,43451,1,0,0:0:0:0:
265,278,43618,6,0,B|244:310|255:354|255:354|212:364|167:350,1,150,4|8,0:0|0:0,0:0:0:0:
103,336,44118,1,0,0:0:0:0:
67,261,44285,2,0,P|77:213|77:174,1,75,0|0,1:0|1:0,0:0:0:0:
30,119,44618,2,0,P|24:81|26:35,1,75,8|0,0:0|0:0,0:0:0:0:
105,25,44951,5,2,0:0:0:0:
165,81,45118,1,0,0:0:0:0:
233,34,45285,1,2,0:0:0:0:
284,97,45451,1,0,0:0:0:0:
346,42,45618,2,0,L|386:39,3,37.5,8|0|0|0,0:0|0:0|0:0|0:0,0:0:0:0:
403,75,45951,2,0,L|453:86,3,37.5,8|0|0|0,0:0|0:0|0:0|0:0,0:0:0:0:
467,113,46285,6,0,P|476:151|452:267,1,150,4|0,0:0|1:0,0:0:0:0:
374,257,46785,2,0,B|313:247|313:247|282:262|282:262|220:251,1,150,8|8,0:0|0:0,0:0:0:0:
229,252,47451,6,0,B|228:156|228:156|214:183|179:192,1,150,4|0,0:0|0:0,0:0:0:0:
153,113,47951,2,0,P|146:73|148:33,1,75,0|0,1:0|0:0,0:0:0:0:
230,43,48285,2,0,L|276:53,3,37.5,8|0|0|0,0:0|0:0|0:0|0:0,0:0:0:0:
285,87,48618,2,0,L|334:79,3,37.5,8|0|0|0,0:0|0:0|0:0|0:0,0:0:0:0:
360,65,48951,6,0,P|367:140|440:176,1,150,4|0,0:0|1:0,0:0:0:0:
436,93,49451,2,0,L|454:259,1,150,8|8,0:0|0:0,0:0:0:0:
307,322,50118,6,0,P|294:270|197:233,1,150,4|0,0:0|0:0,0:0:0:0:
221,312,50618,1,0,1:0:0:0:
145,278,50785,1,0,0:0:0:0:
145,278,50868,1,0,0:0:0:0:
145,278,50951,2,0,P|138:318|146:350,1,75,8|8,0:0|0:0,0:0:0:0:
212,230,51285,2,0,P|219:193|208:152,1,75,12|0,0:0|0:0,0:0:0:0:
134,124,51618,6,0,P|191:76|265:95,1,150,4|0,0:0|1:0,0:0:0:0:
300,162,52118,2,0,L|383:152,1,75,8|0,0:0|0:0,0:0:0:0:
456,147,52451,2,0,L|448:229,1,75,8|0,0:0|0:0,0:0:0:0:
483,297,52785,6,0,B|427:304|427:304|396:282|396:282|329:290,1,150,4|0,0:0|0:0,0:0:0:0:
268,249,53285,2,0,P|226:263|182:269,1,75,0|0,1:0|0:0,0:0:0:0:
154,267,53535,1,0,0:0:0:0:
154,267,53618,1,8,0:0:0:0:
120,191,53785,1,0,0:0:0:0:
87,332,53951,2,0,P|68:301|60:250,1,75,8|0,0:0|0:0,0:0:0:0:
134,163,54285,6,0,B|149:128|131:90|131:90|172:107|210:89,1,150,4|0,0:0|1:0,0:0:0:0:
283,72,54785,1,0,0:0:0:0:
378,90,54951,2,0,P|377:54|360:16,1,75,8|0,0:0|0:0,0:0:0:0:
307,150,55285,1,8,0:0:0:0:
307,150,55451,1,4,0:0:0:0:
256,192,55618,12,2,58618,0:0:0:0:
451,277,58951,6,0,P|408:268|372:274,1,75,2|0,0:0|0:0,0:0:0:0:
302,308,59285,2,0,P|264:318|226:315,1,75,2|0,0:0|0:0,0:0:0:0:
179,248,59618,6,0,B|193:162|193:162|164:181|125:180,1,150,4|8,0:0|0:0,0:0:0:0:
139,97,60118,1,0,0:0:0:0:
70,51,60285,2,0,P|57:86|66:136,1,75,0|0,0:0|0:0,0:0:0:0:
219,90,60618,2,0,P|208:55|175:24,1,75,8|0,0:0|0:0,0:0:0:0:
139,97,60951,6,0,L|300:88,1,150,4|8,0:0|0:0,0:0:0:0:
352,141,61451,1,0,0:0:0:0:
426,176,61618,2,0,P|421:217|396:265,1,75,0|0,0:0|0:0,0:0:0:0:
290,195,61951,2,0,P|302:230|326:260,1,75,8|0,0:0|0:0,0:0:0:0:
470,292,62285,6,0,P|409:290|390:346,1,112.5,4|0,0:0|0:0,0:0:0:0:
391,371,62618,2,0,L|312:360,1,75,8|0,0:0|0:0,0:0:0:0:
239,332,62951,1,0,0:0:0:0:
158,351,63118,1,0,0:0:0:0:
86,309,63285,2,0,P|76:265|76:220,1,75,8|0,0:0|0:0,0:0:0:0:
95,155,63618,1,4,0:0:0:0:
95,155,63951,5,8,0:0:0:0:
170,189,64118,1,0,0:0:0:0:
236,140,64285,2,0,L|241:96,3,37.5,0|0|0|0,0:0|0:0|0:0|0:0,0:0:0:0:
275,79,64618,2,0,L|308:54,3,37.5,8|0|0|0,0:0|0:0|0:0|0:0,0:0:0:0:
345,64,64951,6,0,P|391:68|447:170,1,150,4|8,0:0|0:0,0:0:0:0:
366,150,65451,1,0,0:0:0:0:
413,217,65618,2,0,P|414:258|396:295,1,75,0|0,0:0|0:0,0:0:0:0:
318,286,65951,2,0,L|242:278,1,75,8|0,0:0|0:0,0:0:0:0:
169,315,66285,6,0,P|196:260|170:194,1,112.5,4|0,0:0|0:0,0:0:0:0:
149,191,66618,2,0,P|107:202|61:202,1,75,8|0,0:0|0:0,0:0:0:0:
43,67,66951,1,0,0:0:0:0:
9,142,67118,1,0,0:0:0:0:
127,49,67285,2,0,P|169:72|202:78,1,75,8|0,0:0|0:0,0:0:0:0:
245,12,67618,6,0,P|243:71|308:141,1,150,4|8,0:0|0:0,0:0:0:0:
381,126,68118,1,0,0:0:0:0:
442,70,68285,1,0,0:0:0:0:
402,142,68451,1,0,0:0:0:0:
401,224,68618,1,8,0:0:0:0:
433,299,68785,1,0,0:0:0:0:
433,299,68868,1,0,0:0:0:0:
433,299,68951,6,0,P|386:307|350:301,1,75,4|0,0:0|0:0,0:0:0:0:
239,212,69285,2,0,P|266:239|282:275,1,75,8|0,0:0|0:0,0:0:0:0:
156,307,69618,1,8,0:0:0:0:
160,181,69785,1,8,0:0:0:0:
136,320,69951,1,8,0:0:0:0:
83,201,70118,1,8,0:0:0:0:
83,201,70201,1,8,0:0:0:0:
83,201,70285,6,0,P|70:149|87:41,1,150,4|8,0:0|0:0,0:0:0:0:
162,38,70785,1,0,0:0:0:0:
228,86,70951,2,0,P|261:97|309:96,1,75
370,52,71285,2,0,P|411:42|456:42,1,75,8|0,0:0|0:0,0:0:0:0:
455,122,71618,6,0,B|438:158|452:196|452:196|468:243|451:281,1,150,4|8,0:0|0:0,0:0:0:0:
378,239,72118,1,0,0:0:0:0:
304,277,72285,2,0,P|261:288|221:283,1,75,0|0,0:0|0:0,0:0:0:0:
162,239,72618,2,0,L|172:153,1,75,8|0,0:0|0:0,0:0:0:0:
231,107,72951,6,0,P|165:128|116:102,1,112.5,4|0,0:0|0:0,0:0:0:0:
98,83,73285,2,0,L|109:7,1,75,8|0,0:0|0:0,0:0:0:0:
20,132,73618,2,0,L|37:222,1,75,0|0,0:0|0:0,0:0:0:0:
87,347,73951,2,0,P|79:308|87:267,1,75,8|0,0:0|0:0,0:0:0:0:
162,239,74285,6,0,P|206:258|331:238,1,150,4|2,0:0|0:0,0:0:0:0:
376,208,74785,1,8,0:0:0:0:
349,86,74951,1,8,0:0:0:0:
267,182,75118,1,8,0:0:0:0:
376,208,75285,1,8,0:0:0:0:
376,208,75451,1,0,0:0:0:0:
261,99,75618,6,0,P|186:117|143:86,1,112.5,4|0,0:0|0:0,0:0:0:0:
135,67,75951,2,0,P|126:125|111:163,1,75,8|0,0:0|0:0,0:0:0:0:
46,177,76285,2,0,P|35:227|33:269,1,75,0|0,0:0|0:0,0:0:0:0:
89,310,76618,2,0,L|166:298,1,75,8|0,0:0|0:0,0:0:0:0:
201,225,76951,6,0,P|192:302|255:356,1,150,4|8,0:0|0:0,0:0:0:0:
268,273,77451,1,0,0:0:0:0:
320,336,77618,2,0,L|403:328,1,75,2|0,0:0|0:0,0:0:0:0:
451,268,77951,1,8,0:0:0:0:
402,200,78118,1,0,0:0:0:0:
462,143,78285,6,0,P|472:107|442:32,1,112.5,4|0,0:0|0:0,0:0:0:0:
409,53,78618,2,0,P|362:78|332:83,1,75,8|0,0:0|0:0,0:0:0:0:
262,55,78951,2,0,P|195:40|103:52,1,150,8|8,0:0|0:0,0:0:0:0:
63,113,79451,1,0,0:0:0:0:
124,168,79618,6,0,P|141:220|141:253,1,75,8|0,0:0|0:0,0:0:0:0:
28,350,79951,2,0,P|47:319|84:291,1,75,8|0,0:0|0:0,0:0:0:0:
217,279,80285,2,0,L|262:288,3,37.5,10|0|0|0,0:0|0:0|0:0|0:0,0:0:0:0:
286,311,80618,2,0,L|341:321,3,37.5,10|0|0|0,0:0|0:0|0:0|0:0,0:0:0:0:
359,336,80951,6,0,B|410:295|412:241|412:241|392:209|392:209|443:152|410:62|335:66,1,337.500012874604,4|0,0:0|0:0,0:0:0:0:
189,135,82285,5,8,0:0:0:0:
333,144,82451,1,8,0:0:0:0:
258,201,82618,2,0,P|255:247|243:275,1,56.2500021457673,0|0,0:0|0:0,0:0:0:0:
181,300,82951,6,0,L|146:293,3,28.1250010728836,2|0|0|0,0:0|0:0|0:0|0:0,0:0:0:0:
123,303,83285,2,0,L|78:293,3,28.1250010728836,2|0|0|0,0:0|0:0|0:0|0:0,0:0:0:0:
56,311,83618,6,0,L|41:162,1,150,4|0,0:0|1:0,0:0:0:0:
82,89,84118,1,0,0:0:0:0:
154,128,84285,2,0,P|197:139|236:134,1,75,8|0,0:0|0:0,0:0:0:0:
305,110,84618,1,8,0:0:0:0:
330,87,84951,6,0,P|330:149|370:231,1,150,4|0,0:0|1:0,0:0:0:0:
446,249,85451,1,0,0:0:0:0:
479,173,85618,2,0,P|491:136|490:83,1,75,8|0,0:0|0:0,0:0:0:0:
442,34,85951,1,8,0:0:0:0:
415,47,86285,6,0,P|372:59|258:49,1,150,4|0,0:0|1:0,0:0:0:0:
186,67,86785,2,0,P|148:62|96:68,1,75,0|8,0:0|0:0,0:0:0:0:
70,136,87118,1,0,0:0:0:0:
80,217,87285,1,8,0:0:0:0:
179,158,87451,1,0,0:0:0:0:
91,297,87618,5,4,0:0:0:0:
