osu file format v14

[General]
AudioFilename: audio.mp3
AudioLeadIn: 1511
PreviewTime: 58868
Countdown: 0
SampleSet: Soft
StackLeniency: 0.7
Mode: 0
LetterboxInBreaks: 0
WidescreenStoryboard: 0

[Editor]
DistanceSpacing: 1.3
BeatDivisor: 4
GridSize: 4
TimelineZoom: 3.299999

[Metadata]
Title:Sakurane
TitleUnicode:桜音
Artist:Piko
ArtistUnicode:ピコ
Creator:kanor
Version:My Pride
Source:よりぬき銀魂さん
Tags:さくらね samfree タイラヨオ yorinuki gintama san tv size ending [_Abhor_] Sandrew Ryuusei Aika rsak
BeatmapID:1382695
BeatmapSetID:652066

[Difficulty]
HPDrainRate:6
CircleSize:4
OverallDifficulty:8
ApproachRate:9
SliderMultiplier:1.6
SliderTickRate:1

[Events]
//Background and Video events
0,0,"gintama.jpg",0,0
Video,250,"Yorinuki Gintama-san ED4.AVI"
//Break Periods
//Storyboard Layer 0 (Background)
//Storyboard Layer 1 (Fail)
//Storyboard Layer 2 (Pass)
//Storyboard Layer 3 (Foreground)
//Storyboard Sound Samples

[TimingPoints]
952,333.333333333333,4,2,2,35,1,0
952,-125,4,2,2,35,0,0
2951,-125,4,2,2,70,0,0
27618,-100,4,2,1,70,0,0
34285,-166.666666666667,4,2,1,70,0,0
34951,-166.666666666667,4,2,1,50,0,0
35618,-111.111111111111,4,2,1,50,0,0
44951,-111.111111111111,4,2,1,75,0,0
46285,-111.111111111111,4,2,1,60,0,0
50118,-111.111111111111,4,2,1,70,0,0
51618,-111.111111111111,4,2,1,60,0,0
57118,-111.111111111111,4,2,1,10,0,0
59618,-90.9090909090908,4,2,1,80,0,1
74785,-90.9090909090908,4,2,1,80,0,1
78951,-90.9090909090908,4,2,1,80,0,1
83618,-100,4,2,1,70,0,0

[Colours]
Combo1 : 255,155,106
Combo2 : 255,155,155
Combo3 : 250,214,139
Combo4 : 251,104,79

[HitObjects]
28,44,952,5,8,0:0:0:0:
112,68,1285,1,0,0:0:0:0:
284,128,1618,1,0,0:0:0:0:
200,152,1951,1,0,0:0:0:0:
40,188,2285,5,8,0:0:0:0:
124,212,2618,1,0,0:0:0:0:
296,272,2951,1,8,0:0:0:0:
212,296,3285,1,8,0:0:0:0:
368,116,3618,6,0,P|392:184|368:260,1,128,8|0,0:0|0:0,0:0:0:0:
492,348,4285,2,0,P|468:280|492:204,1,128,2|0,0:0|0:0,0:0:0:0:
396,336,4951,2,0,B|328:296|268:372|196:316,1,192,8|0,0:0|0:0,0:0:0:0:
156,272,5618,1,2,0:0:0:0:
24,332,5951,1,2,0:0:0:0:
28,140,6285,6,0,P|56:196|28:268,1,128,8|0,0:0|0:0,0:0:0:0:
128,136,6951,2,0,P|100:80|128:8,1,128,2|0,0:0|0:0,0:0:0:0:
256,76,7618,2,0,P|284:132|256:204,1,128,8|0,0:0|0:0,0:0:0:0:
208,140,8285,1,2,0:0:0:0:
360,84,8618,1,2,0:0:0:0:
224,56,8951,5,8,0:0:0:0:
392,76,9285,1,0,0:0:0:0:
288,216,9618,1,2,0:0:0:0:
416,68,9951,1,0,0:0:0:0:
408,260,10285,1,8,0:0:0:0:
208,140,10618,1,2,0:0:0:0:
208,140,10785,1,2,0:0:0:0:
208,140,10951,1,2,0:0:0:0:
472,164,11285,1,2,0:0:0:0:
312,336,11618,6,0,P|248:352|176:328,1,128,8|0,0:0|0:0,0:0:0:0:
124,304,12118,1,0,0:0:0:0:
124,304,12285,2,0,P|60:288|-12:312,1,128,2|0,0:0|0:0,0:0:0:0:
208,236,12951,2,0,P|272:220|344:244,1,128,8|0,0:0|0:0,0:0:0:0:
112,180,13618,1,2,0:0:0:0:
112,180,13951,1,2,0:0:0:0:
20,72,14285,6,0,L|60:128,1,64,8|0,0:0|0:0,0:0:0:0:
120,44,14618,2,0,L|138:110,1,64,0|0,0:0|0:0,0:0:0:0:
224,60,14951,2,0,L|218:128,1,64,2|0,0:0|0:0,0:0:0:0:
308,128,15285,2,0,L|279:190,1,64,0|0,0:0|0:0,0:0:0:0:
360,60,15618,5,8,0:0:0:0:
384,88,15951,1,0,0:0:0:0:
488,128,16285,5,2,0:0:0:0:
432,192,16618,1,2,0:0:0:0:
336,236,16951,5,8,0:0:0:0:
448,344,17285,1,0,0:0:0:0:
228,332,17618,1,2,0:0:0:0:
393,290,17951,1,0,0:0:0:0:
136,236,18285,6,0,P|176:244|220:280,1,64,8|0,0:0|0:0,0:0:0:0:
64,320,18618,2,0,P|24:312|-20:276,1,64,0|0,0:0|0:0,0:0:0:0:
144,312,18951,2,0,P|136:352|100:396,1,64,2|0,0:0|0:0,0:0:0:0:
56,240,19285,2,2,P|64:200|100:156,1,64,2|2,0:0|0:0,0:0:0:0:
132,36,19618,5,8,0:0:0:0:
252,136,19951,1,0,0:0:0:0:
148,16,20285,1,2,0:0:0:0:
176,192,20618,1,0,0:0:0:0:
176,192,20785,1,0,0:0:0:0:
176,192,20951,5,8,0:0:0:0:
276,36,21285,1,0,0:0:0:0:
120,52,21618,1,2,0:0:0:0:
300,156,21951,1,2,0:0:0:0:
300,156,22118,1,2,0:0:0:0:
300,156,22285,6,0,L|280:296,1,128,8|0,0:0|0:0,0:0:0:0:
420,100,22951,2,0,L|400:240,1,128,2|0,0:0|0:0,0:0:0:0:
396,308,23451,1,0,0:0:0:0:
396,308,23618,6,0,L|480:312,1,64,8|0,0:0|0:0,0:0:0:0:
312,360,23951,2,0,L|228:356,1,64,0|0,0:0|0:0,0:0:0:0:
380,296,24285,2,0,L|464:300,1,64,2|0,0:0|0:0,0:0:0:0:
300,344,24618,2,2,L|216:340,1,64,2|2,0:0|0:0,0:0:0:0:
152,248,24951,5,10,0:0:0:0:
128,48,26285,1,2,0:0:0:0:
72,112,26951,6,0,L|32:108,5,21.3333333333333
140,168,27285,2,0,L|180:164,5,21.3333333333333
76,228,27618,6,0,L|80:324,1,80,4|0,0:0|0:0,0:0:0:0:
208,356,27951,2,0,L|204:260,1,80,8|0,0:0|0:0,0:0:0:0:
296,128,28285,1,0,0:0:0:0:
250,212,28451,1,0,0:0:0:0:
380,173,28618,1,8,0:0:0:0:
335,257,28785,1,0,0:0:0:0:
432,116,28951,6,0,P|456:156|444:220,1,80,0|0,0:0|0:0,0:0:0:0:
328,112,29285,2,0,P|304:152|316:216,1,80,8|0,0:0|0:0,0:0:0:0:
464,76,29618,2,0,P|500:105|510:169,1,80,0|0,0:0|0:0,0:0:0:0:
304,72,29951,2,0,P|267:101|257:165,1,80,8|0,0:0|0:0,0:0:0:0:
124,120,30285,6,0,L|124:16,1,80,4|0,0:0|0:0,0:0:0:0:
36,168,30618,2,0,L|36:64,1,80,8|0,0:0|0:0,0:0:0:0:
208,168,30951,1,0,0:0:0:0:
120,216,31118,1,0,0:0:0:0:
304,216,31285,1,8,0:0:0:0:
216,264,31451,1,0,0:0:0:0:
200,72,31618,6,0,P|240:68|300:88,1,80,0|0,0:0|0:0,0:0:0:0:
496,132,31951,2,0,P|428:128|356:176,1,120,8|0,0:0|0:0,0:0:0:0:
352,180,32285,1,0,0:0:0:0:
472,288,32451,1,0,0:0:0:0:
256,244,32618,1,8,0:0:0:0:
236,228,32951,6,0,P|228:184|244:136,1,80,4|0,0:0|0:0,0:0:0:0:
164,304,33285,2,0,P|128:336|80:343,1,80,8|0,0:0|0:0,0:0:0:0:
16,148,33618,1,0,0:0:0:0:
96,264,33785,1,0,0:0:0:0:
128,92,33951,1,8,0:0:0:0:
128,92,34035,1,0,0:0:0:0:
128,92,34118,1,0,0:0:0:0:
236,228,34285,6,0,P|287:258|228:249,1,167.999994873047,4|0,0:0|0:0,0:0:0:0:
228,249,34951,6,0,L|220:312,1,47.9999985351563,2|0,0:0|0:0,0:0:0:0:
348,344,35285,2,0,L|354:296,1,47.9999985351563,2|0,0:0|0:0,0:0:0:0:
416,168,35618,6,0,L|508:172,1,71.9999978027344,4|0,0:0|0:0,0:0:0:0:
432,248,35951,1,8,0:0:0:0:
408,88,36118,2,0,L|500:92,1,71.9999978027344,0|0,0:0|0:0,0:0:0:0:
352,216,36451,2,0,L|260:212,1,71.9999978027344,8|0,0:0|0:0,0:0:0:0:
228,132,36785,1,0,0:0:0:0:
269,52,36951,5,2,0:0:0:0:
322,132,37118,1,0,0:0:0:0:
168,60,37285,2,0,P|132:52|96:57,1,71.9999978027344,8|0,0:0|0:0,0:0:0:0:
72,188,37618,1,0,0:0:0:0:
132,128,37785,1,0,0:0:0:0:
72,308,37951,1,8,0:0:0:0:
12,248,38118,1,0,0:0:0:0:
216,248,38285,6,0,L|204:336,1,71.9999978027344,2|0,0:0|0:0,0:0:0:0:
144,220,38618,1,8,0:0:0:0:
292,280,38785,2,0,L|280:368,1,71.9999978027344,0|0,0:0|0:0,0:0:0:0:
372,216,39118,2,0,L|360:128,1,71.9999978027344,8|0,0:0|0:0,0:0:0:0:
348,64,39451,1,0,0:0:0:0:
468,120,39618,5,2,0:0:0:0:
488,8,39785,1,0,0:0:0:0:
476,148,39951,2,0,L|485:219,1,71.9999978027344,8|0,0:0|0:0,0:0:0:0:
468,356,40285,1,0,0:0:0:0:
356,220,40451,1,0,0:0:0:0:
504,284,40618,1,8,0:0:0:0:
332,300,40785,1,0,0:0:0:0:
332,300,40868,1,0,0:0:0:0:
332,300,40951,6,0,P|292:292|240:308,1,71.9999978027344,4|0,0:0|0:0,0:0:0:0:
116,344,41285,2,0,P|156:352|208:336,1,71.9999978027344,8|0,0:0|0:0,0:0:0:0:
232,184,41618,1,0,0:0:0:0:
152,276,41785,1,8,0:0:0:0:
100,168,41951,1,0,0:0:0:0:
276,120,42118,6,0,P|308:168|272:256,1,143.999995605469,0|0,0:0|0:0,0:0:0:0:
232,184,42618,1,8,0:0:0:0:
328,56,42785,2,0,L|424:56,1,71.9999978027344,0|0,0:0|0:0,0:0:0:0:
512,88,43118,1,0,0:0:0:0:
432,160,43285,1,8,0:0:0:0:
400,56,43451,1,0,0:0:0:0:
444,200,43618,6,0,L|436:280,1,71.9999978027344,4|0,0:0|0:0,0:0:0:0:
328,268,43951,2,0,L|344:352,1,71.9999978027344,8|0,0:0|0:0,0:0:0:0:
204,232,44285,1,0,1:0:0:0:
196,303,44451,1,0,1:0:0:0:
68,268,44618,1,8,0:0:0:0:
81,338,44785,1,0,0:0:0:0:
52,192,44951,5,2,0:0:0:0:
228,96,45118,1,0,0:0:0:0:
126,149,45285,1,2,0:0:0:0:
124,48,45451,1,0,0:0:0:0:
216,188,45618,5,8,0:0:0:0:
251,191,45701,1,0,0:0:0:0:
287,194,45785,1,0,0:0:0:0:
323,198,45868,1,0,0:0:0:0:
368,176,45951,1,8,0:0:0:0:
403,173,46035,1,0,0:0:0:0:
439,169,46118,1,0,0:0:0:0:
475,166,46201,1,0,0:0:0:0:
508,204,46285,6,0,L|492:296,1,71.9999978027344,4|0,0:0|0:0,0:0:0:0:
472,360,46618,1,0,1:0:0:0:
404,156,46785,2,0,L|420:247,1,71.9999978027344,8|0,0:0|0:0,0:0:0:0:
268,140,47118,2,0,L|314:220,1,71.9999978027344,8|0,0:0|0:0,0:0:0:0:
155,248,47451,6,0,B|174:209|174:209|262:281,1,143.999995605469,4|0,0:0|0:0,0:0:0:0:
68,284,47951,1,0,1:0:0:0:
16,160,48118,1,0,0:0:0:0:
84,312,48285,5,8,0:0:0:0:
116,326,48368,1,0,0:0:0:0:
152,327,48451,1,0,0:0:0:0:
185,313,48535,1,0,0:0:0:0:
220,288,48618,1,8,0:0:0:0:
252,273,48701,1,0,0:0:0:0:
288,272,48785,1,0,0:0:0:0:
321,286,48868,1,0,0:0:0:0:
352,312,48951,6,0,L|452:320,1,71.9999978027344,4|0,0:0|0:0,0:0:0:0:
332,384,49285,1,0,1:0:0:0:
372,232,49451,2,0,L|472:240,1,71.9999978027344,8|0,0:0|0:0,0:0:0:0:
316,148,49785,2,0,L|244:142,1,71.9999978027344,8|0,0:0|0:0,0:0:0:0:
391,98,50118,6,0,B|407:154|407:154|363:250,1,143.999995605469,4|0,0:0|0:0,0:0:0:0:
244,142,50618,1,0,1:0:0:0:
168,40,50785,1,0,0:0:0:0:
68,120,50951,5,8,0:0:0:0:
64,152,51035,1,0,0:0:0:0:
60,184,51118,1,8,0:0:0:0:
56,216,51201,1,0,0:0:0:0:
92,248,51285,1,12,0:0:0:0:
96,280,51368,1,0,0:0:0:0:
100,312,51451,1,0,0:0:0:0:
104,344,51535,1,0,0:0:0:0:
144,364,51618,6,0,P|184:368|232:348,1,71.9999978027344,4|0,0:0|0:0,0:0:0:0:
272,240,51951,1,0,1:0:0:0:
384,360,52118,2,0,P|344:364|296:344,1,71.9999978027344,8|0,0:0|0:0,0:0:0:0:
448,232,52451,2,0,P|471:264|478:316,1,71.9999978027344,8|0,0:0|0:0,0:0:0:0:
296,252,52785,6,0,B|276:200|276:200|304:96,1,143.999995605469,4|0,0:0|0:0,0:0:0:0:
344,40,53285,1,0,1:0:0:0:
488,152,53451,1,0,0:0:0:0:
488,152,53535,1,0,0:0:0:0:
488,152,53618,1,8,0:0:0:0:
360,188,53785,1,0,0:0:0:0:
424,16,53951,1,8,0:0:0:0:
268,264,54285,6,0,L|176:260,1,71.9999978027344,4|0,0:0|0:0,0:0:0:0:
104,336,54618,2,0,L|196:332,1,71.9999978027344,0|0,1:0|0:0,0:0:0:0:
208,188,54951,1,8,0:0:0:0:
16,220,55118,1,0,0:0:0:0:
136,364,55285,1,8,0:0:0:0:
93,122,55451,6,0,P|135:67|136:136,1,179.999994506836,4|0,0:0|0:0,0:0:0:0:
136,136,55951,2,0,L|200:136,1,35.9999989013672
304,76,56118,2,0,L|240:76,1,35.9999989013672
248,176,56285,5,0,0:0:0:0:
234,208,56368,1,0,0:0:0:0:
233,244,56451,1,0,0:0:0:0:
247,277,56535,1,0,0:0:0:0:
268,304,56618,5,0,0:0:0:0:
300,318,56701,1,0,0:0:0:0:
336,319,56785,1,0,0:0:0:0:
369,305,56868,1,0,0:0:0:0:
396,284,56951,5,6,0:0:0:0:
256,192,57035,12,2,58951,0:0:0:0:
432,48,59618,6,0,L|424:192,1,132.00000402832,4|0,0:0|0:0,0:0:0:0:
400,204,59951,2,0,P|368:196|304:204,1,88.000002685547,8|0,0:0|0:0,0:0:0:0:
176,80,60285,1,0,0:0:0:0:
244,228,60451,1,0,0:0:0:0:
64,200,60618,1,8,0:0:0:0:
212,248,60785,1,0,0:0:0:0:
48,168,60951,6,0,L|32:276,1,88.000002685547,4|0,0:0|0:0,0:0:0:0:
200,356,61285,2,0,L|184:248,1,88.000002685547,8|0,0:0|0:0,0:0:0:0:
176,80,61618,2,0,L|160:188,1,88.000002685547,0|0,0:0|0:0,0:0:0:0:
328,268,61951,2,0,L|312:160,1,88.000002685547,8|0,0:0|0:0,0:0:0:0:
444,56,62285,6,0,L|428:164,1,88.000002685547,4|0,0:0|0:0,0:0:0:0:
460,252,62618,1,8,0:0:0:0:
460,252,62785,1,0,0:0:0:0:
320,8,62951,2,0,L|304:116,1,88.000002685547,0|0,0:0|0:0,0:0:0:0:
328,268,63285,1,8,0:0:0:0:
328,268,63451,1,0,0:0:0:0:
204,96,63618,6,0,L|180:232,1,132.00000402832,4|0,0:0|0:0,0:0:0:0:
164,248,63951,2,0,P|120:236|68:256,1,88.000002685547,8|0,0:0|0:0,0:0:0:0:
264,352,64285,1,0,0:0:0:0:
328,168,64451,1,0,0:0:0:0:
308,344,64618,1,8,0:0:0:0:
288,180,64785,1,0,0:0:0:0:
456,264,64951,6,0,P|408:272|364:260,1,88.000002685547,4|0,0:0|0:0,0:0:0:0:
320,80,65285,2,0,P|350:117|362:161,1,88.000002685547,8|0,0:0|0:0,0:0:0:0:
220,288,65618,2,0,P|237:242|269:210,1,88.000002685547,0|0,0:0|0:0,0:0:0:0:
128,336,65951,2,0,P|80:344|36:332,1,88.000002685547,8|0,0:0|0:0,0:0:0:0:
84,160,66285,6,0,P|114:197|126:241,1,88.000002685547,4|0,0:0|0:0,0:0:0:0:
48,60,66618,1,8,0:0:0:0:
196,168,66785,1,0,0:0:0:0:
328,72,66951,2,0,P|280:64|236:88,1,88.000002685547,0|0,0:0|0:0,0:0:0:0:
448,148,67285,2,0,L|468:24,1,88.000002685547,8|0,0:0|0:0,0:0:0:0:
364,161,67618,5,4,0:0:0:0:
296,280,67785,1,0,0:0:0:0:
270,185,67951,1,8,0:0:0:0:
389,254,68118,1,0,0:0:0:0:
329,131,68285,5,8,0:0:0:0:
330,309,68451,1,0,0:0:0:0:
239,219,68618,1,8,0:0:0:0:
418,219,68785,1,0,0:0:0:0:
208,332,68951,5,12,0:0:0:0:
248,144,69118,1,0,0:0:0:0:
352,328,69285,1,8,0:0:0:0:
88,216,69451,1,0,0:0:0:0:
260,64,69618,5,8,0:0:0:0:
280,368,69785,1,0,0:0:0:0:
52,216,69951,1,8,0:0:0:0:
329,131,70118,1,8,0:0:0:0:
329,131,70201,1,8,0:0:0:0:
329,131,70285,6,0,B|376:120|376:120|416:132|416:132|476:116,1,132.00000402832,4|0,0:0|0:0,0:0:0:0:
488,112,70618,2,0,L|472:224,1,88.000002685547,8|0,0:0|0:0,0:0:0:0:
440,352,70951,1,0,0:0:0:0:
372,204,71118,1,0,0:0:0:0:
344,344,71285,1,8,0:0:0:0:
276,196,71451,1,0,0:0:0:0:
160,304,71618,6,0,P|204:312|256:288,1,88.000002685547,4|0,0:0|0:0,0:0:0:0:
120,156,71951,2,0,P|76:148|24:172,1,88.000002685547,8|0,0:0|0:0,0:0:0:0:
244,340,72285,2,0,P|280:314|300:260,1,88.000002685547,0|0,0:0|0:0,0:0:0:0:
84,184,72618,2,0,P|47:209|27:263,1,88.000002685547,8|0,0:0|0:0,0:0:0:0:
328,328,72951,6,0,P|336:284|312:232,1,88.000002685547,4|0,0:0|0:0,0:0:0:0:
204,148,73285,1,8,0:0:0:0:
204,148,73451,1,0,0:0:0:0:
416,220,73618,2,0,P|390:183|336:163,1,88.000002685547,0|0,0:0|0:0,0:0:0:0:
232,224,73951,1,8,0:0:0:0:
232,224,74118,1,0,0:0:0:0:
396,88,74285,6,0,P|351:75|268:116,1,132.00000402832,4|0,0:0|0:0,0:0:0:0:
244,120,74618,2,0,L|128:112,1,88.000002685547,10|0,0:0|0:0,0:0:0:0:
32,188,74951,1,8,0:0:0:0:
72,116,75118,1,0,0:0:0:0:
156,264,75285,1,8,0:0:0:0:
116,192,75451,1,0,0:0:0:0:
112,360,75618,6,0,B|160:340|160:340|264:348,1,132.00000402832,6|0,0:0|0:0,0:0:0:0:
268,348,75951,2,0,P|312:368|372:352,1,88.000002685547,8|0,0:0|0:0,0:0:0:0:
440,224,76285,1,8,0:0:0:0:
324,288,76451,1,0,0:0:0:0:
472,348,76618,1,8,0:0:0:0:
332,204,76785,1,0,0:0:0:0:
472,48,76951,6,0,L|448:156,1,88.000002685547,6|0,0:0|0:0,0:0:0:0:
252,180,77285,2,0,L|276:72,1,88.000002685547,8|0,0:0|0:0,0:0:0:0:
412,248,77618,2,0,P|364:256|324:240,1,88.000002685547,10|0,0:0|0:0,0:0:0:0:
168,140,77951,1,8,0:0:0:0:
225,288,78118,1,0,0:0:0:0:
72,280,78285,6,0,B|116:256|116:256|212:288,1,132.00000402832,6|0,0:0|0:0,0:0:0:0:
225,288,78618,2,0,L|245:184,1,88.000002685547,8|0,0:0|0:0,0:0:0:0:
440,224,78951,1,8,0:0:0:0:
328,288,79118,1,0,0:0:0:0:
340,148,79285,1,8,0:0:0:0:
424,336,79451,1,0,0:0:0:0:
412,100,79618,5,8,0:0:0:0:
328,288,79785,1,0,0:0:0:0:
268,24,79951,1,8,0:0:0:0:
246,228,80118,1,0,0:0:0:0:
144,56,80285,1,10,0:0:0:0:
106,34,80368,1,0,0:0:0:0:
63,41,80451,1,0,0:0:0:0:
34,73,80535,1,0,0:0:0:0:
31,116,80618,1,10,0:0:0:0:
55,152,80701,1,0,0:0:0:0:
96,165,80785,1,0,0:0:0:0:
137,149,80868,1,0,0:0:0:0:
159,112,80951,5,12,0:0:0:0:
184,344,82285,5,8,0:0:0:0:
360,260,82451,1,8,0:0:0:0:
452,328,82951,6,0,L|500:332,5,29.3333342285157,2|0|0|0|0|0,0:0|0:0|0:0|0:0|0:0|0:0,0:0:0:0:
384,260,83285,2,0,L|336:264,5,29.3333342285157,2|0|0|0|0|0,0:0|0:0|0:0|0:0|0:0|0:0,0:0:0:0:
480,236,83618,6,0,L|476:136,1,80,4|0,0:0|0:0,0:0:0:0:
352,92,83951,2,0,L|356:180,1,80,0|0,1:0|0:0,0:0:0:0:
216,240,84285,1,8,0:0:0:0:
262,156,84451,1,0,0:0:0:0:
132,195,84618,1,8,0:0:0:0:
177,111,84785,1,0,0:0:0:0:
80,252,84951,6,0,P|56:212|68:148,1,80,4|0,0:0|0:0,0:0:0:0:
184,256,85285,2,0,P|208:216|196:152,1,80,0|0,1:0|0:0,0:0:0:0:
48,292,85618,2,0,P|12:263|2:199,1,80,8|0,0:0|0:0,0:0:0:0:
208,296,85951,2,0,P|245:267|255:203,1,80,8|0,0:0|0:0,0:0:0:0:
328,340,86285,6,0,L|432:340,1,80,4|0,0:0|0:0,0:0:0:0:
512,212,86618,2,0,L|408:212,1,80,0|0,1:0|0:0,0:0:0:0:
400,224,86868,1,0,0:0:0:0:
400,224,86951,1,8,0:0:0:0:
320,156,87118,1,0,0:0:0:0:
216,216,87285,1,8,0:0:0:0:
108,128,87451,1,0,0:0:0:0:
24,248,87618,5,4,0:0:0:0:
