osu file format v14

[General]
AudioFilename: audio.mp3
AudioLeadIn: 0
PreviewTime: 58576
Countdown: 0
SampleSet: Soft
StackLeniency: 0.3
Mode: 0
LetterboxInBreaks: 0
WidescreenStoryboard: 1

[Editor]
Bookmarks: 27243,45993
DistanceSpacing: 0.8
BeatDivisor: 4
GridSize: 8
TimelineZoom: 1.7

[Metadata]
Title:Sakurane (TV Size)
TitleUnicode:桜音 (TV Size)
Artist:Piko
ArtistUnicode:ピコ
Creator:Smoke
Version:chill's Insane
Source:よりぬき銀魂さん
Tags:japanese anime pop jpop j-pop jrock j-rock rock 4th fourth ending ed Yorinuki Gintama-san gintama sakata gintoki verychill
BeatmapID:2570318
BeatmapSetID:1230279

[Difficulty]
HPDrainRate:5
CircleSize:4
OverallDifficulty:7.5
ApproachRate:9
SliderMultiplier:1.5
SliderTickRate:1

[Events]
//Background and Video events
0,0,"sakurane wallpaper gintama.jpg",0,0
Video,0,"vid.mp4"
//Break Periods
//Storyboard Layer 0 (Background)
//Storyboard Layer 1 (Fail)
//Storyboard Layer 2 (Pass)
//Storyboard Layer 3 (Foreground)
//Storyboard Layer 4 (Overlay)
//Storyboard Sound Samples

[TimingPoints]
650,333.333333333333,4,2,1,50,1,0
650,-166.666666666667,4,2,1,50,0,0
3316,-142.857142857143,4,2,1,60,0,0
10149,-142.857142857143,4,2,1,60,0,0
10316,-142.857142857143,4,2,1,60,0,0
18149,-142.857142857143,4,2,1,60,0,0
18316,-142.857142857143,4,2,1,60,0,0
22649,-117.647058823529,4,2,1,60,0,0
24649,-133.333333333333,4,2,1,60,0,0
25316,-153.846153846154,4,2,1,60,0,0
26649,-153.846153846154,4,2,1,48,0,0
26733,-153.846153846154,4,2,1,52,0,0
26816,-153.846153846154,4,2,1,56,0,0
26899,-153.846153846154,4,2,1,60,0,0
26983,-153.846153846154,4,2,1,64,0,0
27066,-153.846153846154,4,2,1,68,0,0
27149,-153.846153846154,4,2,1,72,0,0
27233,-153.846153846154,4,2,1,76,0,0
27316,-100,4,2,1,80,0,0
28566,-100,4,2,1,5,0,0
28649,-100,4,2,1,80,0,0
31233,-100,4,2,1,5,0,0
31316,-100,4,2,1,80,0,0
33983,-178.571428571429,4,2,1,75,0,0
35233,-166.666666666667,4,2,1,75,0,0
35316,-125,4,2,1,65,0,0
44816,-76.9230769230769,4,2,1,65,0,0
44983,-76.9230769230769,4,2,1,68,0,0
45983,-153.846153846154,4,2,1,70,0,0
46483,-333.333333333332,4,2,1,70,0,0
46816,-71.4285714285714,4,2,1,70,0,0
46899,-71.4285714285714,4,2,1,5,0,0
47149,-71.4285714285714,4,2,1,70,0,0
47649,-100,4,2,1,70,0,0
49149,-333.333333333332,4,2,1,70,0,0
49483,-71.4285714285714,4,2,1,70,0,0
49566,-71.4285714285714,4,2,1,5,0,0
49816,-71.4285714285714,4,2,1,70,0,0
50316,-100,4,2,1,70,0,0
50983,-153.846153846154,4,2,1,70,0,0
51233,-153.846153846154,4,2,1,5,0,0
51316,-100,4,2,1,70,0,0
53983,-83.3333333333333,4,2,1,70,0,0
55149,-86.9565217391304,4,2,1,70,0,0
55983,-86.9565217391304,4,2,1,48,0,0
56066,-86.9565217391304,4,2,1,52,0,0
56149,-86.9565217391304,4,2,1,56,0,0
56233,-86.9565217391304,4,2,1,60,0,0
56316,-86.9565217391304,4,2,1,64,0,0
56399,-86.9565217391304,4,2,1,68,0,0
56483,-86.9565217391304,4,2,1,72,0,0
56566,-86.9565217391304,4,2,1,76,0,0
56649,-86.9565217391304,4,2,1,80,0,0
58649,-500,4,2,1,50,0,0
59316,-125,4,2,1,85,0,1
59566,-100,4,2,1,5,0,1
59649,-74.0740740740741,4,2,1,85,0,1
68566,-74.0740740740741,4,2,1,5,0,1
68649,-74.0740740740741,4,2,1,85,0,1
69983,-125,4,2,1,85,0,1
70233,-125,4,2,1,5,0,1
70316,-74.0740740740741,4,2,1,85,0,1
75316,-86.9565217391304,4,2,1,85,0,1
77983,-74.0740740740741,4,2,1,85,0,1
80649,-178.571428571429,4,2,1,75,0,0
81983,-100,4,2,1,70,0,0
82649,-100,4,2,1,48,0,0
82733,-100,4,2,1,52,0,0
82816,-100,4,2,1,56,0,0
82899,-100,4,2,1,60,0,0
82983,-100,4,2,1,64,0,0
83066,-100,4,2,1,68,0,0
83149,-100,4,2,1,72,0,0
83233,-100,4,2,1,76,0,0
83316,-83.3333333333333,4,2,1,80,0,1
84566,-83.3333333333333,4,2,1,5,0,1
84649,-83.3333333333333,4,2,1,80,0,1
87316,-166.666666666667,4,2,1,60,0,0
91816,-166.666666666667,4,2,1,5,0,0

[Colours]
Combo1 : 225,89,236
Combo2 : 255,81,81
Combo3 : 237,146,211
Combo4 : 231,20,20

[HitObjects]
474,290,650,5,2,0:0:0:0:
415,329,983,1,0,0:0:0:0:
348,305,1316,1,2,0:0:0:0:
334,235,1649,1,0,0:0:0:0:
360,168,1983,1,2,0:0:0:0:
328,103,2316,1,0,0:0:0:0:
91,0,2649,5,2,0:0:0:0:
38,64,2982,1,2,0:0:0:0:
190,252,3316,5,2,0:0:0:0:
256,184,3649,1,2,0:0:0:0:
232,92,3983,1,2,0:0:0:0:
139,68,4316,1,2,0:0:0:0:
1,168,4649,6,0,B|8:129|48:116|48:116|74:158|119:177|165:161,1,209.999993591309,2|2,0:0|0:0,0:0:0:0:
256,184,5649,1,2,0:0:0:0:
143,384,5983,5,2,0:0:0:0:
48,382,6316,1,2,0:0:0:0:
0,300,6650,1,2,0:0:0:0:
48,217,6983,1,2,0:0:0:0:
283,284,7316,6,0,B|272:302|248:311|248:311|221:291|191:300,1,104.999996795654,2|0,0:0|0:0,0:0:0:0:
96,301,7816,1,2,0:0:0:0:
96,301,7983,1,2,0:0:0:0:
143,217,8316,1,2,0:0:0:0:
430,205,8649,5,2,0:0:0:0:
476,289,8982,1,2,0:0:0:0:
428,370,9316,1,2,0:0:0:0:
332,370,9649,1,2,0:0:0:0:
292,168,9983,6,0,P|314:182|332:202,1,52.4999983978272,2|0,0:0|0:0,0:0:0:0:
381,287,10316,1,2,0:0:0:0:
381,287,10483,1,2,0:0:0:0:
284,286,10649,2,0,P|244:272|213:197,1,104.999996795654,2|2,0:0|0:0,0:0:0:0:
430,205,11316,6,0,P|457:150|419:63,1,157.499995193482,2|2,0:0|0:0,0:0:0:0:
346,16,11983,2,0,B|299:-7|267:-5|245:16|225:37|191:39|145:16,1,209.999993591309,2|2,0:0|0:0,0:0:0:0:
296,89,13316,5,2,0:0:0:0:
301,168,13649,1,2,0:0:0:0:
67,279,13983,6,0,P|23:262|8:262,1,52.4999983978272,2|0,0:0|0:0,0:0:0:0:
17,189,14316,2,0,P|0:145|0:130,1,52.4999983978272,2|0,0:0|0:0,0:0:0:0:
67,102,14650,1,2,0:0:0:0:
167,104,14983,1,2,0:0:0:0:
229,270,15316,6,0,B|200:264|172:273|157:300|157:300|167:223|114:189,1,209.999993591309,2|2,0:0|0:0,0:0:0:0:
215,192,16316,1,2,0:0:0:0:
295,15,16649,5,2,0:0:0:0:
256,110,16983,1,2,0:0:0:0:
316,190,17316,2,0,P|350:220|357:234,1,52.4999983978272,2|0,0:0|0:0,0:0:0:0:
414,175,17649,1,2,0:0:0:0:
395,0,17982,6,0,P|420:4|446:0,1,52.4999983978272,2|0,0:0|0:0,0:0:0:0:
358,95,18316,2,0,P|346:71|328:52,2,52.4999983978272
512,151,18816,5,2,0:0:0:0:
460,83,18983,1,2,0:0:0:0:
414,175,19149,1,2,0:0:0:0:
461,327,19316,6,0,P|501:320|528:322,1,52.4999983978272,2|0,0:0|0:0,0:0:0:0:
374,295,19649,2,0,P|397:261|418:244,1,52.4999983978272,2|0,0:0|0:0,0:0:0:0:
396,383,19983,2,0,P|344:381|300:352,1,104.999996795654,2|2,0:0|0:0,0:0:0:0:
144,297,20483,1,2,0:0:0:0:
205,384,20649,5,2,0:0:0:0:
242,286,20983,1,2,0:0:0:0:
180,181,21316,1,2,0:0:0:0:
0,333,21649,1,2,0:0:0:0:
71,384,21816,1,2,0:0:0:0:
161,263,21983,6,0,B|131:259|115:239|115:239|85:229|66:248,1,104.999996795654,2|2,0:0|0:0,0:0:0:0:
255,168,22649,2,0,B|274:155|305:149|331:166|331:166|347:162|361:151|366:134,1,127.50000243187,2|2,0:0|0:0,0:0:0:0:
257,54,23149,1,2,0:0:0:0:
171,47,23316,6,0,B|151:40|123:46|117:57|72:57|56:21|62:-17,2,127.50000243187,2|0|2,0:0|0:0|0:0,0:0:0:0:
349,0,24316,1,2,0:0:0:0:
418,53,24483,2,0,P|411:67|408:83,1,31.8750006079674,2|2,0:0|0:0,0:0:0:0:
488,0,24649,6,0,P|500:27|503:73,1,56.2500021457673,2|0,0:0|0:0,0:0:0:0:
512,190,24983,1,2,0:0:0:0:
437,233,25149,1,2,0:0:0:0:
343,164,25316,2,0,P|293:157|240:176,1,97.4999955368044,2|2,0:0|0:0,0:0:0:0:
353,289,25983,2,0,P|342:345|357:400,1,97.4999955368044,2|2,0:0|0:0,0:0:0:0:
70,357,26649,6,0,L|95:354,3,24.3749988842011,2|2|2|2,0:0|0:0|0:0|0:0,0:0:0:0:
164,305,26983,1,2,0:0:0:0:
169,292,27066,1,2,0:0:0:0:
173,266,27149,1,2,0:0:0:0:
168,231,27233,1,2,0:0:0:0:
153,192,27316,6,0,P|143:153|166:45,1,150,4|8,3:1|0:0,0:0:0:0:
462,42,27983,1,0,3:2:0:0:
357,0,28149,1,0,3:2:0:0:
291,137,28316,2,0,P|358:137|406:153,1,112.5,8|0,0:0|0:0,0:0:0:0:
365,223,28649,6,0,P|265:224|221:255,1,150,2|8,3:2|0:0,0:0:0:0:
372,381,29316,2,0,P|331:336|284:328,1,75,2|0,3:2|3:2,0:0:0:0:
470,380,29649,2,0,P|456:320|477:277,1,75,8|0,0:2|0:2,0:0:0:0:
487,91,29983,2,0,P|509:161|489:232,1,150,6|8,0:0|0:0,0:0:0:0:
368,8,30649,6,0,P|403:12|439:39,1,75,2|0,3:2|3:2,0:0:0:0:
263,0,30983,2,0,P|281:52|282:109,1,112.5,8|0,0:0|0:0,0:0:0:0:
204,112,31316,6,0,P|191:66|195:37,1,75,2|0,3:2|0:0,0:0:0:0:
268,192,31649,2,0,P|305:192|339:176,1,75,10|8,0:0|0:0,0:0:0:0:
359,348,31983,1,2,3:2:0:0:
432,296,32149,1,0,3:2:0:0:
229,284,32316,2,0,P|138:272|93:279,1,112.5,10|8,0:0|0:0,0:0:0:0:
73,215,32649,6,0,P|107:161|95:66,1,150,6|8,3:2|0:0,0:0:0:0:
281,107,33316,1,0,3:2:0:0:
181,189,33483,1,0,3:2:0:0:
50,6,33649,1,8,0:0:0:0:
32,25,33732,1,8,0:0:0:0:
26,50,33816,1,8,0:0:0:0:
71,0,33983,6,0,P|228:14|381:52,1,315.000003845215,4|0,3:1|0:0,0:0:0:0:
483,8,35316,6,0,P|427:25|396:75,1,120,4|10,3:1|0:0,0:0:0:0:
338,220,35816,1,2,0:0:0:0:
338,220,35983,2,0,P|318:180|291:154,1,60,2|8,3:2|0:0,0:0:0:0:
411,98,36483,1,2,3:2:0:0:
411,98,36649,2,0,L|419:173,2,60,2|0|8,0:0|3:2|0:0,0:0:0:0:
300,308,37316,2,0,P|335:309|376:322,1,60,2|2,3:2|3:2,0:0:0:0:
478,295,37649,1,10,0:0:0:0:
439,384,37816,1,2,0:0:0:0:
285,331,37983,6,0,P|255:272|200:239,1,120,6|10,3:2|0:0,0:0:0:0:
74,306,38483,1,2,0:0:0:0:
74,306,38649,2,0,P|115:290|151:297,1,60,2|8,3:2|0:0,0:0:0:0:
270,354,39149,1,2,3:2:0:0:
270,354,39316,2,0,L|189:365,2,60,2|0|8,0:0|3:2|0:0,0:0:0:0:
322,169,39983,1,2,3:2:0:0:
322,169,40150,1,0,3:2:0:0:
412,185,40316,1,10,0:0:0:0:
115,119,40649,6,0,P|122:59|105:3,2,120,4|8|2,3:2|0:0|3:2,0:0:0:0:
213,69,41483,2,0,P|238:34|267:22,1,60,8|0,0:0|0:0,0:0:0:0:
24,71,41816,1,2,3:2:0:0:
111,146,41983,2,0,P|76:153|45:176,2,60,2|0|8,0:0|3:2|0:0,0:0:0:0:
256,233,42483,1,2,0:0:0:0:
311,129,42649,2,0,P|283:140|253:139,1,60,2|2,3:2|3:2,0:0:0:0:
106,174,42983,1,8,0:0:0:0:
106,174,43149,1,2,3:2:0:0:
90,384,43316,6,0,P|49:331|-20:322,1,120,4|8,3:2|0:0,0:0:0:0:
118,380,43983,1,2,3:2:0:0:
118,380,44149,2,0,P|188:373|261:381,1,120,8|2,0:0|3:2,0:0:0:0:
242,272,44649,1,0,3:2:0:0:
399,204,44816,5,2,3:2:0:0:
214,268,44983,2,0,B|193:222|193:222|235:95,1,146.249993305207,10|0,0:0|0:0,0:0:0:0:
284,62,45316,5,8,3:2:0:0:
301,55,45399,1,8,0:0:0:0:
325,55,45483,1,8,0:0:0:0:
351,68,45566,1,8,0:0:0:0:
377,92,45649,1,8,3:2:0:0:
415,103,45733,1,8,0:0:0:0:
458,97,45816,1,8,0:0:0:0:
489,61,45899,1,8,0:0:0:0:
498,11,45983,6,0,L|515:123,1,97.4999955368044,6|10,3:2|0:0,0:0:0:0:
472,0,46483,6,0,L|475:22,1,22.4999993133545,2|0,3:2|0:0,0:0:0:0:
471,277,46816,6,0,L|463:225,1,52.4999983978272,2|0,3:2|0:0,0:0:0:0:
463,225,47149,6,0,B|371:237|371:237|338:229|338:229|255:238,1,209.999993591309,6|0,3:2|3:2,0:0:0:0:
380,148,47649,2,0,P|385:111|378:66,1,75,8|0,0:0|0:0,0:0:0:0:
239,23,47983,5,8,3:2:0:0:
228,50,48066,1,8,0:0:0:0:
201,60,48149,1,8,0:0:0:0:
173,52,48233,1,8,0:0:0:0:
145,23,48316,1,8,3:2:0:0:
111,0,48399,1,8,0:0:0:0:
69,2,48483,1,8,0:0:0:0:
36,26,48566,1,8,0:0:0:0:
11,66,48649,6,0,P|3:137|66:220,1,150,6|10,3:2|0:0,0:0:0:0:
215,322,49149,6,0,P|207:310|197:301,1,22.4999993133545,2|0,3:2|0:0,0:0:0:0:
14,229,49483,6,0,P|47:241|93:238,1,52.4999983978272,2|0,3:2|0:0,0:0:0:0:
64,242,49816,6,0,B|119:144|119:144|254:118,1,209.999993591309,6|0,3:2|3:2,0:0:0:0:
351,114,50316,2,0,P|327:167|325:211,1,75,10|10,0:0|3:3,0:0:0:0:
370,355,50649,6,0,P|381:368|392:384,1,37.5,10|0,3:3|0:0,0:0:0:0:
475,363,50816,2,0,P|491:370|509:376,1,37.5,2|0,3:2|0:0,0:0:0:0:
512,273,50983,6,0,L|419:281,1,73.1249966526033,12|0,0:0|0:0,0:0:0:0:
354,265,51316,6,0,P|284:287|184:262,1,150,4|10,3:1|0:0,0:0:0:0:
83,120,51816,2,0,P|91:160|110:191,1,75,2|0,3:2|0:0,0:0:0:0:
293,128,52149,1,2,3:2:0:0:
228,77,52316,1,8,0:0:0:0:
77,207,52483,6,0,P|44:257|70:365,1,150,4|0,3:1|3:2,0:0:0:0:
253,384,52983,2,0,P|296:335|307:305,1,75,10|0,0:0|0:0,0:0:0:0:
221,202,53316,2,0,P|209:237|209:274,1,75,2|0,3:2|3:2,0:0:0:0:
402,354,53649,2,0,P|397:286|384:263,1,75,10|0,0:0|0:0,0:0:0:0:
512,124,53983,6,0,P|453:158|328:146,1,179.999994506836,4|8,3:1|0:0,0:0:0:0:
189,22,54649,1,2,3:2:0:0:
383,0,54816,1,0,3:2:0:0:
336,71,54983,1,10,0:0:0:0:
90,156,55149,6,0,P|97:70|45:-3,1,172.500003290176,4|0,3:1|3:2,0:0:0:0:
201,0,55649,2,0,P|224:70|262:103,1,86.2500016450882,8|0,0:0|0:0,0:0:0:0:
363,215,55983,5,8,3:2:0:0:
381,211,56066,1,8,0:0:0:0:
402,197,56149,1,8,0:0:0:0:
419,169,56233,1,8,0:0:0:0:
412,130,56316,1,8,3:2:0:0:
374,105,56399,1,8,0:0:0:0:
324,108,56483,1,8,0:0:0:0:
278,140,56566,1,8,0:0:0:0:
256,192,56649,1,6,3:2:0:0:
256,192,56733,12,2,58649,0:0:0:0:
88,381,59316,6,0,P|49:363|34:321,1,90,6|0,3:1|0:0,0:0:0:0:
97,273,59649,6,0,L|237:288,1,101.250000386238,14|0,0:0|0:0,0:0:0:0:
295,124,59983,1,2,3:2:0:0:
418,198,60149,1,0,3:2:0:0:
302,342,60316,2,0,L|209:383,1,101.250000386238,10|0,0:0|0:0,0:0:0:0:
463,384,60649,6,0,P|416:311|421:191,1,202.500000772476,6|8,3:1|0:0,0:0:0:0:
180,211,61316,6,0,P|129:220|85:243,1,101.250000386238,2|0,3:2|3:2,0:0:0:0:
204,92,61649,2,0,P|173:32|176:-18,1,101.250000386238,10|0,0:0|0:0,0:0:0:0:
333,96,61983,6,0,P|377:119|427:121,1,101.250000386238,6|0,3:1|0:0,0:0:0:0:
276,242,62316,2,0,P|248:307|246:343,1,101.250000386238,8|0,0:0|0:0,0:0:0:0:
512,260,62649,1,6,3:1:0:0:
403,363,62816,1,2,3:2:0:0:
276,242,62983,2,0,P|248:176|246:140,1,101.250000386238,10|0,0:0|0:0,0:0:0:0:
0,233,63316,6,0,P|73:211|141:213,1,101.250000386238,6|0,3:1|0:0,0:0:0:0:
245,147,63649,1,8,0:0:0:0:
124,109,63816,1,0,0:0:0:0:
76,302,63983,2,0,P|121:323|161:353,1,101.250000386238,6|0,3:1|3:2,0:0:0:0:
25,134,64316,2,0,P|31:83|27:33,1,101.250000386238,14|0,0:1|0:0,0:0:0:0:
278,0,64649,6,0,P|229:13|186:40,1,101.250000386238,6|0,3:1|0:0,0:0:0:0:
321,105,64983,2,0,P|365:128|415:141,1,101.250000386238,10|0,0:0|0:0,0:0:0:0:
443,0,65316,1,2,3:2:0:0:
512,122,65483,1,2,3:2:0:0:
452,273,65649,2,0,P|408:323|357:342,1,101.250000386238,10|0,0:0|0:0,0:0:0:0:
176,208,65983,6,0,P|245:242|302:238,1,101.250000386238,6|0,3:1|0:0,0:0:0:0:
36,171,66316,1,10,0:0:0:0:
123,283,66483,1,2,0:0:0:0:
258,151,66649,1,2,3:2:0:0:
120,264,66816,1,2,3:2:0:0:
97,89,66983,2,0,P|49:72|0:76,1,101.250000386238,10|0,0:0|0:0,0:0:0:0:
258,151,67316,6,0,P|259:53|342:2,1,202.500000772476,6|8,3:1|0:0,0:0:0:0:
489,37,67816,1,2,0:0:0:0:
512,208,67983,2,0,P|447:226|399:207,1,101.250000386238,6|0,3:1|3:2,0:0:0:0:
258,151,68316,2,0,P|196:185|173:275,1,151.875000579357,8|0,0:0|0:0,0:0:0:0:
173,346,68649,5,6,3:1:0:0:
173,346,68816,1,0,0:0:0:0:
263,245,68983,1,8,0:0:0:0:
263,245,69149,1,0,0:0:0:0:
63,174,69316,1,6,3:1:0:0:
108,89,69483,1,8,0:0:0:0:
229,40,69649,1,10,0:1:0:0:
399,44,69816,1,8,0:0:0:0:
428,62,69899,1,8,0:0:0:0:
437,98,69983,6,0,P|418:137|376:152,1,90,6|0,3:1|0:0,0:0:0:0:
318,101,70316,6,0,L|303:-39,1,101.250000386238,14|0,0:0|0:0,0:0:0:0:
216,162,70649,1,2,3:2:0:0:
309,270,70816,1,0,3:2:0:0:
475,262,70983,2,0,L|512:168,1,101.250000386238,10|0,0:0|0:0,0:0:0:0:
423,384,71316,6,0,P|312:354|216:397,1,202.500000772476,6|8,3:1|0:0,0:0:0:0:
0,256,71983,1,2,3:2:0:0:
38,384,72149,1,0,3:2:0:0:
159,286,72316,2,0,P|185:243|195:193,1,101.250000386238,10|0,0:0|0:0,0:0:0:0:
301,0,72649,6,0,P|324:44|331:94,1,101.250000386238,6|0,3:1|0:0,0:0:0:0:
426,246,72982,2,0,P|375:243|331:220,1,101.250000386238,10|0,0:0|0:0,0:0:0:0:
93,153,73315,1,6,3:1:0:0:
231,75,73482,1,0,3:2:0:0:
331,220,73649,2,0,P|359:286|361:322,1,101.250000386238,10|0,0:0|0:0,0:0:0:0:
496,113,73983,6,0,P|432:146|397:151,1,101.250000386238,6|0,3:1|0:0,0:0:0:0:
231,75,74316,1,10,0:0:0:0:
139,0,74483,1,2,0:0:0:0:
16,104,74649,2,0,P|1:133|0:161,1,50.6250001931191,6|0,3:1|0:0,0:0:0:0:
83,156,74816,2,0,P|85:186|98:212,1,50.6250001931191,0|0,3:2|0:0,0:0:0:0:
184,158,74983,1,14,0:1:0:0:
255,304,75149,1,2,0:0:0:0:
52,384,75316,6,0,P|76:318|178:277,1,172.500003290176,6|10,3:1|0:0,0:0:0:0:
382,384,75983,1,2,3:2:0:0:
382,384,76149,1,0,3:2:0:0:
451,252,76316,2,0,P|475:217|512:194,1,86.2500016450882,10|2,0:0|0:0,0:0:0:0:
382,384,76649,6,0,P|336:312|245:309,1,172.500003290176,6|10,3:1|0:0,0:0:0:0:
109,118,77316,1,2,3:2:0:0:
109,118,77483,1,0,3:2:0:0:
62,247,77649,1,10,0:0:0:0:
212,185,77816,1,2,0:0:0:0:
144,17,77983,6,0,P|48:39|6:130,1,202.500000772476,6|10,3:1|0:0,0:0:0:0:
270,48,78649,1,6,3:1:0:0:
442,0,78816,1,0,3:2:0:0:
512,101,78983,1,10,0:0:0:0:
448,182,79149,1,2,0:0:0:0:
281,148,79316,6,0,P|270:103|272:42,1,101.250000386238,6|0,3:1|0:0,0:0:0:0:
139,276,79649,2,0,P|157:322|164:372,1,101.250000386238,10|0,0:0|0:0,0:0:0:0:
127,185,79983,5,14,3:1:0:0:
145,178,80066,1,8,0:0:0:0:
171,180,80149,1,8,0:0:0:0:
201,197,80233,1,8,0:0:0:0:
221,231,80316,1,14,3:1:0:0:
233,282,80399,1,8,0:0:0:0:
248,329,80483,1,8,0:0:0:0:
284,371,80566,1,8,0:0:0:0:
338,384,80649,6,0,P|339:259|281:148,1,252.000003076172,6|0,3:1|0:0,0:0:0:0:
142,271,81983,5,10,0:0:0:0:
457,300,82149,1,8,0:0:0:0:
444,297,82649,5,2,0:0:0:0:
429,291,82732,1,2,0:0:0:0:
411,270,82815,1,2,0:0:0:0:
406,240,82899,1,2,0:0:0:0:
425,204,82983,1,2,0:0:0:0:
457,177,83066,1,2,0:0:0:0:
483,137,83149,1,2,0:0:0:0:
489,85,83233,1,2,0:0:0:0:
462,32,83316,6,0,P|372:4|279:29,1,179.999994506836,4|8,3:1|0:0,0:0:0:0:
242,273,83983,1,0,3:2:0:0:
215,139,84149,1,0,3:2:0:0:
387,111,84316,2,0,P|431:161|454:235,1,134.999995880127,8|0,0:0|0:0,0:0:0:0:
365,216,84649,6,0,P|308:156|205:142,1,179.999994506836,2|8,3:2|0:0,0:0:0:0:
165,384,85316,1,2,3:2:0:0:
65,297,85483,1,0,3:2:0:0:
242,273,85649,2,0,P|264:311|267:356,1,89.9999972534181,8|0,0:0|0:0,0:0:0:0:
81,201,85983,2,0,P|19:137|-1:51,1,179.999994506836,6|8,3:2|0:0,0:0:0:0:
357,153,86566,5,8,0:0:0:0:
367,140,86649,2,0,P|327:131|267:147,1,89.9999972534181,8|8,0:0|3:3,0:0:0:0:
173,24,86983,2,0,P|140:49|113:105,1,89.9999972534181,8|8,3:3|3:3,0:0:0:0:
38,290,87316,5,4,3:1:0:0:
97,329,87649,1,0,0:0:0:0:
164,305,87982,1,2,0:0:0:0:
178,235,88315,1,0,0:0:0:0:
152,168,88649,1,2,0:0:0:0:
184,103,88982,1,0,0:0:0:0:
327,148,89316,5,2,0:0:0:0:
256,192,89649,1,2,0:0:0:0:
256,192,89733,12,0,91816,0:0:0:0:
