osu file format v14

[General]
AudioFilename: audio.mp3
AudioLeadIn: 0
PreviewTime: 58576
Countdown: 0
SampleSet: Soft
StackLeniency: 0.3
Mode: 0
LetterboxInBreaks: 0
WidescreenStoryboard: 1

[Editor]
DistanceSpacing: 1
BeatDivisor: 4
GridSize: 4
TimelineZoom: 1.7

[Metadata]
Title:Sakurane (TV Size)
TitleUnicode:桜音 (TV Size)
Artist:Piko
ArtistUnicode:ピコ
Creator:Smoke
Version:Normal
Source:よりぬき銀魂さん
Tags:japanese anime pop jpop j-pop jrock j-rock rock 4th fourth ending ed Yorinuki Gintama-san gintama sakata gintoki verychill
BeatmapID:2557705
BeatmapSetID:1230279

[Difficulty]
HPDrainRate:4
CircleSize:3.2
OverallDifficulty:4.5
ApproachRate:5.5
SliderMultiplier:1
SliderTickRate:1

[Events]
//Background and Video events
0,0,"sakurane wallpaper gintama.jpg",0,0
Video,0,"vid.mp4"
//Break Periods
//Storyboard Layer 0 (Background)
//Storyboard Layer 1 (Fail)
//Storyboard Layer 2 (Pass)
//Storyboard Layer 3 (Foreground)
//Storyboard Layer 4 (Overlay)
//Storyboard Sound Samples

[TimingPoints]
650,333.333333333333,4,2,1,50,1,0
650,-111.111111111111,4,2,1,50,0,0
3316,-111.111111111111,4,2,1,60,0,0
27316,-90.9090909090909,4,2,1,80,0,0
33983,-100,4,2,1,75,0,0
35316,-111.111111111111,4,2,1,65,0,0
44983,-100,4,2,1,68,0,0
45983,-100,4,2,1,70,0,0
50983,-100,4,2,1,70,0,0
51233,-100,4,2,1,5,0,0
51316,-100,4,2,1,70,0,0
55149,-100,4,2,1,70,0,0
58649,-100,4,2,1,50,0,0
59316,-90.9090909090909,4,2,1,85,0,1
60899,-90.9090909090909,4,2,1,5,0,1
60983,-90.9090909090909,4,2,1,85,0,1
63566,-90.9090909090909,4,2,1,5,0,1
63650,-90.9090909090909,4,2,1,85,0,1
66233,-90.9090909090909,4,2,1,5,0,1
66317,-90.9090909090909,4,2,1,85,0,1
71566,-90.9090909090909,4,2,1,5,0,1
71650,-90.9090909090909,4,2,1,85,0,1
74233,-90.9090909090909,4,2,1,5,0,1
74317,-90.9090909090909,4,2,1,85,0,1
80649,-100,4,2,1,75,0,0
81983,-100,4,2,1,70,0,0
83316,-90.9090909090909,4,2,1,80,0,1
87316,-100,4,2,1,60,0,0
91816,-100,4,2,1,5,0,0

[Colours]
Combo1 : 225,89,236
Combo2 : 255,81,81
Combo3 : 237,146,211
Combo4 : 231,20,20

[HitObjects]
44,321,650,6,0,L|145:306,1,89.999997253418,2|0,0:0|0:0,0:0:0:0:
235,298,1316,1,2,0:0:0:0:
235,298,1649,1,0,0:0:0:0:
288,214,1983,2,0,L|187:199,1,89.999997253418,2|0,0:0|0:0,0:0:0:0:
105,188,2649,1,2,0:0:0:0:
105,188,2982,1,2,0:0:0:0:
45,108,3316,6,0,P|64:62|115:44,1,89.999997253418,2|2,0:0|0:0,0:0:0:0:
196,60,3983,2,0,L|285:73,1,89.999997253418,2|2,0:0|0:0,0:0:0:0:
361,10,4649,2,0,B|319:55|319:55|352:185,1,179.999994506836,2|2,0:0|0:0,0:0:0:0:
426,231,5649,1,2,0:0:0:0:
375,316,5983,6,0,P|331:324|281:301,1,89.999997253418,2|2,0:0|0:0,0:0:0:0:
202,261,6649,2,0,P|158:253|108:276,1,89.999997253418,2|2,0:0|0:0,0:0:0:0:
56,347,7316,2,0,L|95:160,1,179.999994506836,2|2,0:0|0:0,0:0:0:0:
112,73,8316,1,2,0:0:0:0:
189,134,8649,6,0,P|238:126|284:153,1,89.999997253418,2|2,0:0|0:0,0:0:0:0:
351,203,9316,2,0,P|400:211|446:184,1,89.999997253418,2|2,0:0|0:0,0:0:0:0:
499,118,9983,2,0,L|467:21,1,89.999997253418,2|2,0:0|0:0,0:0:0:0:
433,9,10483,1,2,0:0:0:0:
433,9,10649,1,2,0:0:0:0:
348,60,10983,1,2,0:0:0:0:
260,13,11316,6,0,P|220:6|145:56,1,134.999995880127,2|2,0:0|0:0,0:0:0:0:
95,50,11983,2,0,P|142:90|115:194,1,179.999994506836,2|2,0:0|0:0,0:0:0:0:
115,193,13316,1,2,0:0:0:0:
194,251,13649,1,2,0:0:0:0:
278,199,13983,6,0,L|383:217,1,89.999997253418,2|2,0:0|0:0,0:0:0:0:
409,303,14649,2,0,L|320:318,1,89.999997253418,2|2,0:0|0:0,0:0:0:0:
236,371,15316,2,0,P|174:305|82:326,1,179.999994506836,2|2,0:0|0:0,0:0:0:0:
21,248,16316,1,2,0:0:0:0:
88,175,16649,6,0,L|68:87,1,89.999997253418,2|2,0:0|0:0,0:0:0:0:
154,37,17316,2,0,L|174:125,1,89.999997253418,2|2,0:0|0:0,0:0:0:0:
254,183,17983,2,0,P|324:192|379:105,1,179.999994506836,2|0,0:0|0:0,0:0:0:0:
461,53,18983,2,0,L|479:106,1,44.999998626709,2|2,0:0|0:0,0:0:0:0:
496,140,19316,6,0,L|477:238,1,89.999997253418,2|2,0:0|0:0,0:0:0:0:
507,323,19983,2,0,L|418:305,1,89.999997253418,2|2,0:0|0:0,0:0:0:0:
382,340,20483,2,0,B|318:363|266:326|304:312|234:273|173:305,1,224.999993133545,2|2,0:0|0:0,0:0:0:0:
91,359,21649,2,0,P|78:341|75:312,1,44.999998626709,2|2,0:0|0:0,0:0:0:0:
40,282,21983,6,0,P|65:247|62:192,1,89.999997253418,2|2,0:0|0:0,0:0:0:0:
23,111,22649,2,0,P|67:110|103:85,1,89.999997253418,2|2,0:0|0:0,0:0:0:0:
142,54,23149,2,0,L|363:93,1,224.999993133545,2|2,0:0|0:0,0:0:0:0:
458,118,24316,2,0,P|471:145|471:178,1,44.999998626709,2|2,0:0|0:0,0:0:0:0:
447,202,24649,5,2,0:0:0:0:
447,202,25983,6,0,L|348:220,1,89.9999972534181,2|2,0:0|0:0,0:0:0:0:
286,286,26649,2,0,L|232:272,1,44.999998626709,2|2,0:0|0:0,0:0:0:0:
199,249,26983,2,0,L|145:263,1,44.999998626709,2|2,0:0|0:0,0:0:0:0:
102,278,27316,6,0,P|71:240|75:157,2,110.000003356934,4|8|0,3:1|0:0|3:2,0:0:0:0:
91,335,28149,1,0,3:2:0:0:
91,335,28316,1,8,0:0:0:0:
198,357,28649,2,0,L|317:330,1,110.000003356934,0|8,3:2|0:0,0:0:0:0:
396,271,29316,2,0,L|456:281,1,55.0000016784668,0|0,3:2|3:2,0:0:0:0:
493,245,29649,1,8,0:0:0:0:
417,165,29983,6,0,L|356:176,1,55.0000016784668,6|0,3:2|0:0,0:0:0:0:
324,214,30316,2,0,P|280:182|211:196,1,110.000003356934,8|2,0:0|3:2,0:0:0:0:
184,220,30816,1,0,3:2:0:0:
184,220,30983,1,8,0:0:0:0:
111,137,31316,1,0,3:2:0:0:
185,56,31649,2,0,L|297:76,1,110.000003356934,10|2,0:0|3:2,0:0:0:0:
350,94,32149,1,0,3:2:0:0:
350,94,32316,2,0,P|374:81|411:82,1,55.0000016784668,10|8,0:0|0:0,0:0:0:0:
438,120,32649,6,0,B|416:169|416:169|435:222,1,110.000003356934,6|8,3:2|0:0,0:0:0:0:
340,277,33316,1,0,3:2:0:0:
251,211,33649,2,0,P|225:210|192:194,1,55.0000016784668,8|8,0:0|0:0,0:0:0:0:
162,163,33983,6,0,P|173:78|90:97,1,200,4|2,3:1|0:0,0:0:0:0:
90,97,35316,6,0,L|69:197,1,89.9999972534181,4|10,3:1|0:0,0:0:0:0:
61,233,35816,1,2,0:0:0:0:
128,304,36149,1,10,0:0:0:0:
222,272,36483,2,0,P|272:266|315:296,1,89.9999972534181,2|0,3:2|3:2,0:0:0:0:
333,325,36983,1,8,0:0:0:0:
422,283,37316,2,0,L|475:291,2,44.999998626709,2|2|10,3:2|3:2|0:0,0:0:0:0:
384,191,37983,6,0,B|373:148|373:148|400:99,1,89.9999972534181,6|10,3:2|0:0,0:0:0:0:
428,71,38483,1,2,0:0:0:0:
345,16,38816,1,10,0:0:0:0:
264,73,39149,2,0,L|280:175,1,89.9999972534181,2|0,3:2|3:2,0:0:0:0:
283,211,39649,1,8,0:0:0:0:
212,280,39983,2,0,P|189:280|164:270,1,44.999998626709,2|0,3:2|3:2,0:0:0:0:
127,245,40316,1,10,0:0:0:0:
69,164,40649,6,0,L|93:61,2,89.9999972534181,4|8|0,3:2|0:0|3:2,0:0:0:0:
30,196,41483,1,8,0:0:0:0:
52,292,41816,2,0,P|90:328|142:330,1,89.9999972534181,0|0,3:2|3:2,0:0:0:0:
169,366,42316,1,10,0:0:0:0:
169,366,42483,1,2,0:0:0:0:
249,312,42816,2,0,L|236:254,2,44.999998626709,2|8|0,3:2|0:0|3:2,0:0:0:0:
292,336,43316,6,0,B|331:313|331:313|383:326,1,89.9999972534181,4|8,3:2|0:0,0:0:0:0:
466,286,43983,2,0,L|477:343,2,44.999998626709,2|8|2,3:2|0:0|0:0,0:0:0:0:
436,245,44483,2,0,L|453:144,1,89.9999972534181,2|2,3:2|3:2,0:0:0:0:
459,106,44983,1,10,0:0:0:0:
373,53,45316,2,0,L|312:67,1,50,8|8,3:2|0:0,0:0:0:0:
284,94,45649,2,0,L|223:80,1,50,8|8,3:2|0:0,0:0:0:0:
192,109,45983,6,0,P|174:162|201:213,1,100,6|10,3:2|0:0,0:0:0:0:
216,242,46483,1,2,3:2:0:0:
169,330,46816,1,2,3:2:0:0:
77,290,47149,2,0,L|56:187,1,100,6|0,3:2|3:2,0:0:0:0:
46,143,47649,1,8,0:0:0:0:
28,44,47983,2,0,P|55:32|84:37,1,50,8|8,3:2|0:0,0:0:0:0:
118,58,48316,2,0,P|145:70|174:65,1,50,8|8,3:2|0:0,0:0:0:0:
208,43,48649,6,0,B|255:29|255:29|318:62,1,100,6|10,3:2|0:0,0:0:0:0:
341,81,49149,1,2,3:2:0:0:
308,175,49483,1,2,3:2:0:0:
406,158,49816,2,0,P|459:162|495:214,1,100,6|0,3:2|3:2,0:0:0:0:
489,248,50316,1,10,0:0:0:0:
489,248,50483,2,0,L|470:358,1,100,10|2,3:3|3:2,0:0:0:0:
430,375,50983,1,12,0:0:0:0:
347,318,51316,6,0,B|299:306|299:306|240:334,1,100,4|10,3:1|0:0,0:0:0:0:
208,349,51816,1,2,3:2:0:0:
137,277,52149,2,0,L|147:223,1,50,2|8,3:2|0:0,0:0:0:0:
188,200,52483,2,0,L|170:96,1,100,4|0,3:1|3:2,0:0:0:0:
160,57,52983,1,10,0:0:0:0:
160,57,53149,2,0,P|113:48|55:83,1,100,2|0,0:0|3:2,0:0:0:0:
32,105,53649,1,8,0:0:0:0:
58,201,53983,6,0,L|40:299,1,100,4|8,3:1|0:0,0:0:0:0:
121,358,54649,2,0,P|145:357|174:341,1,50,2|0,3:2|3:2,0:0:0:0:
204,311,54983,1,10,0:0:0:0:
204,311,55149,2,0,P|254:304|302:332,1,100,4|0,3:1|3:2,0:0:0:0:
333,359,55649,1,8,0:0:0:0:
401,285,55983,2,0,L|390:231,1,50,8|8,3:2|0:0,0:0:0:0:
358,198,56316,2,0,L|369:144,1,50,8|8,3:2|0:0,0:0:0:0:
380,100,56649,5,6,3:2:0:0:
256,192,56816,12,2,58649,0:0:0:0:
107,15,59316,6,0,P|91:69|125:128,1,110.000003356934,6|14,3:1|0:0,0:0:0:0:
206,172,59983,2,0,L|264:161,1,55.0000016784668,2|0,3:2|3:2,0:0:0:0:
314,150,60316,1,10,0:0:0:0:
396,77,60649,2,0,P|445:73|500:125,1,110.000003356934,6|8,3:1|0:0,0:0:0:0:
482,217,61316,2,0,L|468:285,1,55.0000016784668,2|0,3:2|3:2,0:0:0:0:
460,324,61649,1,10,0:0:0:0:
362,272,61983,5,6,3:1:0:0:
269,331,62316,1,8,0:0:0:0:
169,283,62649,2,0,L|108:295,2,55.0000016784668,6|0|10,3:1|3:2|0:0,0:0:0:0:
251,210,63316,2,0,B|266:155|266:155|234:98,1,110.000003356934,6|8,3:1|0:0,0:0:0:0:
216,64,63816,1,0,0:0:0:0:
216,64,63983,1,6,3:1:0:0:
130,132,64316,1,14,0:1:0:0:
36,74,64649,6,0,L|14:192,1,110.000003356934,6|10,3:1|0:0,0:0:0:0:
94,259,65316,2,0,L|166:247,1,55.0000016784668,2|0,3:2|3:2,0:0:0:0:
199,270,65649,1,10,0:0:0:0:
289,206,65983,2,0,P|344:195|391:233,1,110.000003356934,6|10,3:1|0:0,0:0:0:0:
431,263,66483,1,2,0:0:0:0:
431,263,66649,2,0,L|506:246,1,55.0000016784668,2|0,3:2|3:2,0:0:0:0:
509,201,66983,1,10,0:0:0:0:
436,118,67316,6,0,B|458:70|458:70|433:13,1,110.000003356934,6|8,3:1|0:0,0:0:0:0:
385,10,67816,1,2,0:0:0:0:
385,10,67983,2,0,L|269:35,1,110.000003356934,6|8,3:1|0:0,0:0:0:0:
188,98,68649,2,0,P|140:71|70:88,1,110.000003356934,6|8,3:1|0:0,0:0:0:0:
13,159,69316,2,0,L|25:220,1,55.0000016784668,6|8,3:1|0:0,0:0:0:0:
62,252,69649,2,0,L|50:313,1,55.0000016784668,10|8,0:1|0:0,0:0:0:0:
43,360,69983,6,0,B|91:333|91:333|149:352,1,110.000003356934,6|14,3:1|0:0,0:0:0:0:
248,381,70649,2,0,P|260:357|259:321,1,55.0000016784668,2|0,3:2|3:2,0:0:0:0:
239,278,70983,1,10,0:0:0:0:
184,182,71316,2,0,L|209:69,1,110.000003356934,6|8,3:1|0:0,0:0:0:0:
305,24,71983,2,0,L|363:36,1,55.0000016784668,2|0,3:2|3:2,0:0:0:0:
412,45,72316,1,10,0:0:0:0:
468,139,72649,5,6,3:1:0:0:
405,229,72983,1,10,0:0:0:0:
455,326,73316,2,0,L|510:338,2,55.0000016784668,6|0|10,3:1|3:2|0:0,0:0:0:0:
349,358,73983,2,0,P|306:331|239:337,1,110.000003356934,6|10,3:1|0:0,0:0:0:0:
202,360,74483,1,2,0:0:0:0:
202,360,74649,1,6,3:1:0:0:
133,273,74983,2,0,L|150:196,1,55.0000016784668,14|2,0:1|0:0,0:0:0:0:
185,182,75316,6,0,B|232:212|232:212|293:196,1,110.000003356934,6|10,3:1|0:0,0:0:0:0:
387,159,75983,2,0,P|391:100|355:48,1,110.000003356934,2|10,3:2|0:0,0:0:0:0:
323,32,76483,1,2,0:0:0:0:
323,32,76649,2,0,L|210:53,1,110.000003356934,6|10,3:1|0:0,0:0:0:0:
113,9,77316,1,2,3:2:0:0:
30,82,77649,2,0,P|29:115|43:149,1,55.0000016784668,10|2,0:0|0:0,0:0:0:0:
76,172,77983,6,0,P|40:221|58:278,1,110.000003356934,6|10,3:1|0:0,0:0:0:0:
126,342,78649,2,0,L|256:319,1,110.000003356934,6|10,3:1|0:0,0:0:0:0:
279,290,79149,1,2,0:0:0:0:
279,290,79316,2,0,L|409:313,1,110.000003356934,6|10,3:1|0:0,0:0:0:0:
374,199,79983,2,0,L|302:187,1,55.0000016784668,14|8,3:1|0:0,0:0:0:0:
283,148,80316,2,0,L|211:160,1,55.0000016784668,14|8,3:1|0:0,0:0:0:0:
178,166,80649,6,0,P|133:108|223:56,1,200,6|0,3:1|0:0,0:0:0:0:
414,115,81983,5,10,0:0:0:0:
414,115,82149,1,8,0:0:0:0:
290,200,82649,2,0,L|306:267,1,50,2|2,0:0|0:0,0:0:0:0:
331,289,82983,2,0,L|315:356,1,50,2|2,0:0|0:0,0:0:0:0:
269,362,83316,6,0,P|235:328|166:338,2,110.000003356934,4|8|0,3:1|0:0|3:2,0:0:0:0:
319,337,84149,1,0,3:2:0:0:
319,337,84316,1,8,0:0:0:0:
400,263,84649,2,0,B|385:210|385:210|412:145,1,110.000003356934,0|8,3:2|0:0,0:0:0:0:
450,58,85316,2,0,P|428:42|377:44,1,55.0000016784668,0|0,3:2|3:2,0:0:0:0:
345,40,85649,1,8,0:0:0:0:
261,111,85983,6,0,L|143:94,1,110.000003356934,6|8,3:2|0:0,0:0:0:0:
43,82,86649,2,0,P|41:112|55:143,1,55.0000016784668,8|8,0:0|3:3,0:0:0:0:
73,184,86983,2,0,P|75:214|61:245,1,55.0000016784668,8|8,3:3|3:3,0:0:0:0:
44,281,87316,5,4,3:1:0:0:
256,192,87483,12,0,91816,0:0:0:0:
