osu file format v14

[General]
AudioFilename: make_my_day.mp3
AudioLeadIn: 0
PreviewTime: 5221
Countdown: 0
SampleSet: None
StackLeniency: 0.5
Mode: 0
LetterboxInBreaks: 0
WidescreenStoryboard: 1

[Editor]
Bookmarks: 524,5798,16348,26897,28051,29534,40084,50633,53271,63820,74370,75524,77007,87556,98106,100743,111293,121842,124480,128436,129754,140304,150853,152172,153491,154809,156128,166677,169315,170633,181183,191732,202282,212831,213985,214974,220084,220743
DistanceSpacing: 1
BeatDivisor: 1
GridSize: 4
TimelineZoom: 1

[Metadata]
Title:Make My Day!
TitleUnicode:Make My Day!
Artist:Piko
ArtistUnicode:Piko
Creator:Project Railgun
Version:One Way!
Source:Binbougami ga!
Tags:project_railgun
BeatmapID:1657410
BeatmapSetID:789065

[Difficulty]
HPDrainRate:2.5
CircleSize:2.5
OverallDifficulty:2.5
ApproachRate:3
SliderMultiplier:0.999999999999998
SliderTickRate:1

[Events]
//Background and Video events
0,0,"make_my_day_10.jpg",0,0
//Break Periods
//Storyboard Layer 0 (Background)
//Storyboard Layer 1 (Fail)
//Storyboard Layer 2 (Pass)
//Storyboard Layer 3 (Foreground)
//Storyboard Sound Samples

[TimingPoints]
524,329.67032967033,4,2,1,50,1,0
524,-133.333333333333,4,2,1,50,0,0
5304,-133.333333333333,4,2,1,70,0,0
5798,-100,4,2,1,90,0,1
16306,-100,4,2,1,90,0,0
16348,-100,4,2,1,90,0,1
28051,-100,4,2,1,90,0,0
29534,-133.333333333333,4,2,1,70,0,0
40084,-125,4,2,1,70,0,0
53271,-100,4,2,1,90,0,1
63779,-100,4,2,1,90,0,0
63820,-100,4,2,1,90,0,1
75524,-100,4,2,1,90,0,0
77254,-100,4,2,1,70,0,0
78326,-133.333333333333,4,2,1,50,0,0
87556,-125,4,2,1,70,0,0
100743,-100,4,2,1,90,0,1
111252,-100,4,2,1,90,0,0
111293,-100,4,2,1,90,0,1
124480,-100,4,2,1,90,0,0
128600,-100,4,2,1,100,0,0
129260,-100,4,2,1,90,0,0
129754,-100,4,2,1,90,0,1
138985,-100,4,2,1,90,0,0
140304,-100,4,2,1,90,0,1
150853,-400,4,2,1,90,0,0
154809,-133.333333333333,4,2,1,90,0,0
155139,-133.333333333333,4,2,1,80,0,0
156375,-133.333333333333,4,2,1,70,0,0
157447,-133.333333333333,4,2,1,50,0,0
169315,-133.333333333333,4,2,1,90,0,0
170633,-100,4,2,1,90,0,1
181142,-100,4,2,1,90,0,0
181183,-100,4,2,1,90,0,1
191691,-100,4,2,1,90,0,0
191732,-100,4,2,1,90,0,1
202241,-100,4,2,1,90,0,0
202282,-100,4,2,1,90,0,1
213985,-100,4,2,1,90,0,0

[Colours]
Combo1 : 117,230,120
Combo2 : 92,231,224
Combo3 : 243,146,224
Combo4 : 243,134,129

[HitObjects]
180,320,524,6,0,L|105:312,2,75.0000028610229,2|2|2,0:0|0:0|0:0,0:0:0:0:
332,320,1842,2,0,L|406:312,2,75.0000028610229,2|2|2,0:0|0:0|0:0,0:0:0:0:
332,168,3161,2,0,P|367:156|404:160,2,75.0000028610229,2|2|2,0:0|0:0|0:0,0:0:0:0:
180,168,4480,2,0,P|144:156|107:160,2,75.0000028610229,2|2|2,0:0|0:0|0:0,0:0:0:0:
308,320,5798,6,0,P|346:288|366:243,1,99.9999999999998,4|2,0:0|0:0,0:0:0:0:
366,140,6458,2,0,P|346:94|307:63,1,99.9999999999998,2|2,0:0|0:0,0:0:0:0:
204,63,7117,2,0,P|165:94|146:140,1,99.9999999999998,4|2,0:0|0:0,0:0:0:0:
145,243,7777,2,0,P|165:288|204:320,1,99.9999999999998,2|2,0:0|0:0,0:0:0:0:
300,348,8436,6,0,L|399:342,1,99.9999999999998,4|2,0:0|0:0,0:0:0:0:
420,244,9095,2,0,L|320:249,1,99.9999999999998,2|2,0:0|0:0,0:0:0:0:
256,172,9754,6,0,L|256:32,2,99.9999999999998,4|2|2,0:0|0:0|0:0,0:0:0:0:
192,248,10743,1,2,0:0:0:0:
120,316,11073,2,0,P|73:331|27:314,1,99.9999999999998,4|2,0:0|0:0,0:0:0:0:
20,216,11732,6,0,L|50:18,2,200,2|4|2,0:0|0:0|0:0,0:0:0:0:
208,288,13710,6,0,P|254:303|301:289,1,99.9999999999998,4|2,0:0|0:0,0:0:0:0:
300,188,14370,2,0,P|252:173|206:189,1,99.9999999999998,4|2,0:0|0:0,0:0:0:0:
120,244,15029,2,0,P|108:292|113:341,2,99.9999999999998,4|2|4,0:0|0:0|0:0,0:0:0:0:
52,172,16018,1,2,0:0:0:0:
108,88,16348,6,0,L|206:69,1,99.9999999999998,4|2,0:0|0:0,0:0:0:0:
305,69,17007,2,0,L|404:88,1,99.9999999999998,2|2,0:0|0:0,0:0:0:0:
366,182,17666,2,0,P|346:227|307:258,1,99.9999999999998,4|2,0:0|0:0,0:0:0:0:
204,258,18326,2,0,P|165:227|146:182,1,99.9999999999998,2|2,0:0|0:0,0:0:0:0:
126,82,18985,6,0,P|173:68|204:30,1,99.9999999999998,4|2,0:0|0:0,0:0:0:0:
307,30,19644,2,0,P|338:68|386:81,1,99.9999999999998,2|2,0:0|0:0,0:0:0:0:
472,136,20304,6,0,P|484:183|471:231,2,99.9999999999998,4|2|2,0:0|0:0|0:0,0:0:0:0:
380,180,21293,1,2,0:0:0:0:
308,248,21622,2,0,L|208:248,1,99.9999999999998,4|2,0:0|0:0,0:0:0:0:
131,179,22282,6,0,P|50:231|44:327,2,200,2|4|2,0:0|0:0|0:0,0:0:0:0:
307,275,24260,6,0,P|357:279|402:260,1,99.9999999999998,4|2,0:0|0:0,0:0:0:0:
452,172,24919,2,0,L|444:72,1,99.9999999999998,4|2,0:0|0:0,0:0:0:0:
348,52,25578,2,0,L|340:151,2,99.9999999999998,4|4|4,0:0|0:0|0:0,0:0:0:0:
256,16,26567,1,2,0:0:0:0:
180,80,26897,6,0,P|166:127|173:177,2,99.9999999999998,4|2|4,0:0|0:0|0:0,0:0:0:0:
256,16,27886,2,0,L|328:20,1,49.9999999999999,2|4,0:0|0:0,0:0:0:0:
336,192,29534,6,0,P|359:261|330:329,1,150.000005722046,4|2,0:0|0:0,0:0:0:0:
181,329,30853,2,0,P|152:261|176:192,1,150.000005722046,4|2,0:0|0:0,0:0:0:0:
292,96,32172,2,0,L|441:111,1,150.000005722046,4|2,0:0|0:0,0:0:0:0:
364,240,33491,2,0,P|331:258|294:259,1,75.0000028610229,4|2,0:0|0:0,0:0:0:0:
218,259,34150,2,0,P|180:257|148:239,1,75.0000028610229,4|2,0:0|0:0,0:0:0:0:
108,176,34809,6,0,L|122:26,1,150.000005722046,4|2,0:0|0:0,0:0:0:0:
256,92,36128,2,0,L|270:241,1,150.000005722046,4|2,0:0|0:0,0:0:0:0:
404,308,37447,6,0,L|418:158,1,150.000005722046,4|2,0:0|0:0,0:0:0:0:
384,92,38436,1,2,0:0:0:0:
324,48,38765,2,0,P|254:23|184:48,1,150.000005722046,4|2,0:0|0:0,0:0:0:0:
128,92,39754,1,2,0:0:0:0:
92,160,40084,6,0,L|110:318,1,160,4|2,0:0|0:0,0:0:0:0:
256,248,41403,2,0,L|274:89,1,160,4|2,0:0|0:0,0:0:0:0:
420,28,42721,2,0,L|438:186,1,160,4|2,0:0|0:0,0:0:0:0:
372,332,44040,2,0,P|335:352|296:349,1,79.9999999999998,4|2,0:0|0:0,0:0:0:0:
213,350,44699,2,0,P|174:351|140:332,1,79.9999999999998,4|2,0:0|0:0,0:0:0:0:
112,256,45359,6,0,P|120:176|175:118,1,160,4|2,0:0|0:0,0:0:0:0:
339,120,46677,2,0,P|392:177|400:256,1,160,4|2,0:0|0:0,0:0:0:0:
272,352,47996,6,0,L|104:360,1,160,4|2,0:0|0:0,0:0:0:0:
56,304,48985,1,2,0:0:0:0:
24,228,49315,2,0,P|62:158|152:160,1,160,4|2,0:0|0:0,0:0:0:0:
208,184,50304,1,2,0:0:0:0:
256,192,50633,12,0,52611,0:0:0:0:
389,242,53271,6,0,P|354:276|305:275,1,99.9999999999998,4|2,0:0|0:0,0:0:0:0:
206,275,53930,2,0,P|157:276|123:242,1,99.9999999999998,2|2,0:0|0:0,0:0:0:0:
122,142,54589,2,0,P|157:107|206:108,1,99.9999999999998,4|2,0:0|0:0,0:0:0:0:
305,108,55249,2,0,P|354:107|389:142,1,99.9999999999998,2|2,0:0|0:0,0:0:0:0:
389,242,55908,6,0,L|400:341,1,99.9999999999998,4|2,0:0|0:0,0:0:0:0:
304,372,56567,2,0,L|292:272,1,99.9999999999998,2|2,0:0|0:0,0:0:0:0:
196,239,57227,6,0,P|152:262|103:256,2,99.9999999999998,4|2|2,0:0|0:0|0:0,0:0:0:0:
256,160,58216,1,2,0:0:0:0:
324,88,58545,2,0,P|367:65|416:71,1,99.9999999999998,4|2,0:0|0:0,0:0:0:0:
472,156,59205,6,0,L|460:360,2,200,2|4|2,0:0|0:0|0:0,0:0:0:0:
