osu file format v14

[General]
AudioFilename: make_my_day.mp3
AudioLeadIn: 0
PreviewTime: 5221
Countdown: 0
SampleSet: None
StackLeniency: 0.5
Mode: 0
LetterboxInBreaks: 0
WidescreenStoryboard: 1

[Editor]
Bookmarks: 524,5798,16348,26897,28051,29534,40084,50633,53271,63820,74370,75524,77007,87556,98106,100743,111293,121842,124480,128436,129754,140304,150853,152172,153491,154809,156128,166677,169315,170633,181183,191732,202282,212831,213985,214974,220414
DistanceSpacing: 1.2
BeatDivisor: 4
GridSize: 4
TimelineZoom: 1

[Metadata]
Title:Make My Day!
TitleUnicode:Make My Day!
Artist:Piko
ArtistUnicode:Piko
Creator:Project Railgun
Version:No Way! (AR9, CS4, and a lot easier but same SR)
Source:Binbougami ga!
Tags:project_railgun
BeatmapID:1659484
BeatmapSetID:789065

[Difficulty]
HPDrainRate:5
CircleSize:4
OverallDifficulty:7
ApproachRate:9
SliderMultiplier:3
SliderTickRate:1

[Events]
//Background and Video events
0,0,"make_my_day.jpg",0,0
//Break Periods
//Storyboard Layer 0 (Background)
//Storyboard Layer 1 (Fail)
//Storyboard Layer 2 (Pass)
//Storyboard Layer 3 (Foreground)
//Storyboard Sound Samples

[TimingPoints]
524,329.67032967033,4,2,1,50,1,0
524,-133.333333333333,4,2,1,50,0,0
5304,-133.333333333333,4,2,1,70,0,0
5798,-100,4,2,1,90,0,1
16306,-100,4,2,1,90,0,0
16348,-100,4,2,1,90,0,1
28051,-100,4,2,1,90,0,0
29534,-133.333333333333,4,2,1,70,0,0
40084,-125,4,2,1,70,0,0
52776,-125,4,2,1,90,0,0
53271,-100,4,2,1,90,0,1
63779,-100,4,2,1,90,0,0
63820,-100,4,2,1,90,0,1
75524,-100,4,2,1,90,0,0
77254,-100,4,2,1,70,0,0
78326,-133.333333333333,4,2,1,50,0,0
87556,-125,4,2,1,70,0,0
100249,-125,4,2,1,90,0,0
100743,-100,4,2,1,90,0,1
111252,-100,4,2,1,90,0,0
111293,-100,4,2,1,90,0,1
124480,-200,4,2,1,90,0,0
128600,-100,4,2,1,100,0,0
129260,-100,4,2,1,90,0,0
129754,-100,4,2,1,90,0,1
138985,-100,4,2,1,90,0,0
140304,-100,4,2,1,90,0,1
150853,-400,4,2,1,90,0,0
154809,-133.333333333333,4,2,1,90,0,0
155139,-133.333333333333,4,2,1,80,0,0
156375,-133.333333333333,4,2,1,70,0,0
157447,-133.333333333333,4,2,1,50,0,0
169315,-133.333333333333,4,2,1,90,0,0
170633,-100,4,2,1,90,0,1
181142,-100,4,2,1,90,0,0
181183,-100,4,2,1,90,0,1
191691,-100,4,2,1,90,0,0
191732,-100,4,2,1,90,0,1
202241,-100,4,2,1,90,0,0
202282,-100,4,2,1,90,0,1
213985,-100,4,2,1,90,0,0
215139,-100,4,2,1,60,0,0
216458,-100,4,2,1,50,0,0
217776,-100,4,2,1,40,0,0
219095,-100,4,2,1,30,0,0
220414,-100,4,2,1,20,0,0

[Colours]
Combo1 : 147,217,70
Combo2 : 210,96,139
Combo3 : 238,164,64
Combo4 : 228,232,83

[HitObjects]
248,340,524,6,0,L|400:324,1,112.500004291535,2|0,0:0|0:0,0:0:0:0:
168,300,771,2,0,L|8:316,1,112.500004291535,2|0,0:0|0:0,0:0:0:0:
208,212,1018,2,0,P|257:188|315:212,1,112.500004291535,2|0,0:0|0:0,0:0:0:0:
397,326,1348,1,0,0:0:0:0:
508,224,1513,1,2,0:0:0:0:
440,88,1677,1,0,0:0:0:0:
288,20,1842,6,0,L|136:16,1,112.500004291535,2|0,0:0|0:0,0:0:0:0:
80,160,2089,2,0,L|228:140,1,112.500004291535,2|0,0:0|0:0,0:0:0:0:
384,216,2337,2,0,P|396:289|368:336,1,112.500004291535,2|0,0:0|0:0,0:0:0:0:
288,364,2584,1,0,0:0:0:0:
252,348,2666,1,0,0:0:0:0:
224,324,2749,1,0,0:0:0:0:
204,288,2831,1,2,0:0:0:0:
200,248,2914,1,0,0:0:0:0:
212,212,2996,1,0,0:0:0:0:
232,180,3078,1,0,0:0:0:0:
260,152,3161,6,0,L|400:160,1,112.500004291535,2|0,0:0|0:0,0:0:0:0:
224,60,3408,2,0,L|80:68,1,112.500004291535,2|0,0:0|0:0,0:0:0:0:
100,344,3655,2,0,P|125:274|104:208,1,112.500004291535,2|0,0:0|0:0,0:0:0:0:
111,66,3985,1,0,0:0:0:0:
256,192,4150,1,2,0:0:0:0:
401,66,4315,1,0,0:0:0:0:
107,152,4480,6,0,P|101:208|119:261,1,112.500004291535,2|0,0:0|0:0,0:0:0:0:
393,261,4727,2,0,P|411:208|405:152,1,112.500004291535,2|0,0:0|0:0,0:0:0:0:
200,352,4974,2,0,P|255:363|309:352,1,112.500004291535,2|0,0:0|0:0,0:0:0:0:
106,296,5304,5,2,0:0:0:0:
256,36,5469,1,2,0:0:0:0:
406,296,5633,1,2,0:0:0:0:
184,96,5798,6,0,P|110:100|58:152,1,150,4|0,0:0|0:0,0:0:0:0:
453,152,6128,2,0,P|401:100|327:96,1,150,2|0,0:0|0:0,0:0:0:0:
184,344,6458,6,0,P|110:339|58:287,1,150,2|0,0:0|0:0,0:0:0:0:
453,287,6788,2,0,P|401:339|327:343,1,150,2|0,0:0|0:0,0:0:0:0:
56,119,7117,6,0,L|183:40,1,150,4|0,0:0|0:0,0:0:0:0:
184,344,7447,2,0,L|56:265,1,150,2|0,0:0|0:0,0:0:0:0:
455,265,7776,6,0,L|328:344,1,150,2|0,0:0|0:0,0:0:0:0:
328,40,8106,2,0,L|456:119,1,150,2|0,0:0|0:0,0:0:0:0:
184,344,8436,6,0,P|201:272|180:201,1,150,4|0,0:0|0:0,0:0:0:0:
328,40,8765,2,0,P|310:111|331:182,1,150,2|0,0:0|0:0,0:0:0:0:
51,155,9095,6,0,P|106:203|180:200,1,150,2|0,0:0|0:0,0:0:0:0:
459,227,9425,2,0,P|404:179|331:183,1,150,2|0,0:0|0:0,0:0:0:0:
82,378,9754,6,0,L|51:155,1,225,4|0,0:0|0:0,0:0:0:0:
221,58,10084,6,0,P|121:104|16:72,1,225,2|0,0:0|0:0,0:0:0:0:
290,58,10414,6,0,P|390:104|496:72,1,225,2|0,0:0|0:0,0:0:0:0:
430,378,10743,6,0,L|460:155,1,225,2|0,0:0|0:0,0:0:0:0:
160,292,11073,6,0,P|254:343|349:292,1,225,4|0,0:0|0:0,0:0:0:0:
256,192,11403,1,2,0:0:0:0:
256,192,11567,1,0,0:0:0:0:
28,80,11732,6,0,L|180:104,1,150,2|0,0:0|0:0,0:0:0:0:
484,80,12062,2,0,L|332:104,1,150,2|0,0:0|0:0,0:0:0:0:
335,280,12392,6,0,L|484:304,1,150,4|0,0:0|0:0,0:0:0:0:
176,280,12722,2,0,L|28:304,1,150,2|0,0:0|0:0,0:0:0:0:
419,172,13051,6,0,P|426:98|389:34,1,150,2|0,0:0|0:0,0:0:0:0:
122,34,13381,2,0,P|85:98|92:172,1,150,2|0,0:0|0:0,0:0:0:0:
256,356,13710,6,0,L|256:206,1,150,4|0,0:0|0:0,0:0:0:0:
484,40,14040,2,0,L|504:192,1,150,2|0,0:0|0:0,0:0:0:0:
256,356,14370,6,0,L|256:206,1,150,4|0,0:0|0:0,0:0:0:0:
28,40,14699,2,0,L|8:192,1,150,2|0,0:0|0:0,0:0:0:0:
187,327,15029,6,0,P|255:356|322:326,1,150,4|0,0:0|0:0,0:0:0:0:
324,56,15359,2,0,P|256:27|189:57,1,150,2|0,0:0|0:0,0:0:0:0:
27,189,15688,6,0,L|53:337,1,150,4|0,0:0|0:0,0:0:0:0:
189,57,16018,1,2,0:0:0:0:
216,36,16100,1,0,0:0:0:0:
256,24,16183,1,2,0:0:0:0:
296,36,16265,1,0,0:0:0:0:
322,56,16348,6,0,P|384:96|455:79,1,150,4|0,0:0|0:0,0:0:0:0:
322,327,16677,2,0,P|384:287|455:304,1,150,2|0,0:0|0:0,0:0:0:0:
189,327,17007,6,0,P|127:287|56:304,1,150,2|0,0:0|0:0,0:0:0:0:
189,57,17337,2,0,P|127:97|56:80,1,150,2|0,0:0|0:0,0:0:0:0:
322,327,17666,6,0,L|488:356,1,150,4|0,0:0|0:0,0:0:0:0:
42,352,17996,2,0,L|190:327,1,150,2|0,0:0|0:0,0:0:0:0:
190,57,18326,6,0,L|42:31,1,150,2|0,0:0|0:0,0:0:0:0:
469,31,18656,2,0,L|322:57,1,150,2|0,0:0|0:0,0:0:0:0:
108,280,18985,6,0,P|104:205|135:138,1,150,4|0,0:0|0:0,0:0:0:0:
376,138,19315,2,0,P|407:205|404:280,1,150,2|0,0:0|0:0,0:0:0:0:
190,57,19644,6,0,P|117:44|55:83,1,150,2|0,0:0|0:0,0:0:0:0:
356,360,19974,2,0,P|428:372|490:333,1,150,2|0,0:0|0:0,0:0:0:0:
189,57,20304,6,0,P|135:154|125:265,1,225,4|0,0:0|0:0,0:0:0:0:
386,265,20633,6,0,P|376:154|322:57,1,225,2|0,0:0|0:0,0:0:0:0:
144,356,20963,6,0,L|369:356,1,225,2|0,0:0|0:0,0:0:0:0:
322,57,21293,6,0,P|256:132|191:57,1,225,2|0,0:0|0:0,0:0:0:0:
38,232,21622,6,0,B|156:196|156:276|256:236,1,225,4|0,0:0|0:0,0:0:0:0:
256,16,21952,1,2,0:0:0:0:
256,16,22117,1,0,0:0:0:0:
416,192,22282,6,0,L|386:339,1,150,2|0,0:0|0:0,0:0:0:0:
96,192,22611,2,0,L|125:339,1,150,2|0,0:0|0:0,0:0:0:0:
472,84,22941,6,0,L|320:28,1,150,4|0,0:0|0:0,0:0:0:0:
40,84,23271,2,0,L|180:32,1,150,2|0,0:0|0:0,0:0:0:0:
416,192,23600,6,0,P|431:264|405:333,1,150,2|0,0:0|0:0,0:0:0:0:
106,333,23930,2,0,P|80:264|95:192,1,150,2|0,0:0|0:0,0:0:0:0:
256,24,24260,6,0,L|256:174,1,150,4|0,0:0|0:0,0:0:0:0:
456,344,24589,2,0,L|480:188,1,150,2|0,0:0|0:0,0:0:0:0:
256,24,24919,6,0,L|256:174,1,150,4|0,0:0|0:0,0:0:0:0:
56,344,25249,2,0,L|32:188,1,150,2|0,0:0|0:0,0:0:0:0:
187,40,25578,6,0,P|257:15|327:39,1,150,4|0,0:0|0:0,0:0:0:0:
320,336,25908,2,0,P|250:359|180:335,1,150,4|0,0:0|0:0,0:0:0:0:
80,248,26155,1,0,0:0:0:0:
76,208,26238,1,4,0:0:0:0:
76,168,26320,1,0,0:0:0:0:
96,124,26403,1,0,0:0:0:0:
124,96,26485,1,0,0:0:0:0:
168,72,26567,2,0,B|266:36|266:128|384:86,1,225,4|0,0:0|0:0,0:0:0:0:
480,208,26897,6,0,P|474:281|423:333,1,150,4|0,0:0|0:0,0:0:0:0:
88,333,27227,2,0,P|37:281|31:208,1,150,2|0,0:0|0:0,0:0:0:0:
344,52,27556,6,0,L|512:40,1,150,2|0,0:0|0:0,0:0:0:0:
168,52,27886,2,0,L|0:40,1,150,2|4,0:0|0:0,0:0:0:0:
256,284,28710,6,0,L|256:359,2,75,0|0|2,0:0|0:0|0:0,0:0:0:0:
256,20,29040,1,0,0:0:0:0:
256,20,29370,1,0,0:0:0:0:
392,140,29534,6,0,P|446:148|494:120,1,112.500004291535,4|0,0:0|0:0,0:0:0:0:
468,24,29782,2,0,P|413:14|369:46,1,112.500004291535,2|0,0:0|0:0,0:0:0:0:
312,120,30029,2,0,P|257:132|203:120,1,112.500004291535,2|0,0:0|0:0,0:0:0:0:
64,32,30359,1,0,0:0:0:0:
20,156,30524,2,0,L|31:267,1,112.500004291535,2|0,0:0|0:0,0:0:0:0:
391,244,30853,6,0,P|446:236|494:264,1,112.500004291535,4|0,0:0|0:0,0:0:0:0:
467,360,31101,2,0,P|414:370|369:338,1,112.500004291535,2|0,0:0|0:0,0:0:0:0:
312,264,31348,2,0,P|257:251|202:264,1,112.500004291535,2|0,0:0|0:0,0:0:0:0:
64,352,31678,1,0,0:0:0:0:
20,228,31843,2,0,L|31:116,1,112.500004291535,2|0,0:0|0:0,0:0:0:0:
304,20,32172,6,0,P|332:67|324:122,1,112.500004291535,4|0,0:0|0:0,0:0:0:0:
187,122,32419,2,0,P|179:67|208:20,1,112.500004291535,2|0,0:0|0:0,0:0:0:0:
397,167,32666,2,0,L|424:276,1,112.500004291535,2|0,0:0|0:0,0:0:0:0:
256,352,32997,1,0,0:0:0:0:
88,276,33161,2,0,L|115:167,1,112.500004291535,2|0,0:0|0:0,0:0:0:0:
328,208,33491,6,0,P|353:286|322:363,1,168.750006437302,4|0,0:0|0:0,0:0:0:0:
191,363,33820,6,0,P|160:286|184:208,1,168.750006437302,2|0,0:0|0:0,0:0:0:0:
480,88,34150,6,0,P|405:125|321:123,1,168.750006437302,2|0,0:0|0:0,0:0:0:0:
32,87,34480,6,0,P|106:125|190:123,1,168.750006437302,2|0,0:0|0:0,0:0:0:0:
280,52,34809,6,0,P|428:18|461:166,1,337.500012874604,4|0,0:0|0:0,0:0:0:0:
231,51,35469,6,0,P|83:18|50:166,1,337.500012874604,2|0,0:0|0:0,0:0:0:0:
232,331,36128,6,0,P|83:365|50:217,1,337.500012874604,2|0,0:0|0:0,0:0:0:0:
280,331,36788,6,0,P|428:365|461:217,1,337.500012874604,2|0,0:0|0:0,0:0:0:0:
88,24,37447,6,0,L|74:135,1,112.500004291535,4|0,0:0|0:0,0:0:0:0:
210,314,37776,2,0,L|196:202,1,112.500004291535,2|0,0:0|0:0,0:0:0:0:
424,24,38106,6,0,L|437:135,1,112.500004291535,2|0,0:0|0:0,0:0:0:0:
302,314,38435,2,0,L|315:202,1,112.500004291535,2|0,0:0|0:0,0:0:0:0:
136,60,38765,6,0,P|91:93|36:97,1,112.500004291535,4|0,0:0|0:0,0:0:0:0:
376,59,39095,2,0,P|420:93|475:97,1,112.500004291535,2|0,0:0|0:0,0:0:0:0:
123,349,39425,6,0,P|99:299|104:244,1,112.500004291535,2|0,0:0|0:0,0:0:0:0:
407,243,39754,2,0,P|412:298|388:349,1,112.500004291535,2|0,0:0|0:0,0:0:0:0:
80,48,40084,6,0,L|198:65,1,120,4|0,0:0|0:0,0:0:0:0:
432,48,40414,2,0,L|313:65,1,120,2|0,0:0|0:0,0:0:0:0:
52,347,40743,6,0,P|89:301|103:243,1,120,2|0,0:0|0:0,0:0:0:0:
408,243,41073,2,0,P|421:300|459:347,1,120,2|0,0:0|0:0,0:0:0:0:
150,138,41403,6,0,P|115:185|102:243,1,120,4|0,0:0|0:0,0:0:0:0:
360,137,41732,2,0,P|395:184|409:243,1,120,2|0,0:0|0:0,0:0:0:0:
170,330,42062,6,0,L|52:347,1,120,2|0,0:0|0:0,0:0:0:0:
341,330,42392,2,0,L|460:347,1,120,2|0,0:0|0:0,0:0:0:0:
75,112,42721,6,0,P|113:67|170:54,1,120,4|0,0:0|0:0,0:0:0:0:
437,272,43051,2,0,P|398:316|341:329,1,120,2|0,0:0|0:0,0:0:0:0:
437,111,43381,6,0,P|398:67|341:54,1,120,2|0,0:0|0:0,0:0:0:0:
74,272,43711,2,0,P|113:316|170:329,1,120,2|0,0:0|0:0,0:0:0:0:
195,31,44040,6,0,P|111:54|74:133,1,180,4|0,0:0|0:0,0:0:0:0:
195,352,44370,6,0,P|111:329|74:250,1,180,2|0,0:0|0:0,0:0:0:0:
316,31,44699,6,0,P|400:54|437:133,1,180,2|0,0:0|0:0,0:0:0:0:
316,352,45029,6,0,P|400:329|437:250,1,180,2|0,0:0|0:0,0:0:0:0:
256,120,45359,6,0,B|279:206|223:202|250:296,1,180,4|0,0:0|0:0,0:0:0:0:
256,24,45688,1,2,0:0:0:0:
256,24,45853,1,0,0:0:0:0:
159,158,46018,6,0,L|40:144,1,120,2|0,0:0|0:0,0:0:0:0:
352,158,46348,2,0,L|472:144,1,120,2|0,0:0|0:0,0:0:0:0:
160,352,46677,6,0,P|94:375|37:361,1,120,4|0,0:0|0:0,0:0:0:0:
352,352,47007,2,0,P|418:375|475:361,1,120,2|0,0:0|0:0,0:0:0:0:
119,100,47337,6,0,P|99:155|101:215,1,120,2|0,0:0|0:0,0:0:0:0:
410,215,47666,2,0,P|412:155|392:100,1,120,2|0,0:0|0:0,0:0:0:0:
88,312,47996,6,0,L|206:294,1,120,4|0,0:0|0:0,0:0:0:0:
424,312,48326,2,0,L|305:294,1,120,2|0,0:0|0:0,0:0:0:0:
56,72,48655,6,0,L|173:97,1,120,2|0,0:0|0:0,0:0:0:0:
456,72,48985,2,0,L|338:97,1,120,2|0,0:0|0:0,0:0:0:0:
48,204,49315,6,0,P|53:263|87:311,1,120,4|0,0:0|0:0,0:0:0:0:
423,311,49644,2,0,P|457:263|463:204,1,120,2|0,0:0|0:0,0:0:0:0:
124,48,49974,6,0,L|136:176,1,120,2|0,0:0|0:0,0:0:0:0:
376,167,50304,2,0,L|388:48,1,120,2|0,0:0|0:0,0:0:0:0:
256,192,50633,12,0,52611,0:0:0:0:
406,296,52776,5,2,0:0:0:0:
256,36,52941,1,2,0:0:0:0:
106,296,53105,1,2,0:0:0:0:
348,108,53271,6,0,P|420:98|479:142,1,150,4|0,0:0|0:0,0:0:0:0:
164,108,53600,2,0,P|91:98|32:142,1,150,2|0,0:0|0:0,0:0:0:0:
354,350,53930,6,0,P|427:359|486:316,1,150,2|0,0:0|0:0,0:0:0:0:
158,350,54260,2,0,P|85:359|26:316,1,150,2|0,0:0|0:0,0:0:0:0:
355,57,54589,6,0,L|479:142,1,150,4|0,0:0|0:0,0:0:0:0:
355,326,54919,2,0,L|479:242,1,150,2|0,0:0|0:0,0:0:0:0:
156,326,55249,6,0,L|33:242,1,150,2|0,0:0|0:0,0:0:0:0:
156,57,55579,2,0,L|33:142,1,150,2|0,0:0|0:0,0:0:0:0:
354,326,55908,6,0,P|375:254|361:181,1,150,4|0,0:0|0:0,0:0:0:0:
157,57,56238,2,0,P|136:129|150:202,1,150,2|0,0:0|0:0,0:0:0:0:
496,203,56567,6,0,P|433:167|360:181,1,150,2|0,0:0|0:0,0:0:0:0:
15,180,56897,2,0,P|78:216|151:202,1,150,2|0,0:0|0:0,0:0:0:0:
416,40,57227,6,0,L|440:263,1,225,4|0,0:0|0:0,0:0:0:0:
296,368,57556,6,0,P|386:307|488:345,1,225,2|0,0:0|0:0,0:0:0:0:
216,368,57886,6,0,P|125:307|23:345,1,225,2|0,0:0|0:0,0:0:0:0:
96,40,58216,6,0,L|72:263,1,225,2|0,0:0|0:0,0:0:0:0:
340,88,58545,6,0,P|257:23|175:88,1,225,4|0,0:0|0:0,0:0:0:0:
256,192,58875,1,2,0:0:0:0:
256,192,59040,1,0,0:0:0:0:
484,296,59205,6,0,L|336:323,1,150,2|0,0:0|0:0,0:0:0:0:
28,296,59534,2,0,L|175:323,1,150,2|0,0:0|0:0,0:0:0:0:
175,61,59864,6,0,L|28:88,1,150,4|0,0:0|0:0,0:0:0:0:
337,61,60194,2,0,L|484:88,1,150,2|0,0:0|0:0,0:0:0:0:
108,184,60524,6,0,P|104:257|145:319,1,150,2|0,0:0|0:0,0:0:0:0:
366,319,60853,2,0,P|407:257|404:184,1,150,2|0,0:0|0:0,0:0:0:0:
175,61,61183,6,0,L|199:217,1,150,4|0,0:0|0:0,0:0:0:0:
40,360,61513,2,0,L|72:204,1,150,2|0,0:0|0:0,0:0:0:0:
337,61,61842,6,0,L|314:209,1,150,4|0,0:0|0:0,0:0:0:0:
472,360,62172,2,0,L|441:213,1,150,2|0,0:0|0:0,0:0:0:0:
256,24,62502,6,0,P|182:20|127:68,1,150,4|0,0:0|0:0,0:0:0:0:
256,360,62831,2,0,P|329:363|384:315,1,150,2|0,0:0|0:0,0:0:0:0:
127,68,63161,6,0,L|116:217,1,150,4|0,0:0|0:0,0:0:0:0:
384,316,63491,1,2,0:0:0:0:
416,292,63573,1,0,0:0:0:0:
424,252,63655,1,2,0:0:0:0:
420,208,63738,1,0,0:0:0:0:
396,167,63820,6,0,P|396:92|436:30,1,150,4|0,0:0|0:0,0:0:0:0:
116,217,64150,2,0,P|115:291|75:353,1,150,2|0,0:0|0:0,0:0:0:0:
436,353,64480,6,0,P|396:291|396:217,1,150,2|0,0:0|0:0,0:0:0:0:
75,30,64810,2,0,P|115:92|115:167,1,150,2|0,0:0|0:0,0:0:0:0:
324,296,65139,6,0,L|473:282,1,150,4|0,0:0|0:0,0:0:0:0:
188,88,65469,2,0,L|38:101,1,150,2|0,0:0|0:0,0:0:0:0:
324,88,65798,6,0,L|473:101,1,150,2|0,0:0|0:0,0:0:0:0:
188,296,66128,2,0,L|38:282,1,150,2|0,0:0|0:0,0:0:0:0:
384,24,66458,6,0,P|412:91|387:159,1,150,4|0,0:0|0:0,0:0:0:0:
124,159,66787,2,0,P|99:91|128:24,1,150,2|0,0:0|0:0,0:0:0:0:
387,224,67117,6,0,P|412:292|384:359,1,150,2|0,0:0|0:0,0:0:0:0:
127,359,67446,2,0,P|99:292|124:224,1,150,2|0,0:0|0:0,0:0:0:0:
292,48,67776,6,0,P|397:24|472:101,1,225,4|0,0:0|0:0,0:0:0:0:
39,101,68106,6,0,P|114:24|220:48,1,225,2|0,0:0|0:0,0:0:0:0:
220,256,68436,6,0,P|156:345|48:367,1,225,2|0,0:0|0:0,0:0:0:0:
463,367,68765,6,0,P|355:345|292:256,1,225,2|0,0:0|0:0,0:0:0:0:
464,20,69095,6,0,L|477:244,1,225,4|0,0:0|0:0,0:0:0:0:
256,152,69425,1,2,0:0:0:0:
256,152,69589,1,0,0:0:0:0:
172,324,69754,6,0,L|25:293,1,150,2|0,0:0|0:0,0:0:0:0:
340,324,70084,2,0,L|486:293,1,150,2|0,0:0|0:0,0:0:0:0:
144,40,70414,6,0,L|111:186,1,150,4|0,0:0|0:0,0:0:0:0:
401,186,70743,2,0,L|368:39,1,150,2|0,0:0|0:0,0:0:0:0:
200,272,71073,6,0,P|138:312|65:307,1,150,2|0,0:0|0:0,0:0:0:0:
312,271,71403,2,0,P|373:312|446:307,1,150,2|0,0:0|0:0,0:0:0:0:
256,20,71732,6,0,L|256:170,1,150,4|0,0:0|0:0,0:0:0:0:
65,307,72062,2,0,L|35:159,1,150,2|0,0:0|0:0,0:0:0:0:
256,20,72392,6,0,L|256:170,1,150,4|0,0:0|0:0,0:0:0:0:
447,307,72722,2,0,L|476:159,1,150,2|0,0:0|0:0,0:0:0:0:
324,48,73051,6,0,P|258:16|191:44,1,150,4|0,0:0|0:0,0:0:0:0:
191,339,73381,2,0,P|258:367|324:335,1,150,4|0,0:0|0:0,0:0:0:0:
408,252,73628,1,0,0:0:0:0:
428,212,73710,1,4,0:0:0:0:
440,172,73793,1,0,0:0:0:0:
424,132,73875,1,0,0:0:0:0:
396,100,73958,1,0,0:0:0:0:
358,79,74040,2,0,B|251:43|251:123|139:87,1,225,4|0,0:0|0:0,0:0:0:0:
60,203,74370,6,0,P|51:277|87:341,1,150,4|0,0:0|0:0,0:0:0:0:
424,341,74699,2,0,P|460:277|451:203,1,150,2|0,0:0|0:0,0:0:0:0:
164,60,75029,6,0,L|15:40,1,150,2|0,0:0|0:0,0:0:0:0:
348,60,75359,2,0,L|496:40,1,150,2|4,0:0|0:0,0:0:0:0:
256,248,76183,6,0,L|256:368,1,75
256,148,76348,1,2,0:0:0:0:
420,312,76595,1,2,0:0:0:0:
472,200,76842,1,2,0:0:0:0:
424,128,77007,5,4,0:0:0:0:
428,124,77254,1,2,0:0:0:0:
432,120,77502,1,2,0:0:0:0:
348,80,78326,5,2,0:0:0:0:
352,84,78573,1,2,0:0:0:0:
356,88,78820,1,2,0:0:0:0:
272,32,79644,5,2,0:0:0:0:
268,28,79892,1,2,0:0:0:0:
264,24,80139,1,2,0:0:0:0:
56,144,80963,6,0,L|62:312,1,168.750006437302,2|0,0:0|0:0,0:0:0:0:
120,340,81293,6,0,L|126:171,1,168.750006437302,2|0,0:0|0:0,0:0:0:0:
180,96,81622,6,0,P|255:128|330:94,1,168.750006437302,2|0,0:0|0:0,0:0:0:0:
330,289,81952,6,0,P|255:255|180:287,1,168.750006437302,2|0,0:0|0:0,0:0:0:0:
414,311,82282,6,0,P|466:165|329:93,1,337.500012874604,2|0,0:0|0:0,0:0:0:0:
97,311,82941,6,0,P|45:165|182:93,1,337.500012874604,2|0,0:0|0:0,0:0:0:0:
316,328,83600,6,0,P|473:324|512:172,1,337.500012874604,2|0,0:0|0:0,0:0:0:0:
195,328,84260,6,0,P|38:324|0:172,1,337.500012874604,2|0,0:0|0:0,0:0:0:0:
256,24,84919,6,0,L|256:136,1,112.500004291535,2|0,0:0|0:0,0:0:0:0:
452,268,85249,2,0,L|452:156,1,112.500004291535,2|0,0:0|0:0,0:0:0:0:
60,116,85578,6,0,L|60:228,1,112.500004291535,2|0,0:0|0:0,0:0:0:0:
256,360,85908,2,0,L|256:248,1,112.500004291535,2|0,0:0|0:0,0:0:0:0:
352,80,86238,6,0,L|472:72,1,112.500004291535,2|0,0:0|0:0,0:0:0:0:
160,80,86567,2,0,L|47:72,1,112.500004291535,2|0,0:0|0:0,0:0:0:0:
144,296,86897,5,2,0:0:0:0:
176,324,86980,1,0,0:0:0:0:
212,348,87062,1,2,0:0:0:0:
256,364,87144,1,0,0:0:0:0:
300,348,87227,1,2,0:0:0:0:
336,324,87309,1,0,0:0:0:0:
368,296,87392,1,2,0:0:0:0:
464,72,87556,6,0,L|483:190,1,120,4|0,0:0|0:0,0:0:0:0:
336,324,87886,2,0,L|348:188,1,120,2|0,0:0|0:0,0:0:0:0:
48,72,88216,6,0,L|29:190,1,120,2|0,0:0|0:0,0:0:0:0:
176,324,88546,2,0,L|165:204,1,120,2|0,0:0|0:0,0:0:0:0:
312,71,88875,6,0,P|370:71|416:108,1,120,4|0,0:0|0:0,0:0:0:0:
416,275,89205,2,0,P|370:312|312:312,1,120,2|0,0:0|0:0,0:0:0:0:
199,71,89534,6,0,P|141:71|95:108,1,120,2|0,0:0|0:0,0:0:0:0:
95,275,89864,2,0,P|141:312|199:312,1,120,2|0,0:0|0:0,0:0:0:0:
352,156,90194,6,0,L|359:36,1,120,4|0,0:0|0:0,0:0:0:0:
152,36,90524,2,0,L|160:156,1,120,2|0,0:0|0:0,0:0:0:0:
356,296,90853,6,0,L|472:267,1,120,2|0,0:0|0:0,0:0:0:0:
156,296,91183,2,0,L|39:267,1,120,2|0,0:0|0:0,0:0:0:0:
357,35,91513,6,0,P|367:123|316:194,1,180,4|0,0:0|0:0,0:0:0:0:
195,194,91842,6,0,P|144:123|154:35,1,180,2|0,0:0|0:0,0:0:0:0:
296,272,92172,6,0,P|370:319|458:312,1,180,2|0,0:0|0:0,0:0:0:0:
216,272,92502,6,0,P|141:319|53:312,1,180,2|0,0:0|0:0,0:0:0:0:
256,16,92831,6,0,L|256:196,1,180,4|0,0:0|0:0,0:0:0:0:
256,348,93161,1,2,0:0:0:0:
256,348,93326,1,0,0:0:0:0:
460,60,93491,6,0,P|402:53|355:87,1,120,2|0,0:0|0:0,0:0:0:0:
51,323,93820,2,0,P|109:330|156:296,1,120,2|0,0:0|0:0,0:0:0:0:
156,88,94150,6,0,P|109:54|51:61,1,120,4|0,0:0|0:0,0:0:0:0:
354,296,94479,2,0,P|401:330|460:324,1,120,2|0,0:0|0:0,0:0:0:0:
76,136,94809,6,0,L|91:255,1,120,2|0,0:0|0:0,0:0:0:0:
420,255,95139,2,0,L|436:136,1,120,2|0,0:0|0:0,0:0:0:0:
86,49,95469,6,0,P|144:60|196:32,1,120,4|0,0:0|0:0,0:0:0:0:
425,49,95798,2,0,P|367:60|316:31,1,120,2|0,0:0|0:0,0:0:0:0:
91,255,96128,6,0,P|85:313|115:364,1,120,2|0,0:0|0:0,0:0:0:0:
396,364,96458,2,0,P|426:313|421:255,1,120,2|0,0:0|0:0,0:0:0:0:
88,68,96787,6,0,L|212:76,1,120,4|0,0:0|0:0,0:0:0:0:
424,68,97117,2,0,L|300:76,1,120,2|0,0:0|0:0,0:0:0:0:
48,324,97447,6,0,L|164:293,1,120,2|0,0:0|0:0,0:0:0:0:
464,324,97776,2,0,L|347:293,1,120,2|0,0:0|0:0,0:0:0:0:
256,192,98106,12,0,100084,0:0:0:0:
106,296,100249,5,2,0:0:0:0:
256,36,100414,1,2,0:0:0:0:
406,296,100578,1,2,0:0:0:0:
168,103,100743,6,0,P|109:148|35:145,1,150,4|0,0:0|0:0,0:0:0:0:
476,145,101073,2,0,P|402:148|343:103,1,150,2|0,0:0|0:0,0:0:0:0:
168,352,101403,6,0,P|109:307|35:310,1,150,2|0,0:0|0:0,0:0:0:0:
476,310,101733,2,0,P|402:307|343:352,1,150,2|0,0:0|0:0,0:0:0:0:
169,104,102062,6,0,L|24:56,1,150,4|0,0:0|0:0,0:0:0:0:
26,327,102392,2,0,L|169:280,1,150,2|0,0:0|0:0,0:0:0:0:
343,104,102721,6,0,L|485:56,1,150,2|0,0:0|0:0,0:0:0:0:
485,327,103051,2,0,L|343:280,1,150,2|0,0:0|0:0,0:0:0:0:
26,56,103381,6,0,P|64:118|134:138,1,150,4|0,0:0|0:0,0:0:0:0:
485,56,103710,2,0,P|447:118|377:138,1,150,2|0,0:0|0:0,0:0:0:0:
128,284,104040,6,0,P|116:210|134:138,1,150,2|0,0:0|0:0,0:0:0:0:
383,284,104370,2,0,P|395:210|377:138,1,150,2|0,0:0|0:0,0:0:0:0:
88,56,104699,6,0,P|32:148|52:268,1,225,4|0,0:0|0:0,0:0:0:0:
224,336,105029,6,0,L|1:367,1,225,2|0,0:0|0:0,0:0:0:0:
288,336,105359,6,0,L|510:367,1,225,2|0,0:0|0:0,0:0:0:0:
424,56,105688,6,0,P|480:150|464:259,1,225,2|0,0:0|0:0,0:0:0:0:
160,160,106018,6,0,P|254:211|350:162,1,225,4|0,0:0|0:0,0:0:0:0:
252,12,106348,1,2,0:0:0:0:
252,12,106513,1,0,0:0:0:0:
84,200,106677,6,0,L|91:349,1,150,2|0,0:0|0:0,0:0:0:0:
420,349,107007,2,0,L|428:200,1,150,2|0,0:0|0:0,0:0:0:0:
56,72,107337,6,0,L|204:89,1,150,4|0,0:0|0:0,0:0:0:0:
456,72,107666,2,0,L|307:89,1,150,2|0,0:0|0:0,0:0:0:0:
94,205,107996,6,0,P|73:276|91:349,1,150,2|0,0:0|0:0,0:0:0:0:
421,349,108326,2,0,P|438:276|417:205,1,150,2|0,0:0|0:0,0:0:0:0:
184,44,108655,6,0,L|195:193,1,150,4|0,0:0|0:0,0:0:0:0:
32,336,108985,2,0,L|43:186,1,150,2|0,0:0|0:0,0:0:0:0:
328,44,109315,6,0,L|316:193,1,150,4|0,0:0|0:0,0:0:0:0:
480,336,109644,2,0,L|468:186,1,150,2|0,0:0|0:0,0:0:0:0:
327,43,109974,6,0,P|256:23|185:43,1,150,4|0,0:0|0:0,0:0:0:0:
184,340,110304,2,0,P|255:360|326:340,1,150,2|0,0:0|0:0,0:0:0:0:
468,186,110633,6,0,L|446:37,1,150,4|0,0:0|0:0,0:0:0:0:
152,188,110962,1,2,0:0:0:0:
140,224,111045,1,0,0:0:0:0:
144,264,111127,1,2,0:0:0:0:
160,300,111210,1,0,0:0:0:0:
184,339,111293,6,0,P|115:368|41:365,1,150,4|0,0:0|0:0,0:0:0:0:
41,18,111622,2,0,P|115:15|184:44,1,150,2|0,0:0|0:0,0:0:0:0:
327,339,111952,6,0,P|396:368|470:365,1,150,2|0,0:0|0:0,0:0:0:0:
470,18,112282,2,0,P|396:15|327:44,1,150,2|0,0:0|0:0,0:0:0:0:
32,216,112611,6,0,L|39:365,1,150,4|0,0:0|0:0,0:0:0:0:
463,168,112941,2,0,L|470:18,1,150,2|0,0:0|0:0,0:0:0:0:
41,18,113271,6,0,L|49:168,1,150,2|0,0:0|0:0,0:0:0:0:
472,365,113601,2,0,L|480:216,1,150,2|0,0:0|0:0,0:0:0:0:
40,18,113930,6,0,P|112:3|177:39,1,150,4|0,0:0|0:0,0:0:0:0:
471,18,114260,2,0,P|399:3|334:39,1,150,2|0,0:0|0:0,0:0:0:0:
41,366,114589,6,0,P|112:380|177:344,1,150,2|0,0:0|0:0,0:0:0:0:
470,366,114919,2,0,P|399:380|334:344,1,150,2|0,0:0|0:0,0:0:0:0:
72,76,115249,6,0,L|96:316,1,225,4|0,0:0|0:0,0:0:0:0:
333,343,115578,6,0,P|306:236|338:129,1,225,2|0,0:0|0:0,0:0:0:0:
173,128,115908,6,0,P|205:235|179:343,1,225,2|0,0:0|0:0,0:0:0:0:
417,299,116238,6,0,L|440:76,1,225,2|0,0:0|0:0,0:0:0:0:
160,60,116567,6,0,P|256:11|351:63,1,225,4|0,0:0|0:0,0:0:0:0:
256,196,116897,1,2,0:0:0:0:
256,196,117062,1,0,0:0:0:0:
58,313,117227,6,0,L|204:348,1,150,2|0,0:0|0:0,0:0:0:0:
453,313,117556,2,0,L|308:348,1,150,2|0,0:0|0:0,0:0:0:0:
72,32,117886,6,0,L|97:179,1,150,4|0,0:0|0:0,0:0:0:0:
414,179,118216,2,0,L|440:32,1,150,2|0,0:0|0:0,0:0:0:0:
7,291,118545,6,0,P|55:347|128:352,1,150,2|0,0:0|0:0,0:0:0:0:
504,291,118875,2,0,P|456:347|383:352,1,150,2|0,0:0|0:0,0:0:0:0:
256,8,119205,6,0,L|256:158,1,150,4|0,0:0|0:0,0:0:0:0:
32,364,119534,2,0,L|21:214,1,150,2|0,0:0|0:0,0:0:0:0:
256,8,119864,6,0,L|256:158,1,150,4|0,0:0|0:0,0:0:0:0:
480,364,120194,2,0,L|491:214,1,150,2|0,0:0|0:0,0:0:0:0:
324,40,120524,6,0,P|255:13|186:38,1,150,4|0,0:0|0:0,0:0:0:0:
186,345,120853,2,0,P|255:370|324:344,1,150,4|0,0:0|0:0,0:0:0:0:
376,304,121100,1,0,0:0:0:0:
420,256,121183,6,0,L|437:107,1,150,4|0,0:0|0:0,0:0:0:0:
75,107,121513,2,0,L|92:255,1,150,4|0,0:0|0:0,0:0:0:0:
364,340,121842,6,0,L|512:320,1,150,4|0,0:0|0:0,0:0:0:0:
148,340,122172,2,0,L|0:320,1,150,2|0,0:0|0:0,0:0:0:0:
96,32,122502,6,0,L|113:180,1,150,4|0,0:0|0:0,0:0:0:0:
398,180,122831,2,0,L|416:32,1,150,2|0,0:0|0:0,0:0:0:0:
112,324,123161,6,0,P|93:252|112:180,1,150,4|0,0:0|0:0,0:0:0:0:
399,180,123491,2,0,P|418:252|400:324,1,150,4|0,0:0|0:0,0:0:0:0:
24,72,123820,6,0,L|171:43,1,150,4|0,0:0|0:0,0:0:0:0:
488,72,124150,2,0,L|414:56,2,75,4|0|0,0:0|0:0|0:0,0:0:0:0:
256,15,124480,6,0,P|272:244|493:183,1,525,4|0,0:0|0:0,0:0:0:0:
360,128,125798,6,0,P|150:179|303:332,1,525,4|0,0:0|0:0,0:0:0:0:
256,192,127117,6,0,P|60:114|123:315,1,525,4|0,0:0|0:0,0:0:0:0:
256,192,128436,5,2,0:0:0:0:
184,28,128600,2,0,L|32:44,1,150,4|0,0:0|0:0,0:0:0:0:
477,43,128930,2,0,L|328:28,1,150,4|0,0:0|0:0,0:0:0:0:
106,112,129260,5,2,0:0:0:0:
256,372,129425,1,2,0:0:0:0:
406,112,129589,1,2,0:0:0:0:
96,243,129754,6,0,P|85:316|121:380,1,150,4|0,0:0|0:0,0:0:0:0:
390,380,130084,2,0,P|426:316|415:243,1,150,2|0,0:0|0:0,0:0:0:0:
176,80,130414,6,0,L|28:106,1,150,2|0,0:0|0:0,0:0:0:0:
336,80,130743,2,0,L|483:106,1,150,2|0,0:0|0:0,0:0:0:0:
96,340,131073,6,0,L|75:191,1,150,4|0,0:0|0:0,0:0:0:0:
416,340,131403,2,0,L|436:191,1,150,4|0,0:0|0:0,0:0:0:0:
96,44,131732,6,0,L|75:192,1,150,4|0,0:0|0:0,0:0:0:0:
416,44,132062,2,0,L|436:192,1,150,4|0,0:0|0:0,0:0:0:0:
187,338,132392,6,0,P|257:360|327:335,1,150,4|0,0:0|0:0,0:0:0:0:
327,48,132721,2,0,P|257:23|187:45,1,150,2|0,0:0|0:0,0:0:0:0:
80,296,133051,6,0,L|65:146,1,150,2|0,0:0|0:0,0:0:0:0:
446,146,133381,2,0,L|432:296,1,150,2|0,0:0|0:0,0:0:0:0:
179,79,133710,6,0,P|107:85|65:145,1,150,4|0,0:0|0:0,0:0:0:0:
332,79,134040,2,0,P|404:85|446:145,1,150,4|0,0:0|0:0,0:0:0:0:
79,295,134370,6,0,P|121:355|194:361,1,150,4|0,0:0|0:0,0:0:0:0:
432,295,134699,2,0,P|390:355|318:361,1,150,4|0,0:0|0:0,0:0:0:0:
120,44,135029,6,0,P|109:117|134:187,1,150,4|0,0:0|0:0,0:0:0:0:
377,187,135359,2,0,P|402:117|392:44,1,150,2|0,0:0|0:0,0:0:0:0:
168,287,135688,6,0,P|116:341|45:364,1,150,4|0,0:0|0:0,0:0:0:0:
466,364,136018,2,0,P|395:341|343:287,1,150,2|0,0:0|0:0,0:0:0:0:
52,64,136348,6,0,L|204:36,1,150,4|0,0:0|0:0,0:0:0:0:
460,64,136677,2,0,L|312:36,1,150,2|0,0:0|0:0,0:0:0:0:
156,300,137007,6,0,L|134:151,1,150,4|0,0:0|0:0,0:0:0:0:
378,151,137337,2,0,L|356:300,1,150,2|0,0:0|0:0,0:0:0:0:
28,112,137666,6,0,P|64:48|135:32,1,150,4|0,0:0|0:0,0:0:0:0:
483,111,137996,2,0,P|448:48|377:31,1,150,2|0,0:0|0:0,0:0:0:0:
28,272,138326,6,0,P|64:336|135:352,1,150,4|0,0:0|0:0,0:0:0:0:
256,268,138573,1,0,0:0:0:0:
280,232,138655,1,2,0:0:0:0:
276,184,138738,1,0,0:0:0:0:
256,144,138820,1,0,0:0:0:0:
224,112,138903,1,0,0:0:0:0:
176,88,138985,6,0,L|27:106,1,150,4|0,0:0|0:0,0:0:0:0:
485,106,139315,2,0,L|336:87,1,150,4|0,0:0|0:0,0:0:0:0:
80,328,139644,6,0,P|56:219|92:114,1,225,4|0,0:0|0:0,0:0:0:0:
200,40,139974,1,2,0:0:0:0:
248,28,140056,1,0,0:0:0:0:
288,52,140139,1,2,0:0:0:0:
308,88,140221,1,0,0:0:0:0:
332,127,140304,6,0,P|402:147|470:118,1,150,4|0,0:0|0:0,0:0:0:0:
180,128,140633,2,0,P|109:147|41:118,1,150,2|0,0:0|0:0,0:0:0:0:
392,352,140963,6,0,L|412:192,1,150,2|0,0:0|0:0,0:0:0:0:
101,203,141293,2,0,L|120:352,1,150,2|0,0:0|0:0,0:0:0:0:
320,36,141622,6,0,L|488:68,1,150,4|0,0:0|0:0,0:0:0:0:
44,64,141952,2,0,L|192:36,1,150,4|0,0:0|0:0,0:0:0:0:
192,348,142282,6,0,L|24:316,1,150,4|0,0:0|0:0,0:0:0:0:
467,319,142612,2,0,L|320:348,1,150,4|0,0:0|0:0,0:0:0:0:
191,35,142941,6,0,P|169:106|112:153,1,150,4|0,0:0|0:0,0:0:0:0:
399,153,143271,2,0,P|342:106|320:35,1,150,2|0,0:0|0:0,0:0:0:0:
121,293,143600,6,0,P|93:224|112:153,1,150,2|0,0:0|0:0,0:0:0:0:
399,153,143930,2,0,P|418:224|390:293,1,150,2|0,0:0|0:0,0:0:0:0:
64,12,144260,6,0,L|170:118,1,150,4|0,0:0|0:0,0:0:0:0:
64,372,144589,2,0,L|170:265,1,150,4|0,0:0|0:0,0:0:0:0:
448,12,144919,6,0,L|341:118,1,150,4|0,0:0|0:0,0:0:0:0:
448,372,145249,2,0,L|342:265,1,150,4|0,0:0|0:0,0:0:0:0:
183,40,145578,6,0,P|253:15|323:40,1,150,4|0,0:0|0:0,0:0:0:0:
323,343,145908,2,0,P|253:368|183:343,1,150,2|0,0:0|0:0,0:0:0:0:
408,119,146238,6,0,P|433:189|408:259,1,150,4|0,0:0|0:0,0:0:0:0:
105,259,146568,2,0,P|80:189|105:119,1,150,2|0,0:0|0:0,0:0:0:0:
368,320,146897,6,0,L|524:364,1,150,4|0,0:0|0:0,0:0:0:0:
144,320,147227,2,0,L|-1:360,1,150,2|0,0:0|0:0,0:0:0:0:
40,60,147556,6,0,P|105:26|176:45,1,150,4|0,0:0|0:0,0:0:0:0:
472,60,147886,2,0,P|406:26|335:45,1,150,2|0,0:0|0:0,0:0:0:0:
144,320,148216,6,0,L|122:171,1,150,4|0,0:0|0:0,0:0:0:0:
368,320,148545,2,0,L|389:171,1,150,2|0,0:0|0:0,0:0:0:0:
48,372,148875,6,0,L|26:223,1,150,4|0,0:0|0:0,0:0:0:0:
464,372,149205,2,0,L|485:223,1,150,2|0,0:0|0:0,0:0:0:0:
63,47,149534,6,0,P|94:113|161:142,1,150,4|0,0:0|0:0,0:0:0:0:
447,47,149864,2,0,P|416:113|349:142,1,150,4|0,0:0|0:0,0:0:0:0:
256,360,150194,6,0,L|256:192,1,150,4|0,0:0|0:0,0:0:0:0:
162,143,150441,1,0,0:0:0:0:
112,124,150524,1,4,0:0:0:0:
80,84,150606,1,0,0:0:0:0:
63,47,150688,1,0,0:0:0:0:
256,28,150853,5,4,0:0:0:0:
92,192,151100,1,2,0:0:0:0:
256,356,151348,2,0,P|316:316|408:344,1,168.75,2|0,0:0|0:0,0:0:0:0:
92,192,152172,5,4,0:0:0:0:
256,356,152419,1,2,0:0:0:0:
420,192,152666,1,2,0:0:0:0:
320,88,152831,6,0,L|317:69,3,18.75,2|0|0|0,0:0|0:0|0:0|0:0,0:0:0:0:
194,69,153161,2,0,L|192:88,3,18.75,2|0|0|0,0:0|0:0|0:0|0:0,0:0:0:0:
256,356,153491,5,4,0:0:0:0:
468,128,153655,1,4,0:0:0:0:
256,28,154150,5,4,0:0:0:0:
468,256,154315,1,4,0:0:0:0:
452,280,154809,6,0,P|392:336|309:336,1,168.750006437302,4|0,0:0|0:0,0:0:0:0:
60,280,155139,6,0,P|119:336|202:336,1,168.750006437302,2|0,0:0|0:0,0:0:0:0:
202,71,155469,6,0,P|119:71|60:128,1,168.750006437302,2|0,0:0|0:0,0:0:0:0:
309,71,155799,6,0,P|392:71|452:128,1,168.750006437302,2|0,0:0|0:0,0:0:0:0:
36,360,156128,5,4,0:0:0:0:
32,356,156375,1,2,0:0:0:0:
28,352,156622,1,2,0:0:0:0:
80,320,157447,5,2,0:0:0:0:
84,316,157694,1,2,0:0:0:0:
88,312,157941,1,2,0:0:0:0:
120,264,158765,5,2,0:0:0:0:
124,268,159013,1,2,0:0:0:0:
128,272,159260,1,2,0:0:0:0:
168,200,160084,6,0,L|336:207,1,168.750006437302,2|0,0:0|0:0,0:0:0:0:
392,120,160414,6,0,L|223:112,1,168.750006437302,2|0,0:0|0:0,0:0:0:0:
144,220,160743,6,0,P|120:299|144:379,1,168.750006437302,2|0,0:0|0:0,0:0:0:0:
368,379,161073,6,0,P|392:299|368:220,1,168.750006437302,2|0,0:0|0:0,0:0:0:0:
251,31,161403,6,0,P|103:82|116:238,1,337.500012874604,2|0,0:0|0:0,0:0:0:0:
260,352,162062,6,0,P|408:301|395:145,1,337.500012874604,2|0,0:0|0:0,0:0:0:0:
116,145,162721,6,0,P|103:301|251:352,1,337.500012874604,2|0,0:0|0:0,0:0:0:0:
395,238,163380,6,0,P|408:82|260:31,1,337.500012874604,2|0,0:0|0:0,0:0:0:0:
64,216,164040,6,0,L|69:328,1,112.500004291535,2|0,0:0|0:0,0:0:0:0:
442,328,164370,2,0,L|448:216,1,112.500004291535,2|0,0:0|0:0,0:0:0:0:
204,316,164699,6,0,P|254:337|306:317,1,112.500004291535,2|0,0:0|0:0,0:0:0:0:
306,66,165029,2,0,P|254:46|204:68,1,112.500004291535,2|0,0:0|0:0,0:0:0:0:
84,236,165359,6,0,L|100:347,1,112.500004291535,2|0,0:0|0:0,0:0:0:0:
428,236,165688,2,0,L|411:347,1,112.500004291535,2|0,0:0|0:0,0:0:0:0:
79,148,166018,6,0,P|30:172|7:222,1,112.500004291535,2|0,0:0|0:0,0:0:0:0:
432,148,166348,2,0,P|481:172|504:222,1,112.500004291535,2|0,0:0|0:0,0:0:0:0:
256,192,166677,12,0,169150,0:0:0:0:
106,296,169315,5,2,0:0:0:0:
72,316,169397,1,0,0:0:0:0:
56,348,169480,1,0,0:0:0:0:
88,380,169562,1,0,0:0:0:0:
136,368,169644,1,2,0:0:0:0:
256,12,169809,1,4,0:0:0:0:
406,296,170139,5,2,0:0:0:0:
256,36,170304,1,2,0:0:0:0:
106,296,170468,1,2,0:0:0:0:
352,104,170633,6,0,P|425:100|476:168,1,150,4|0,0:0|0:0,0:0:0:0:
38,154,170963,2,0,P|87:100|160:105,1,150,2|0,0:0|0:0,0:0:0:0:
160,359,171293,6,0,P|87:364|38:310,1,150,2|0,0:0|0:0,0:0:0:0:
473,310,171623,2,0,P|424:364|352:360,1,150,2|0,0:0|0:0,0:0:0:0:
380,24,171952,6,0,L|469:144,1,150,4|0,0:0|0:0,0:0:0:0:
43,144,172282,2,0,L|132:23,1,150,2|0,0:0|0:0,0:0:0:0:
132,360,172611,6,0,L|43:240,1,150,2|0,0:0|0:0,0:0:0:0:
469,239,172941,2,0,L|380:360,1,150,2|0,0:0|0:0,0:0:0:0:
130,22,173271,6,0,P|155:92|143:166,1,150,4|0,0:0|0:0,0:0:0:0:
381,361,173600,2,0,P|356:291|368:217,1,150,2|0,0:0|0:0,0:0:0:0:
62,277,173930,6,0,P|122:235|142:165,1,150,2|0,0:0|0:0,0:0:0:0:
450,107,174260,2,0,P|389:148|369:218,1,150,2|0,0:0|0:0,0:0:0:0:
80,360,174589,6,0,P|41:256|72:149,1,225,4|0,0:0|0:0,0:0:0:0:
224,24,174919,6,0,L|2:65,1,225,2|0,0:0|0:0,0:0:0:0:
288,24,175249,6,0,L|509:65,1,225,2|0,0:0|0:0,0:0:0:0:
432,360,175578,6,0,P|470:256|439:149,1,225,2|0,0:0|0:0,0:0:0:0:
160,244,175908,6,0,P|254:295|347:241,1,225,4|0,0:0|0:0,0:0:0:0:
256,68,176238,1,2,0:0:0:0:
256,68,176403,1,0,0:0:0:0:
56,184,176567,6,0,L|78:332,1,150,2|0,0:0|0:0,0:0:0:0:
433,332,176897,2,0,L|456:184,1,150,2|0,0:0|0:0,0:0:0:0:
180,32,177227,6,0,L|31:54,1,150,4|0,0:0|0:0,0:0:0:0:
332,32,177556,2,0,L|480:54,1,150,2|0,0:0|0:0,0:0:0:0:
78,332,177886,6,0,P|61:259|84:188,1,150,2|0,0:0|0:0,0:0:0:0:
427,188,178216,2,0,P|450:259|433:332,1,150,2|0,0:0|0:0,0:0:0:0:
161,180,178545,6,0,L|179:31,1,150,4|0,0:0|0:0,0:0:0:0:
28,232,178875,2,0,L|52:380,1,150,2|0,0:0|0:0,0:0:0:0:
460,380,179205,6,0,L|484:232,1,150,4|0,0:0|0:0,0:0:0:0:
332,31,179535,2,0,L|351:180,1,150,2|0,0:0|0:0,0:0:0:0:
256,359,179864,6,0,P|182:358|124:312,1,150,4|0,0:0|0:0,0:0:0:0:
255,24,180194,2,0,P|329:25|387:71,1,150,2|0,0:0|0:0,0:0:0:0:
84,204,180524,6,0,L|112:48,1,150,4|0,0:0|0:0,0:0:0:0:
296,228,180853,1,2,0:0:0:0:
284,276,180935,1,0,0:0:0:0:
256,312,181017,1,2,0:0:0:0:
216,336,181100,1,0,0:0:0:0:
172,352,181183,6,0,L|22:362,1,150,4|0,0:0|0:0,0:0:0:0:
340,32,181513,2,0,L|490:42,1,150,2|0,0:0|0:0,0:0:0:0:
490,342,181842,6,0,L|340:352,1,150,2|0,0:0|0:0,0:0:0:0:
22,22,182172,2,0,L|172:32,1,150,2|0,0:0|0:0,0:0:0:0:
384,264,182502,6,0,P|402:192|384:119,1,150,4|0,0:0|0:0,0:0:0:0:
127,119,182831,2,0,P|109:192|128:264,1,150,2|0,0:0|0:0,0:0:0:0:
488,264,183161,6,0,P|506:192|488:119,1,150,2|0,0:0|0:0,0:0:0:0:
23,119,183491,2,0,P|5:192|24:264,1,150,2|0,0:0|0:0,0:0:0:0:
336,352,183820,6,0,L|186:352,1,150,4|0,0:0|0:0,0:0:0:0:
336,32,184150,2,0,L|186:32,1,150,2|0,0:0|0:0,0:0:0:0:
140,364,184480,6,0,P|66:360|6:316,1,150,2|0,0:0|0:0,0:0:0:0:
505,67,184809,2,0,P|445:23|372:20,1,150,2|0,0:0|0:0,0:0:0:0:
140,364,185139,6,0,L|120:139,1,225,4|0,0:0|0:0,0:0:0:0:
392,139,185469,6,0,L|372:364,1,225,2|0,0:0|0:0,0:0:0:0:
20,208,185798,6,0,P|99:281|207:266,1,225,2|0,0:0|0:0,0:0:0:0:
364,24,186128,6,0,B|256:1|256:69|144:33,1,225,2|0,0:0|0:0,0:0:0:0:
301,264,186458,6,0,P|409:281|490:207,1,225,4|0,0:0|0:0,0:0:0:0:
256,108,186787,1,2,0:0:0:0:
256,108,186952,1,0,0:0:0:0:
100,224,187117,6,0,L|126:371,1,150,2|0,0:0|0:0,0:0:0:0:
412,224,187447,2,0,L|385:371,1,150,2|0,0:0|0:0,0:0:0:0:
16,68,187776,6,0,L|160:24,1,150,4|0,0:0|0:0,0:0:0:0:
496,68,188106,2,0,L|352:24,1,150,2|0,0:0|0:0,0:0:0:0:
184,356,188436,6,0,P|110:371|36:366,1,150,2|0,0:0|0:0,0:0:0:0:
475,366,188765,2,0,P|401:371|328:356,1,150,2|0,0:0|0:0,0:0:0:0:
60,16,189095,6,0,L|38:164,1,150,4|0,0:0|0:0,0:0:0:0:
475,164,189425,2,0,L|454:16,1,150,2|0,0:0|0:0,0:0:0:0:
60,368,189754,6,0,L|38:219,1,150,4|0,0:0|0:0,0:0:0:0:
475,220,190084,2,0,L|454:369,1,150,2|0,0:0|0:0,0:0:0:0:
184,32,190414,6,0,P|253:7|323:32,1,150,4|0,0:0|0:0,0:0:0:0:
322,352,190743,2,0,P|253:377|184:352,1,150,4|0,0:0|0:0,0:0:0:0:
100,260,190991,1,0,0:0:0:0:
80,224,191073,1,4,0:0:0:0:
64,188,191155,1,0,0:0:0:0:
72,144,191238,1,0,0:0:0:0:
96,112,191320,1,0,0:0:0:0:
132,84,191403,2,0,B|231:41|231:137|348:91,1,225,4|0,0:0|0:0,0:0:0:0:
451,356,191732,6,0,P|480:287|480:212,1,150,4|0,0:0|0:0,0:0:0:0:
256,24,192062,1,2,0:0:0:0:
31,212,192227,2,0,P|31:287|60:356,1,150,2|0,0:0|0:0,0:0:0:0:
504,36,192557,6,0,L|354:25,1,150,2|0,0:0|0:0,0:0:0:0:
8,36,192886,2,0,L|157:25,1,150,2|0,0:0|0:0,0:0:0:0:
479,215,193216,6,0,P|475:290|434:352,1,150,2|0,0:0|0:0,0:0:0:0:
256,284,193545,1,2,0:0:0:0:
24,168,193710,6,0,P|28:284|100:364,1,225,4|0,0:0|0:0,0:0:0:0:
414,362,194040,6,0,P|486:278|488:168,1,225,4|0,0:0|0:0,0:0:0:0:
256,132,194370,6,0,L|256:282,1,150,4|0,0:0|0:0,0:0:0:0:
112,368,194699,1,2,0:0:0:0:
28,116,194864,2,0,P|61:50|126:15,1,150,2|0,0:0|0:0,0:0:0:0:
484,116,195194,6,0,P|450:50|385:15,1,150,2|0,0:0|0:0,0:0:0:0:
144,152,195524,2,0,L|160:308,1,150,2|0,0:0|0:0,0:0:0:0:
487,339,195853,6,0,P|417:360|348:336,1,150,2|0,0:0|0:0,0:0:0:0:
252,192,196183,1,2,0:0:0:0:
48,59,196348,6,0,P|154:41|187:57,1,150,4|0,0:0|0:0,0:0:0:0:
464,60,196678,2,0,P|394:35|324:57,1,150,4|0,0:0|0:0,0:0:0:0:
256,312,197007,5,4,0:0:0:0:
48,59,197172,2,0,P|61:132|43:204,1,150,2|0,0:0|0:0,0:0:0:0:
464,59,197502,2,0,P|451:132|469:204,1,150,2|0,0:0|0:0,0:0:0:0:
24,348,197831,6,0,L|196:332,1,150,2|0,0:0|0:0,0:0:0:0:
488,348,198161,2,0,L|338:334,1,150,2|0,0:0|0:0,0:0:0:0:
96,176,198491,6,0,P|80:103|99:31,1,150,2|0,0:0|0:0,0:0:0:0:
256,280,198820,1,2,0:0:0:0:
409,15,198985,6,0,P|427:125|396:232,1,225,4|0,0:0|0:0,0:0:0:0:
116,232,199315,6,0,P|84:125|103:15,1,225,4|0,0:0|0:0,0:0:0:0:
484,320,199644,6,0,L|335:343,1,150,4|0,0:0|0:0,0:0:0:0:
28,320,199974,2,0,L|176:343,1,150,2|0,0:0|0:0,0:0:0:0:
464,36,200304,6,0,L|345:128,1,150,4|0,0:0|0:0,0:0:0:0:
48,36,200633,2,0,L|166:128,1,150,2|0,0:0|0:0,0:0:0:0:
508,344,200963,6,0,P|440:371|375:338,1,150,4|0,0:0|0:0,0:0:0:0:
4,344,201293,2,0,P|71:371|136:338,1,150,4|0,0:0|0:0,0:0:0:0:
136,45,201622,6,0,P|71:12|4:40,1,150,4|0,0:0|0:0,0:0:0:0:
375,45,201952,2,0,P|440:12|508:40,1,150,4|0,0:0|0:0,0:0:0:0:
256,192,202282,5,4,0:0:0:0:
72,352,202447,2,0,L|50:203,1,150,2|0,0:0|0:0,0:0:0:0:
461,180,202776,2,0,L|440:32,1,150,2|0,0:0|0:0,0:0:0:0:
72,32,203106,6,0,L|50:180,1,150,2|0,0:0|0:0,0:0:0:0:
461,203,203435,2,0,L|440:352,1,150,2|0,0:0|0:0,0:0:0:0:
28,92,203765,6,0,P|100:93|152:41,1,150,2|0,0:0|0:0,0:0:0:0:
256,192,204095,1,2,0:0:0:0:
487,146,204260,6,0,P|500:256|456:359,1,225,4|0,0:0|0:0,0:0:0:0:
55,359,204589,6,0,P|10:257|22:147,1,225,4|0,0:0|0:0,0:0:0:0:
344,52,204919,6,0,L|492:33,1,150,4|0,0:0|0:0,0:0:0:0:
256,192,205249,1,2,0:0:0:0:
19,33,205414,2,0,L|168:52,1,150,2|0,0:0|0:0,0:0:0:0:
168,332,205743,6,0,L|19:350,1,150,2|0,0:0|0:0,0:0:0:0:
492,350,206073,2,0,L|344:332,1,150,2|0,0:0|0:0,0:0:0:0:
19,32,206403,6,0,P|12:106|44:173,1,150,2|0,0:0|0:0,0:0:0:0:
256,320,206732,1,2,0:0:0:0:
467,173,206897,6,0,P|499:106|493:32,1,150,4|0,0:0|0:0,0:0:0:0:
19,33,207227,2,0,P|12:106|44:173,1,150,4|0,0:0|0:0,0:0:0:0:
256,320,207556,5,4,0:0:0:0:
504,112,207721,2,0,L|369:46,1,150,2|0,0:0|0:0,0:0:0:0:
369,337,208051,2,0,L|504:272,1,150,2|0,0:0|0:0,0:0:0:0:
8,272,208381,6,0,L|142:337,1,150,2|0,0:0|0:0,0:0:0:0:
142,46,208711,2,0,L|8:112,1,150,2|0,0:0|0:0,0:0:0:0:
369,337,209040,6,0,P|407:273|411:198,1,150,2|0,0:0|0:0,0:0:0:0:
256,24,209370,1,2,0:0:0:0:
138,334,209534,6,0,P|58:261|65:152,1,225,4|0,0:0|0:0,0:0:0:0:
373,49,209864,6,0,P|453:122|446:231,1,225,4|0,0:0|0:0,0:0:0:0:
24,56,210194,6,0,L|172:35,1,150,4|0,0:0|0:0,0:0:0:0:
488,328,210524,2,0,L|339:348,1,150,2|0,0:0|0:0,0:0:0:0:
24,328,210853,6,0,L|172:348,1,150,4|0,0:0|0:0,0:0:0:0:
488,56,211183,2,0,L|339:35,1,150,2|0,0:0|0:0,0:0:0:0:
23,359,211513,6,0,P|97:357|150:306,1,150,4|0,0:0|0:0,0:0:0:0:
488,24,211842,2,0,P|414:26|361:77,1,150,4|0,0:0|0:0,0:0:0:0:
488,359,212172,6,0,P|414:357|361:306,1,150,4|0,0:0|0:0,0:0:0:0:
150,77,212502,1,4,0:0:0:0:
116,60,212584,1,0,0:0:0:0:
80,52,212666,1,0,0:0:0:0:
44,68,212749,1,0,0:0:0:0:
12,96,212831,6,0,L|37:243,1,150,4|0,0:0|0:0,0:0:0:0:
500,96,213161,2,0,L|474:243,1,150,4|0,0:0|0:0,0:0:0:0:
7,363,213491,6,0,P|81:361|142:318,1,150,4|0,0:0|0:0,0:0:0:0:
504,363,213820,2,0,P|430:361|369:318,1,150,4|4,0:0|0:0,0:0:0:0:
504,21,214315,5,2,0:0:0:0:
8,363,214479,1,4,0:0:0:0:
8,21,214809,5,2,0:0:0:0:
504,363,214974,1,4,0:0:0:0:
256,192,215139,12,0,220414,0:0:0:0:
