osu file format v14

[General]
AudioFilename: audio.mp3
AudioLeadIn: 0
PreviewTime: 54145
Countdown: 0
SampleSet: Soft
StackLeniency: 0.7
Mode: 0
LetterboxInBreaks: 0
WidescreenStoryboard: 1

[Editor]
DistanceSpacing: 1
BeatDivisor: 2
GridSize: 32
TimelineZoom: 1.7

[Metadata]
Title:Kotonoha (TV Size)
TitleUnicode:言ノ葉 (TV Size)
Artist:Piko
ArtistUnicode:ピコ
Creator:yShadowXOP_
Version:Easy
Source:刀語
Tags:Sword story samfree katanagatari replay anime ending seto kousuke Gary00737
BeatmapID:1779085
BeatmapSetID:851013

[Difficulty]
HPDrainRate:3
CircleSize:2.8
OverallDifficulty:3
ApproachRate:3
SliderMultiplier:0.95
SliderTickRate:1

[Events]
//Background and Video events
0,0,"BG.jpg",0,0
//Break Periods
//Storyboard Layer 0 (Background)
//Storyboard Layer 1 (Fail)
//Storyboard Layer 2 (Pass)
//Storyboard Layer 3 (Foreground)
//Storyboard Sound Samples

[TimingPoints]
145,413.793103448276,4,2,1,50,1,0
145,-95.2380952380952,4,2,1,50,0,0
8420,-95.2380952380952,4,2,1,60,0,0
13386,-95.2380952380952,4,2,6,60,0,0
13593,-95.2380952380952,4,2,1,60,0,0
14627,-95.2380952380952,4,2,10,100,0,0
14731,-95.2380952380952,4,2,1,60,0,0
15041,-95.2380952380952,4,2,1,70,0,0
27455,-95.2380952380952,4,2,1,70,0,0
28282,-95.2380952380952,4,3,1,60,0,0
41524,-95.2380952380952,4,2,1,65,0,0
47110,-95.2380952380952,4,2,3,70,0,0
47731,-95.2380952380952,4,2,1,70,0,0
47938,-95.2380952380952,4,2,3,70,0,0
48351,-95.2380952380952,4,2,1,65,0,0
53110,-95.2380952380952,4,2,3,75,0,0
53731,-95.2380952380952,4,2,1,75,0,0
54765,-95.2380952380952,4,2,1,80,0,1
66558,-95.2380952380952,4,2,3,80,0,1
67386,-95.2380952380952,4,2,1,80,0,1
77938,-95.2380952380952,4,2,3,80,0,1
78765,-95.2380952380952,4,2,1,60,0,1
78972,-95.2380952380952,4,2,1,80,0,1
79593,-95.2380952380952,4,2,6,80,0,0
80627,-95.2380952380952,4,2,6,40,0,0
80731,-95.2380952380952,4,2,6,45,0,0
80834,-95.2380952380952,4,2,6,50,0,0
80938,-95.2380952380952,4,2,6,55,0,0
81041,-95.2380952380952,4,2,6,60,0,0
81145,-95.2380952380952,4,2,1,65,0,0
81248,-95.2380952380952,4,2,1,70,0,0
87662,461.538461538462,4,2,1,70,1,0
87662,-95.2380952380952,4,2,1,70,0,0
88282,413.793103448276,4,2,1,40,1,0
88282,-95.2380952380952,4,2,1,40,0,0
88386,-95.2380952380952,4,2,1,5,0,0

[Colours]
Combo1 : 121,220,12
Combo2 : 212,212,212
Combo3 : 187,0,0
Combo4 : 142,106,166
Combo5 : 255,170,255
Combo6 : 162,81,81
SliderBorder : 255,255,255
SliderTrackOverride : 0,0,0

[HitObjects]
82,105,1800,6,0,P|96:168|116:306,1,199.499993911743,2|2,0:0|0:0,0:0:0:0:
306,361,3455,2,0,P|314:296|342:159,1,199.499993911743,2|2,0:0|0:0,0:0:0:0:
417,100,4696,1,0,0:0:0:0:
336,40,5110,6,0,B|266:45|266:45|224:73|224:73|139:81,1,199.499993911743,2|2,0:0|0:0,0:0:0:0:
13,230,6765,2,0,B|83:235|83:235|125:263|125:263|210:271,1,199.499993911743,2|2,0:0|0:0,0:0:0:0:
303,277,8007,1,2,0:0:0:0:
358,194,8420,6,0,P|392:228|400:281,2,99.7499969558717,6|0|0,3:0|3:0|3:0,0:0:0:0:
260,171,9662,1,0,3:0:0:0:
208,256,10076,2,0,P|159:254|117:225,1,99.7499969558717,0|0,3:0|3:0,0:0:0:0:
37,284,10903,2,0,P|17:239|26:188,1,99.7499969558717,0|0,3:0|3:0,0:0:0:0:
102,128,11731,6,0,P|111:90|96:29,2,99.7499969558717,2|0|0,3:0|3:0|3:0,0:0:0:0:
24,190,12972,2,0,P|17:239|37:284,1,99.7499969558717,0|4,3:0|0:0,0:0:0:0:
192,29,15041,6,0,P|202:74|215:138,1,99.7499969558717,4|8,3:0|0:0,0:0:0:0:
311,147,15869,2,0,P|300:192|287:256,1,99.7499969558717,0|8,3:0|0:0,0:0:0:0:
222,318,16696,2,0,P|174:324|124:302,1,99.7499973363877,0|8,3:0|0:0,0:0:0:0:
51,369,17524,2,0,P|28:325|32:271,1,99.7499969558717,0|8,3:0|0:0,0:0:0:0:
106,210,18351,6,0,B|149:177|146:125|146:125|183:173|248:158,1,199.499993911743,2|2,3:0|3:0,0:0:0:0:
333,182,19593,1,8,0:0:0:0:
360,86,20007,2,0,P|401:108|426:152,2,99.7499969558717,2|8|2,3:0|0:0|3:0,0:0:0:0:
265,65,21248,1,12,0:0:0:0:
235,160,21662,6,0,P|245:205|258:269,1,99.7499969558717,4|8,3:0|0:0,0:0:0:0:
238,355,22489,2,0,P|283:345|347:332,1,99.7499969558717,0|8,3:0|0:0,0:0:0:0:
425,378,23317,2,0,P|436:331|416:276,1,99.7499969558717,0|8,3:0|0:0,0:0:0:0:
336,230,24145,2,0,P|324:183|344:128,1,99.7499969558717,0|8,3:0|0:0,0:0:0:0:
395,53,24972,6,0,B|286:48|328:136|205:135,1,199.499994672775,2|2,3:0|3:0,0:0:0:0:
133,88,26213,1,8,0:0:0:0:
85,183,26627,2,0,P|98:229|111:293,1,99.7499969558717,2|12,3:0|0:0,0:0:0:0:
54,358,27455,2,0,B|2:348,2,49.8749984779358,2|8|8,3:0|0:0|0:0,0:0:0:0:
109,280,28282,6,0,P|142:259|211:257,1,99.7499969558717,6|0,0:0|0:0,0:0:0:0:
268,328,29110,2,0,B|377:333|335:245|458:246,1,199.499994672775,0|2,0:0|0:0,0:0:0:0:
500,166,30351,2,0,P|505:119|514:55,1,99.7499969558717,0|0,0:0|0:0,0:0:0:0:
424,20,31179,1,0,0:0:0:0:
356,93,31593,6,0,B|321:107|321:107|249:93,1,99.7499969558717,2|0,0:0|0:0,0:0:0:0:
186,27,32420,2,0,B|224:68|224:68|202:225,2,199.499993911743,0|0|0,0:0|0:0|0:0,0:0:0:0:
104,84,34489,1,0,0:0:0:0:
19,136,34903,6,0,P|30:181|43:245,1,99.7499969558717,2|0,0:0|0:0,0:0:0:0:
74,327,35731,2,0,B|128:306|132:253|132:253|162:305|222:300,2,199.499993911743,0|2|0,0:0|0:0|0:0,0:0:0:0:
40,233,37800,1,0,0:0:0:0:
111,162,38213,6,0,P|113:114|93:64,2,99.7499969558717
41,233,39455,1,0,0:0:0:0:
136,263,39869,2,0,B|297:255|235:386|417:384,1,299.249990867615,2|8,3:0|3:0,0:0:0:0:
467,314,41524,5,4,3:0:0:0:
397,242,41938,2,0,P|404:196|417:132,1,99.7499969558717,8|0,0:0|3:0,0:0:0:0:
340,77,42765,2,0,P|292:71|242:93,1,99.7499973363877,8|0,0:0|3:0,0:0:0:0:
194,176,43593,2,0,P|145:177|97:151,2,99.7499973363877,8|0|8,0:0|3:0|0:0,0:0:0:0:
293,164,44834,5,0,3:0:0:0:
374,221,45248,2,0,P|380:266|387:331,1,99.7499969558717,8|0,0:0|3:0,0:0:0:0:
297,367,46076,2,0,P|253:344|197:344,1,99.7499969558717,8|0,0:0|3:0,0:0:0:0:
105,362,46903,1,8,0:0:0:0:
48,279,47317,2,0,L|-18:291,2,49.8749984779358,10|8|8,0:0|0:0|0:0,0:0:0:0:
105,362,48145,5,0,0:0:0:0:
154,275,48558,2,0,L|139:167,1,99.7499969558717,8|0,0:0|3:0,0:0:0:0:
181,85,49386,2,0,P|224:62|278:66,1,99.7499973363877,8|0,0:0|3:0,0:0:0:0:
341,138,50213,2,0,P|297:160|243:156,2,99.7499969558717,8|0|8,0:0|3:0|0:0,0:0:0:0:
412,67,51455,6,0,P|438:108|441:157,1,99.7499969558717,2|8,3:0|0:0,0:0:0:0:
365,224,52282,2,0,P|354:272|368:319,1,99.7499969558717,0|8,3:0|0:0,0:0:0:0:
445,382,53110,2,0,P|375:371|292:361,1,149.624995433808,8|8,0:0|0:0,0:0:0:0:
71,329,54765,6,0,P|61:284|48:220,1,99.7499969558717,4|8,3:0|0:0,0:0:0:0:
8,140,55593,2,0,P|53:130|117:117,1,99.7499969558717,2|8,3:0|0:0,0:0:0:0:
171,44,56420,2,0,P|216:54|280:67,1,99.7499969558717,2|8,3:0|0:0,0:0:0:0:
366,85,57248,1,0,3:0:0:0:
326,176,57662,1,8,0:0:0:0:
424,188,58076,6,0,P|432:240|415:289,1,99.7499969558717,2|8,3:0|0:0,0:0:0:0:
408,384,58903,2,0,P|359:364|326:325,1,99.7499969558717,2|8,3:0|0:0,0:0:0:0:
245,277,59731,2,0,P|287:244|337:234,1,99.7499969558717,2|8,3:0|0:0,0:0:0:0:
419,186,60558,1,0,3:0:0:0:
371,98,60972,1,8,0:0:0:0:
421,11,61386,6,0,B|312:6|354:94|231:93,1,199.499994672775,4|0,3:0|3:0,0:0:0:0:
170,29,62627,1,8,0:0:0:0:
87,84,63041,2,0,P|76:131|96:186,1,99.7499969558717,0|8,3:0|0:0,0:0:0:0:
183,215,63869,1,0,3:0:0:0:
135,303,64282,1,8,0:0:0:0:
206,372,64696,6,0,B|248:341|248:341|406:365,1,199.499993911743,2|0,3:0|3:0,0:0:0:0:
480,312,65938,1,8,0:0:0:0:
509,217,66351,2,0,L|489:119,1,99.7499969558717,2|0,3:0|0:0,0:0:0:0:
409,59,67179,2,0,L|417:4,2,49.8749984779358,10|8|2,0:0|0:0|0:0,0:0:0:0:
335,127,68007,6,0,P|295:118|222:103,1,99.7499969558717,6|8,3:0|0:0,0:0:0:0:
171,31,68834,2,0,P|148:71|147:143,1,99.7499969558717,2|8,3:0|0:0,0:0:0:0:
66,187,69662,2,0,P|89:227|89:299,1,99.7499969558717,2|8,3:0|0:0,0:0:0:0:
185,317,70489,1,0,3:0:0:0:
269,263,70903,1,8,0:0:0:0:
360,302,71317,6,0,P|368:250|351:201,1,99.7499969558717,2|8,3:0|0:0,0:0:0:0:
343,106,72145,2,0,P|294:126|261:165,1,99.7499969558717,2|8,3:0|0:0,0:0:0:0:
182,218,72972,2,0,P|224:251|274:261,1,99.7499969558717,2|8,3:0|0:0,0:0:0:0:
351,206,73800,1,0,3:0:0:0:
441,252,74213,1,8,0:0:0:0:
509,179,74627,6,0,B|520:37|520:37|473:76,1,199.499993911743,6|0,3:0|3:0,0:0:0:0:
410,149,75869,1,8,0:0:0:0:
348,70,76282,2,0,P|301:59|246:79,1,99.7499969558717,2|8,3:0|0:0,0:0:0:0:
210,164,77110,2,0,P|163:176|108:156,1,99.7499969558717,0|8,3:0|0:0,0:0:0:0:
33,103,77938,6,0,P|24:65|39:4,2,99.7499969558717,12|10|8,0:0|0:0|3:0,0:0:0:0:
115,161,79179,2,0,P|162:175|209:163,1,99.7499969558717,8|4,0:3|0:0,0:0:0:0:
445,136,80834,1,4,0:0:0:0:
388,218,81248,6,0,P|343:228|279:241,1,99.7499969558717,4|8,3:0|0:0,0:0:0:0:
270,337,82076,2,0,P|225:326|161:313,1,99.7499969558717,0|8,3:0|0:0,0:0:0:0:
100,251,82903,2,0,P|94:203|116:153,1,99.7499973363877,0|8,3:0|0:0,0:0:0:0:
56,74,83731,2,0,P|100:51|154:55,1,99.7499969558717,8|8,0:0|0:3,0:0:0:0:
203,136,84558,6,0,B|246:103|243:51|243:51|280:99|345:84,1,199.499993911743,6|8,3:0|0:0,0:0:0:0:
417,44,85800,1,6,3:0:0:0:
498,105,86213,2,0,P|488:150|468:252,2,149.624995433808,6|8|8,3:0|0:3|0:0,0:0:0:0:
417,44,87892,1,2,3:1:0:0:
327,87,88282,5,4,3:0:0:0:
