osu file format v14

[General]
AudioFilename: audio.mp3
AudioLeadIn: 0
PreviewTime: 58873
Countdown: 0
SampleSet: Normal
StackLeniency: 0.7
Mode: 1
LetterboxInBreaks: 0
WidescreenStoryboard: 1

[Editor]
DistanceSpacing: 1
BeatDivisor: 4
GridSize: 32
TimelineZoom: 1.9

[Metadata]
Title:Pikachu no Uta (TV Size)
TitleUnicode:ピカチュウのうた (TV Size)
Artist:Pikachu (CV:Ikue Otani)
ArtistUnicode:ピカチュウ (CV:大谷育江)
Creator:ExtreIce
Version:Rew's Oni
Source:ポケットモンスターXY&Z
Tags:pikachu no Uta ピカチュウ Ikue Otani 大谷育江 ポケットモ Pokémon pokemon XY Z XY&Z pocket monsters rew0825
BeatmapID:1047619
BeatmapSetID:491562

[Difficulty]
HPDrainRate:6
CircleSize:4
OverallDifficulty:6
ApproachRate:5
SliderMultiplier:1.6
SliderTickRate:1

[Events]
//Background and Video events
Video,0,"video.mp4"
0,0,"BG.jpg",0,0
//Break Periods
//Storyboard Layer 0 (Background)
//Storyboard Layer 1 (Fail)
//Storyboard Layer 2 (Pass)
//Storyboard Layer 3 (Foreground)
//Storyboard Sound Samples

[TimingPoints]
720,461.538461538462,4,1,0,50,1,0
59796,461.538461538462,4,1,0,50,1,1
78257,461.538461538462,4,1,0,50,1,0

[HitObjects]
256,192,4412,5,0,0:0:0:0:
256,192,4873,1,2,0:0:0:0:
256,192,5181,1,0,0:0:0:0:
256,192,5335,1,0,0:0:0:0:
256,192,5796,1,2,0:0:0:0:
256,192,6104,1,0,0:0:0:0:
256,192,6258,1,2,0:0:0:0:
256,192,6720,1,2,0:0:0:0:
256,192,7181,1,4,0:0:0:0:
256,192,8104,1,0,0:0:0:0:
256,192,8566,1,2,0:0:0:0:
256,192,8873,1,0,0:0:0:0:
256,192,9027,1,0,0:0:0:0:
256,192,9489,1,2,0:0:0:0:
256,192,9796,1,0,0:0:0:0:
256,192,9950,1,2,0:0:0:0:
256,192,10412,1,2,0:0:0:0:
256,192,10873,1,4,0:0:0:0:
256,192,11796,1,0,0:0:0:0:
256,192,12104,1,2,0:0:0:0:
256,192,12258,1,2,0:0:0:0:
256,192,12566,1,0,0:0:0:0:
256,192,12720,1,0,0:0:0:0:
256,192,13181,1,2,0:0:0:0:
256,192,13489,1,0,0:0:0:0:
256,192,13643,1,2,0:0:0:0:
256,192,14104,1,2,0:0:0:0:
256,192,14566,1,4,0:0:0:0:
256,192,15489,1,0,0:0:0:0:
256,192,15796,1,2,0:0:0:0:
256,192,15950,1,2,0:0:0:0:
256,192,16258,1,0,0:0:0:0:
256,192,16412,1,0,0:0:0:0:
256,192,16873,1,2,0:0:0:0:
256,192,17181,1,0,0:0:0:0:
256,192,17335,1,2,0:0:0:0:
256,192,17796,1,2,0:0:0:0:
256,192,18258,1,4,0:0:0:0:
256,192,19181,1,0,0:0:0:0:
256,192,19489,1,2,0:0:0:0:
256,192,19643,1,2,0:0:0:0:
256,192,19950,1,0,0:0:0:0:
256,192,20104,1,0,0:0:0:0:
256,192,20412,1,0,0:0:0:0:
256,192,20566,1,2,0:0:0:0:
256,192,21027,1,0,0:0:0:0:
256,192,21335,1,2,0:0:0:0:
256,192,21489,1,2,0:0:0:0:
256,192,21796,1,0,0:0:0:0:
256,192,21950,1,0,0:0:0:0:
256,192,22258,1,0,0:0:0:0:
256,192,22412,1,2,0:0:0:0:
256,192,22873,1,0,0:0:0:0:
256,192,23181,1,2,0:0:0:0:
256,192,23335,1,2,0:0:0:0:
256,192,23643,1,0,0:0:0:0:
256,192,23796,1,2,0:0:0:0:
256,192,24104,1,2,0:0:0:0:
256,192,24258,1,2,0:0:0:0:
256,192,24720,1,0,0:0:0:0:
256,192,25027,1,2,0:0:0:0:
256,192,25181,1,2,0:0:0:0:
256,192,25489,1,0,0:0:0:0:
256,192,25643,1,2,0:0:0:0:
256,192,25950,1,2,0:0:0:0:
256,192,26104,1,2,0:0:0:0:
256,192,26566,1,0,0:0:0:0:
256,192,26873,1,0,0:0:0:0:
256,192,27027,1,0,0:0:0:0:
256,192,27335,1,0,0:0:0:0:
256,192,27489,1,2,0:0:0:0:
256,192,27796,1,2,0:0:0:0:
256,192,27950,1,2,0:0:0:0:
256,192,28412,1,0,0:0:0:0:
256,192,28720,1,0,0:0:0:0:
256,192,28873,1,0,0:0:0:0:
256,192,29181,1,0,0:0:0:0:
256,192,29335,1,2,0:0:0:0:
256,192,29643,1,2,0:0:0:0:
256,192,29796,1,2,0:0:0:0:
256,192,30258,1,0,0:0:0:0:
256,192,30566,1,2,0:0:0:0:
256,192,30720,1,2,0:0:0:0:
256,192,31027,1,2,0:0:0:0:
256,192,31181,1,0,0:0:0:0:
256,192,31489,1,2,0:0:0:0:
256,192,31643,1,2,0:0:0:0:
256,192,31950,1,0,0:0:0:0:
256,192,32104,1,2,0:0:0:0:
256,192,32566,1,2,0:0:0:0:
256,192,33027,1,4,0:0:0:0:
256,192,33950,1,2,0:0:0:0:
256,192,34412,1,2,0:0:0:0:
256,192,34720,1,0,0:0:0:0:
256,192,34873,1,2,0:0:0:0:
256,192,35335,1,2,0:0:0:0:
256,192,35643,1,0,0:0:0:0:
256,192,35796,1,2,0:0:0:0:
256,192,36104,1,2,0:0:0:0:
256,192,36258,1,0,0:0:0:0:
256,192,36566,1,2,0:0:0:0:
256,192,36720,1,2,0:0:0:0:
256,192,37027,1,2,0:0:0:0:
256,192,37181,1,0,0:0:0:0:
256,192,37489,1,0,0:0:0:0:
256,192,37643,1,2,0:0:0:0:
256,192,38104,1,2,0:0:0:0:
256,192,38412,1,0,0:0:0:0:
256,192,38566,1,2,0:0:0:0:
256,192,39027,1,2,0:0:0:0:
256,192,39335,1,2,0:0:0:0:
256,192,39489,1,2,0:0:0:0:
256,192,39796,1,0,0:0:0:0:
256,192,39950,1,2,0:0:0:0:
256,192,40258,1,0,0:0:0:0:
256,192,40412,1,0,0:0:0:0:
256,192,40873,1,2,0:0:0:0:
256,192,41027,1,0,0:0:0:0:
256,192,41181,1,0,0:0:0:0:
256,192,41335,1,2,0:0:0:0:
256,192,41643,1,0,0:0:0:0:
256,192,41796,1,2,0:0:0:0:
256,192,42104,1,2,0:0:0:0:
256,192,42258,1,0,0:0:0:0:
256,192,42720,1,2,0:0:0:0:
256,192,43027,1,0,0:0:0:0:
256,192,43181,1,0,0:0:0:0:
256,192,43489,1,2,0:0:0:0:
256,192,43643,1,2,0:0:0:0:
256,192,43950,1,2,0:0:0:0:
256,192,44104,1,0,0:0:0:0:
256,192,44412,1,2,0:0:0:0:
256,192,44566,1,0,0:0:0:0:
256,192,44873,1,0,0:0:0:0:
256,192,45027,1,2,0:0:0:0:
256,192,45489,1,2,0:0:0:0:
256,192,45796,1,0,0:0:0:0:
256,192,45950,1,0,0:0:0:0:
256,192,46412,1,2,0:0:0:0:
256,192,46720,1,0,0:0:0:0:
256,192,46873,1,2,0:0:0:0:
256,192,47335,1,2,0:0:0:0:
256,192,47489,1,2,0:0:0:0:
256,192,47643,1,2,0:0:0:0:
256,192,47796,1,4,0:0:0:0:
256,192,48720,1,4,0:0:0:0:
256,192,49181,1,2,0:0:0:0:
256,192,49643,1,4,0:0:0:0:
256,192,50104,1,2,0:0:0:0:
256,192,50566,1,4,0:0:0:0:
256,192,51027,1,4,0:0:0:0:
256,192,51489,1,4,0:0:0:0:
256,192,51950,1,2,0:0:0:0:
256,192,52412,1,4,0:0:0:0:
256,192,52873,1,2,0:0:0:0:
256,192,53335,1,4,0:0:0:0:
256,192,53796,1,2,0:0:0:0:
256,192,54258,1,4,0:0:0:0:
256,192,54720,1,4,0:0:0:0:
256,192,55181,1,4,0:0:0:0:
256,192,55643,1,2,0:0:0:0:
256,192,56104,1,0,0:0:0:0:
256,192,56796,12,0,57720,0:0:0:0:
256,192,59796,5,0,0:0:0:0:
256,192,60257,1,2,0:0:0:0:
256,192,60488,1,0,0:0:0:0:
256,192,60719,1,2,0:0:0:0:
256,192,61180,1,2,0:0:0:0:
256,192,61411,1,0,0:0:0:0:
256,192,61526,1,0,0:0:0:0:
256,192,61642,1,2,0:0:0:0:
256,192,61872,1,2,0:0:0:0:
256,192,61988,1,2,0:0:0:0:
256,192,62103,1,0,0:0:0:0:
256,192,62334,1,0,0:0:0:0:
256,192,62449,1,0,0:0:0:0:
256,192,62565,1,2,0:0:0:0:
256,192,62680,1,0,0:0:0:0:
256,192,62796,1,2,0:0:0:0:
256,192,63026,1,0,0:0:0:0:
256,192,63257,1,2,0:0:0:0:
256,192,63488,1,0,0:0:0:0:
256,192,63719,1,0,0:0:0:0:
256,192,63949,1,2,0:0:0:0:
256,192,64411,1,0,0:0:0:0:
256,192,64872,1,2,0:0:0:0:
256,192,65103,1,2,0:0:0:0:
256,192,65334,1,0,0:0:0:0:
256,192,65565,1,0,0:0:0:0:
256,192,65680,1,0,0:0:0:0:
256,192,65796,1,2,0:0:0:0:
256,192,66026,1,0,0:0:0:0:
256,192,66142,1,0,0:0:0:0:
256,192,66257,1,2,0:0:0:0:
256,192,66372,1,0,0:0:0:0:
256,192,66488,1,0,0:0:0:0:
256,192,66719,1,2,0:0:0:0:
256,192,66949,1,2,0:0:0:0:
256,192,67180,1,0,0:0:0:0:
256,192,67642,1,2,0:0:0:0:
256,192,67872,1,0,0:0:0:0:
256,192,68103,1,2,0:0:0:0:
256,192,68565,1,2,0:0:0:0:
256,192,68796,1,2,0:0:0:0:
256,192,69026,1,0,0:0:0:0:
256,192,69257,1,2,0:0:0:0:
256,192,69372,1,2,0:0:0:0:
256,192,69488,1,0,0:0:0:0:
256,192,69719,1,0,0:0:0:0:
256,192,69834,1,0,0:0:0:0:
256,192,69949,1,2,0:0:0:0:
256,192,70065,1,2,0:0:0:0:
256,192,70180,1,0,0:0:0:0:
256,192,70411,1,2,0:0:0:0:
256,192,70642,1,2,0:0:0:0:
256,192,70757,1,2,0:0:0:0:
256,192,70872,1,0,0:0:0:0:
256,192,71103,1,2,0:0:0:0:
256,192,71334,1,0,0:0:0:0:
256,192,71796,1,2,0:0:0:0:
256,192,72257,1,0,0:0:0:0:
256,192,72488,1,2,0:0:0:0:
256,192,72719,1,0,0:0:0:0:
256,192,72949,1,2,0:0:0:0:
256,192,73065,1,0,0:0:0:0:
256,192,73180,1,2,0:0:0:0:
256,192,73411,1,0,0:0:0:0:
256,192,73526,1,2,0:0:0:0:
256,192,73642,1,0,0:0:0:0:
256,192,73757,1,0,0:0:0:0:
256,192,73872,1,2,0:0:0:0:
256,192,74103,1,2,0:0:0:0:
256,192,74334,1,0,0:0:0:0:
256,192,74565,1,2,0:0:0:0:
256,192,74680,1,2,0:0:0:0:
256,192,74796,1,0,0:0:0:0:
256,192,74911,1,0,0:0:0:0:
256,192,75026,1,2,0:0:0:0:
256,192,75257,1,0,0:0:0:0:
256,192,75372,1,0,0:0:0:0:
256,192,75488,1,2,0:0:0:0:
256,192,75603,1,0,0:0:0:0:
256,192,75719,1,0,0:0:0:0:
256,192,75834,1,0,0:0:0:0:
256,192,75949,1,2,0:0:0:0:
256,192,76180,1,0,0:0:0:0:
256,192,76411,1,2,0:0:0:0:
256,192,76526,1,2,0:0:0:0:
256,192,76642,1,0,0:0:0:0:
256,192,76757,1,0,0:0:0:0:
256,192,76872,1,2,0:0:0:0:
256,192,76988,1,2,0:0:0:0:
256,192,77103,1,0,0:0:0:0:
256,192,77219,1,0,0:0:0:0:
256,192,77334,1,2,0:0:0:0:
256,192,77565,1,0,0:0:0:0:
256,192,77680,1,0,0:0:0:0:
256,192,77796,1,2,0:0:0:0:
256,192,77911,1,2,0:0:0:0:
256,192,78026,1,2,0:0:0:0:
256,192,78142,1,2,0:0:0:0:
256,192,78257,1,0,0:0:0:0:
256,192,79180,12,0,79949,0:0:0:0:
