osu file format v14

[General]
AudioFilename: audio.mp3
AudioLeadIn: 0
PreviewTime: 58873
Countdown: 0
SampleSet: Normal
StackLeniency: 0.7
Mode: 1
LetterboxInBreaks: 0
WidescreenStoryboard: 1

[Editor]
DistanceSpacing: 1
BeatDivisor: 4
GridSize: 32
TimelineZoom: 1.6

[Metadata]
Title:Pikachu no Uta (TV Size)
TitleUnicode:ピカチュウのうた (TV Size)
Artist:Pikachu (CV:Ikue Otani)
ArtistUnicode:ピカチュウ (CV:大谷育江)
Creator:ExtreIce
Version:Kantan
Source:ポケットモンスターXY&Z
Tags:pikachu,no,Uta,ピカチュウ,Ikue Otani,大谷育江,ポケットモ,Pokémon,pokemon,XY,Z,XY&Z,pocket,monsters,rew0825
BeatmapID:1047596
BeatmapSetID:491562

[Difficulty]
HPDrainRate:7
CircleSize:4
OverallDifficulty:3
ApproachRate:3
SliderMultiplier:1.4
SliderTickRate:1

[Events]
//Background and Video events
Video,0,"video.mp4"
0,0,"BG.jpg",0,0
//Break Periods
//Storyboard Layer 0 (Background)
//Storyboard Layer 1 (Fail)
//Storyboard Layer 2 (Pass)
//Storyboard Layer 3 (Foreground)
//Storyboard Sound Samples

[TimingPoints]
720,461.538461538462,4,1,0,100,1,0
59796,461.538461538462,4,1,0,100,1,1
78257,461.538461538462,4,1,0,100,1,0

[HitObjects]
256,192,4412,5,0,0:0:0:0:
256,192,5335,1,2,0:0:0:0:
256,192,6258,1,0,0:0:0:0:
256,192,6720,1,0,0:0:0:0:
256,192,7181,1,2,0:0:0:0:
256,192,8104,1,0,0:0:0:0:
256,192,9027,1,2,0:0:0:0:
256,192,9950,1,0,0:0:0:0:
256,192,10412,1,2,0:0:0:0:
256,192,10873,1,2,0:0:0:0:
256,192,11796,1,0,0:0:0:0:
256,192,12720,1,2,0:0:0:0:
256,192,13643,1,0,0:0:0:0:
256,192,14104,1,2,0:0:0:0:
256,192,14566,1,0,0:0:0:0:
256,192,15489,1,0,0:0:0:0:
256,192,16412,1,2,0:0:0:0:
256,192,17335,1,2,0:0:0:0:
256,192,17796,1,2,0:0:0:0:
256,192,18258,1,0,0:0:0:0:
256,192,19181,1,0,0:0:0:0:
256,192,20104,1,0,0:0:0:0:
256,192,20566,1,2,0:0:0:0:
256,192,21027,1,0,0:0:0:0:
256,192,21950,1,2,0:0:0:0:
256,192,22412,1,2,0:0:0:0:
256,192,22873,1,0,0:0:0:0:
256,192,23796,1,0,0:0:0:0:
256,192,24258,1,2,0:0:0:0:
256,192,24720,1,0,0:0:0:0:
256,192,25643,1,2,0:0:0:0:
256,192,26104,1,0,0:0:0:0:
256,192,26566,1,2,0:0:0:0:
256,192,27489,1,2,0:0:0:0:
256,192,28412,1,0,0:0:0:0:
256,192,29335,1,0,0:0:0:0:
256,192,30258,1,2,0:0:0:0:
256,192,31181,1,0,0:0:0:0:
256,192,31643,1,2,0:0:0:0:
256,192,32566,1,2,0:0:0:0:
256,192,33027,1,0,0:0:0:0:
256,192,33950,1,0,0:0:0:0:
256,192,34873,1,2,0:0:0:0:
256,192,35796,1,0,0:0:0:0:
256,192,36258,1,2,0:0:0:0:
256,192,36720,1,0,0:0:0:0:
256,192,37181,1,2,0:0:0:0:
256,192,37643,1,0,0:0:0:0:
256,192,38566,1,2,0:0:0:0:
256,192,39489,1,2,0:0:0:0:
256,192,39950,1,2,0:0:0:0:
256,192,40412,1,2,0:0:0:0:
256,192,41335,1,0,0:0:0:0:
256,192,41796,1,0,0:0:0:0:
256,192,42258,1,2,0:0:0:0:
256,192,43181,1,0,0:0:0:0:
256,192,43643,1,0,0:0:0:0:
256,192,44104,1,2,0:0:0:0:
256,192,44566,1,2,0:0:0:0:
256,192,45027,1,0,0:0:0:0:
256,192,45950,1,2,0:0:0:0:
256,192,46873,1,0,0:0:0:0:
256,192,47335,1,6,0:0:0:0:
256,192,47796,1,4,0:0:0:0:
256,192,48720,1,0,0:0:0:0:
256,192,49643,1,2,0:0:0:0:
256,192,50566,1,0,0:0:0:0:
256,192,51027,1,2,0:0:0:0:
256,192,51489,1,0,0:0:0:0:
256,192,51950,1,2,0:0:0:0:
256,192,52412,1,0,0:0:0:0:
256,192,53335,1,2,0:0:0:0:
256,192,54258,1,0,0:0:0:0:
256,192,54720,1,2,0:0:0:0:
256,192,55181,1,0,0:0:0:0:
256,192,55643,1,2,0:0:0:0:
256,192,56104,1,0,0:0:0:0:
256,192,59796,1,2,0:0:0:0:
256,192,60719,1,0,0:0:0:0:
256,192,61180,1,2,0:0:0:0:
256,192,61872,1,0,0:0:0:0:
256,192,63488,1,2,0:0:0:0:
256,192,64411,1,0,0:0:0:0:
256,192,64872,1,2,0:0:0:0:
256,192,65565,1,0,0:0:0:0:
256,192,66488,1,0,0:0:0:0:
256,192,67180,1,2,0:0:0:0:
256,192,68103,1,0,0:0:0:0:
256,192,68565,1,2,0:0:0:0:
256,192,69257,1,0,0:0:0:0:
256,192,70872,1,2,0:0:0:0:
256,192,71796,1,0,0:0:0:0:
256,192,72257,1,2,0:0:0:0:
256,192,72949,1,0,0:0:0:0:
256,192,73642,1,2,0:0:0:0:
256,192,74565,1,0,0:0:0:0:
256,192,75488,1,2,0:0:0:0:
256,192,76411,1,0,0:0:0:0:
256,192,77334,1,0,0:0:0:0:
256,192,78103,1,6,0:0:0:0:
256,192,79180,12,0,79949,0:0:0:0:
