osu file format v14

[General]
AudioFilename: audio.mp3
AudioLeadIn: 0
PreviewTime: 187207
Countdown: 0
SampleSet: Soft
StackLeniency: 0.4
Mode: 0
LetterboxInBreaks: 0
WidescreenStoryboard: 0

[Editor]
Bookmarks: 10144,19116,28088,37060,55004,63976,74070,81920,90892,99864,108836,117808,142481,151453,169397,178375,187341,200799,209771,214257,241173,260238
DistanceSpacing: 0.4
BeatDivisor: 4
GridSize: 32
TimelineZoom: 3.999998

[Metadata]
Title:Caraphernelia
TitleUnicode:Caraphernelia
Artist:Pierce The Veil
ArtistUnicode:Pierce The Veil
Creator:wafer
Version:Posthumous
Source:
Tags:english rock punk goopert kami no kotoba airincat selfish machine ptv post-hardcore post hardcore alternative emo
BeatmapID:3951197
BeatmapSetID:1915250

[Difficulty]
HPDrainRate:5
CircleSize:4
OverallDifficulty:8.8
ApproachRate:9.2
SliderMultiplier:1.9
SliderTickRate:1

[Events]
//Background and Video events
0,0,"what.jpg",0,0
//Break Periods
2,187547,191263
//Storyboard Layer 0 (Background)
//Storyboard Layer 1 (Fail)
//Storyboard Layer 2 (Pass)
//Storyboard Layer 3 (Foreground)
//Storyboard Layer 4 (Overlay)
//Storyboard Sound Samples

[TimingPoints]
58,280.373831775701,4,2,1,60,1,0
58,-100,4,2,1,30,0,0
1179,-100,4,2,1,70,0,0
9590,-133.333333333333,4,2,1,70,0,0
9730,-100,4,2,1,70,0,0
10011,-100,4,2,1,70,0,0
10150,-125,4,2,1,60,0,0
11272,-125,4,2,1,60,0,0
11636,-125,4,2,1,60,0,0
12534,-111.111111111111,4,2,1,60,0,0
13094,-100,4,2,1,60,0,0
13655,-90.9090909090909,4,2,1,60,0,0
14216,-83.3333333333333,4,2,1,60,0,0
14777,-125,4,2,1,60,0,0
15337,-111.111111111111,4,2,1,60,0,0
15898,-125,4,2,1,60,0,0
18562,-200,4,2,1,60,0,0
19122,-166.666666666667,4,2,1,50,0,0
20244,-142.857142857143,4,2,1,50,0,0
22487,-166.666666666667,4,2,1,50,0,0
23608,-142.857142857143,4,2,1,50,0,0
24309,-166.666666666667,4,2,1,50,0,0
25571,-100,4,2,1,50,0,0
25851,-66.6666666666667,4,2,1,55,0,0
26272,-80,4,2,1,55,0,0
26693,-133.333333333333,4,2,1,55,0,0
26973,-66.6666666666667,4,2,1,55,0,0
27534,-133.333333333333,4,2,1,55,0,0
27814,-200,4,2,1,55,0,0
28094,-100,4,2,1,65,0,0
29777,-133.333333333333,4,2,1,65,0,0
30337,-100,4,2,1,65,0,0
31459,-125,4,2,1,65,0,0
32020,-100,4,2,1,65,0,0
36786,-133.333333333333,4,2,1,65,0,0
37066,-100,4,2,1,65,0,0
38317,-100,4,2,1,65,0,0
38749,-111.111111111111,4,2,1,65,0,0
39029,-142.857142857143,4,2,1,65,0,0
39309,-100,4,2,1,65,0,0
40711,-133.333333333333,4,2,1,65,0,0
40992,-105.263157894737,4,2,1,65,0,0
41552,-100,4,2,1,65,0,0
41833,-142.857142857143,4,2,1,65,0,0
42113,-100,4,2,1,65,0,0
42954,-142.857142857143,4,2,1,65,0,0
43235,-100,4,2,1,65,0,0
46038,-111.111111111111,4,2,1,65,0,0
46319,-133.333333333333,4,2,1,65,0,0
54309,-133.333333333333,4,2,1,50,0,0
55010,-71.4285714285714,4,2,1,80,0,0
55571,-133.333333333333,4,2,1,80,0,0
56132,-71.4285714285714,4,2,1,80,0,0
56412,-100,4,2,1,80,0,0
56693,-200,4,2,1,80,0,0
56973,-71.4285714285714,4,2,1,80,0,0
58094,-200,4,2,1,80,0,0
58375,-66.6666666666667,4,2,1,80,0,0
59216,-200,4,2,1,80,0,0
59496,-71.4285714285714,4,2,1,80,0,0
60057,-133.333333333333,4,2,1,80,0,0
60618,-83.3333333333333,4,2,1,80,0,0
61179,-133.333333333333,4,2,1,80,0,0
61739,-71.4285714285714,4,2,1,80,0,0
62020,-133.333333333333,4,2,1,80,0,0
62300,-71.4285714285714,4,2,1,80,0,0
62580,-133.333333333333,4,2,1,80,0,0
63141,-200,4,2,1,80,0,0
63982,-83.3333333333333,4,2,1,80,0,0
64263,-133.333333333333,4,2,1,80,0,0
64543,-76.9230769230769,4,2,1,80,0,0
65104,-100,4,2,1,80,0,0
65664,-133.333333333333,4,2,1,80,0,0
66225,-200,4,2,1,80,0,0
66786,-133.333333333333,4,2,1,80,0,0
67066,-100,4,2,1,80,0,0
67347,-83.3333333333333,4,2,1,80,0,0
67627,-200,4,2,1,80,0,0
67907,-100,4,2,1,80,0,0
68398,-83.3333333333333,4,2,1,80,0,0
68749,-100,4,2,1,80,0,0
69309,-133.333333333333,4,2,1,80,0,0
69590,-83.3333333333333,4,2,1,80,0,0
69870,-133.333333333333,4,2,1,80,0,0
70711,-83.3333333333333,4,2,1,80,0,0
71272,-166.666666666667,4,2,1,80,0,0
72954,-333.333333333333,4,2,1,80,0,0
73515,-333.333333333333,4,2,1,60,0,0
74076,-333.333333333333,4,2,1,40,0,0
77440,-200,4,2,1,40,0,0
79683,-200,4,2,1,50,0,0
81926,-100,4,2,1,55,0,0
82627,-166.666666666667,4,2,1,55,0,0
83048,-133.333333333333,4,2,1,55,0,0
83608,-166.666666666667,4,2,1,55,0,0
84169,-133.333333333333,4,2,1,55,0,0
85291,-166.666666666667,4,2,1,55,0,0
85851,-200,4,2,1,55,0,0
86412,-133.333333333333,4,2,1,55,0,0
86973,-166.666666666667,4,2,1,55,0,0
88655,-133.333333333333,4,2,1,55,0,0
89777,-117.647058823529,4,2,1,55,0,0
90618,-200,4,2,1,55,0,0
90898,-133.333333333333,4,2,1,55,0,0
92020,-153.846153846153,4,2,1,55,0,0
93141,-133.333333333333,4,2,1,55,0,0
94263,-153.846153846153,4,2,1,55,0,0
95384,-133.333333333333,4,2,1,55,0,0
96506,-153.846153846153,4,2,1,55,0,0
97627,-133.333333333333,4,2,1,55,0,0
98749,-153.846153846153,4,2,1,55,0,0
99309,-200,4,2,1,55,0,0
99870,-71.4285714285714,4,2,1,80,0,0
100431,-133.333333333333,4,2,1,80,0,0
100992,-71.4285714285714,4,2,1,80,0,0
101272,-100,4,2,1,80,0,0
101553,-200,4,2,1,80,0,0
101833,-71.4285714285714,4,2,1,80,0,0
102954,-200,4,2,1,80,0,0
103235,-66.6666666666667,4,2,1,80,0,0
104076,-200,4,2,1,80,0,0
104356,-71.4285714285714,4,2,1,80,0,0
104917,-133.333333333333,4,2,1,80,0,0
105478,-83.3333333333333,4,2,1,80,0,0
106039,-133.333333333333,4,2,1,80,0,0
106599,-71.4285714285714,4,2,1,80,0,0
106880,-133.333333333333,4,2,1,80,0,0
107160,-71.4285714285714,4,2,1,80,0,0
107440,-133.333333333333,4,2,1,80,0,0
108001,-200,4,2,1,80,0,0
108842,-83.3333333333333,4,2,1,80,0,0
109123,-133.333333333333,4,2,1,80,0,0
109403,-76.9230769230769,4,2,1,80,0,0
109964,-100,4,2,1,80,0,0
110524,-133.333333333333,4,2,1,80,0,0
111085,-200,4,2,1,80,0,0
111646,-133.333333333333,4,2,1,80,0,0
111926,-100,4,2,1,80,0,0
112207,-83.3333333333333,4,2,1,80,0,0
112487,-200,4,2,1,80,0,0
112767,-83.3333333333333,4,2,1,80,0,0
113258,-83.3333333333333,4,2,1,80,0,0
113609,-100,4,2,1,80,0,0
114169,-133.333333333333,4,2,1,80,0,0
114450,-83.3333333333333,4,2,1,80,0,0
114730,-133.333333333333,4,2,1,80,0,0
115571,-83.3333333333333,4,2,1,80,0,0
116132,-166.666666666667,4,2,1,80,0,0
117814,-83.3333333333333,4,2,1,75,0,0
118375,-200,4,2,1,75,0,0
118936,-133.333333333333,4,2,1,75,0,0
120057,-100,4,2,1,75,0,0
120618,-133.333333333333,4,2,1,75,0,0
121459,-166.666666666667,4,2,1,75,0,0
121739,-133.333333333333,4,2,1,75,0,0
122300,-100,4,2,1,75,0,0
122861,-133.333333333333,4,2,1,75,0,0
125945,-200,4,2,1,75,0,0
126786,-133.333333333333,4,2,1,75,0,0
127347,-166.666666666667,4,2,1,75,0,0
129029,-100,4,2,1,75,0,0
130150,-71.4285714285714,4,2,1,75,0,0
130431,-200,4,2,1,75,0,0
130711,-100,4,2,1,75,0,0
131272,-117.647058823529,4,2,1,75,0,0
131833,-100,4,2,1,75,0,0
132393,-142.857142857143,4,2,1,75,0,0
133515,-111.111111111111,4,2,1,75,0,0
134076,-133.333333333333,4,2,1,75,0,0
135197,-83.3333333333333,4,2,1,75,0,0
137440,-166.666666666667,4,2,1,75,0,0
138001,-200,4,2,1,75,0,0
138071,-200,4,2,1,40,0,0
142487,-133.333333333333,4,2,1,60,0,0
143188,-200,4,2,1,60,0,0
146272,-133.333333333333,4,2,1,60,0,0
146693,-100,4,2,1,60,0,0
147534,-200,4,2,1,60,0,0
151459,-133.333333333333,4,2,1,50,0,0
152581,-200,4,2,1,50,0,0
153142,-133.333333333333,4,2,1,50,0,0
155665,-250,4,2,1,50,0,0
155945,-133.333333333333,4,2,1,50,0,0
157067,-200,4,2,1,50,0,0
157628,-133.333333333333,4,2,1,50,0,0
159871,-200,4,2,1,50,0,0
160431,-117.647058823529,4,2,1,50,0,0
161553,-200,4,2,1,50,0,0
162114,-133.333333333333,4,2,1,50,0,0
163375,-166.666666666667,4,2,1,50,0,0
163796,-133.333333333333,4,2,1,50,0,0
164076,-200,4,2,1,50,0,0
164357,-133.333333333333,4,2,1,50,0,0
164917,-200,4,2,1,55,0,0
167160,-166.666666666667,4,2,1,55,0,0
168282,-133.333333333333,4,2,1,60,0,0
169403,-400,4,2,1,30,0,0
170385,-250,4,2,1,30,0,0
184824,-250,4,2,1,5,0,0
191833,-222.222222222222,4,2,1,40,0,0
193515,-666.666666666667,4,2,1,40,0,0
194637,-222.222222222222,4,2,1,40,0,0
198001,-666.666666666667,4,2,1,40,0,0
199123,-222.222222222222,4,2,1,40,0,0
200805,-133.333333333333,4,2,1,50,0,0
201366,-166.666666666667,4,2,1,50,0,0
201646,-133.333333333333,4,2,1,50,0,0
204730,-100,4,2,1,50,0,0
205011,-200,4,2,1,50,0,0
209777,-71.4285714285714,4,2,1,80,0,0
210338,-133.333333333333,4,2,1,80,0,0
210899,-83.3333333333333,4,2,1,80,0,0
211460,-133.333333333333,4,2,1,80,0,0
212020,-71.4285714285714,4,2,1,80,0,0
212301,-133.333333333333,4,2,1,80,0,0
212581,-71.4285714285714,4,2,1,80,0,0
212861,-133.333333333333,4,2,1,80,0,0
213422,-200,4,2,1,80,0,0
214263,-83.3333333333333,4,2,1,80,0,0
214544,-133.333333333333,4,2,1,80,0,0
214824,-76.9230769230769,4,2,1,80,0,0
215385,-100,4,2,1,80,0,0
215945,-133.333333333333,4,2,1,80,0,0
216506,-200,4,2,1,80,0,0
217067,-133.333333333333,4,2,1,80,0,0
217347,-100,4,2,1,80,0,0
217628,-83.3333333333333,4,2,1,80,0,0
217908,-200,4,2,1,80,0,0
218188,-83.3333333333333,4,2,1,80,0,0
218679,-83.3333333333333,4,2,1,80,0,0
219030,-100,4,2,1,80,0,0
219590,-133.333333333333,4,2,1,80,0,0
219871,-83.3333333333333,4,2,1,80,0,0
220151,-133.333333333333,4,2,1,80,0,0
220992,-83.3333333333333,4,2,1,80,0,0
221553,-166.666666666667,4,2,1,80,0,0
223235,-83.3333333333333,4,2,1,75,0,0
223796,-200,4,2,1,70,0,0
224917,-133.333333333333,4,2,1,70,0,0
225478,-200,4,2,1,70,0,0
226600,-142.857142857143,4,2,1,70,0,0
227160,-133.333333333333,4,2,1,70,0,0
227721,-100,4,2,1,70,0,0
228282,-200,4,2,1,70,0,0
229403,-133.333333333333,4,2,1,70,0,0
229964,-200,4,2,1,70,0,0
232207,-133.333333333333,4,2,1,75,0,0
232768,-166.666666666667,4,2,1,75,0,0
234450,-100,4,2,1,75,0,0
235571,-71.4285714285714,4,2,1,75,0,0
235852,-200,4,2,1,75,0,0
236132,-100,4,2,1,75,0,0
236693,-117.647058823529,4,2,1,75,0,0
237254,-100,4,2,1,75,0,0
237814,-142.857142857143,4,2,1,75,0,0
238936,-90.9090909090909,4,2,1,75,0,0
240058,-111.111111111111,4,2,1,75,0,0
240338,-142.857142857143,4,2,1,75,0,0
240618,-100,4,2,1,75,0,0
241179,-250,4,2,1,40,0,0
255758,-250,4,2,1,30,0,0
256880,-333.333333333333,4,2,1,20,0,0
258142,-1000,4,2,1,10,0,0
258843,-1000,4,2,1,5,0,0
260244,-250,4,2,1,5,0,0

[Colours]
Combo1 : 112,250,205
Combo2 : 248,254,167
Combo3 : 147,204,247
Combo4 : 253,130,94

[HitObjects]
244,180,58,5,4,0:0:0:0:
248,184,338,1,4,0:0:0:0:
252,188,618,1,4,0:0:0:0:
256,192,899,1,4,0:0:0:0:
314,238,1039,2,2,L|308:291,1,47.5,2|0,0:0|0:0,0:1:0:0:
317,139,1179,6,0,P|330:89|325:2,1,95,4|8,1:0|0:0,0:0:0:0:
404,206,1459,1,0,3:0:0:0:
404,206,1529,1,0,3:0:0:0:
404,206,1599,2,0,P|391:256|396:343,1,95,8|0,0:0|1:0,0:0:0:0:
492,189,1879,1,8,0:0:0:0:
408,119,2020,1,0,3:0:0:0:
408,119,2090,1,0,3:0:0:0:
408,119,2160,1,8,0:0:0:0:
477,78,2300,1,0,1:0:0:0:
314,238,2440,6,0,P|264:251|177:246,1,95,8|0,0:0|1:0,0:0:0:0:
48,191,2721,2,0,P|93:203|141:205,1,95,8|0,0:0|1:0,0:0:0:0:
309,145,3001,2,0,P|263:157|215:159,1,95,8|0,0:0|1:0,0:0:0:0:
65,97,3281,1,8,0:0:0:0:
256,0,3421,5,4,1:0:0:0:
149,124,3562,2,0,P|136:78|135:11,1,95,8|0,0:0|1:0,0:0:0:0:
375,185,3842,1,8,0:0:0:0:
375,185,3982,1,0,1:0:0:0:
156,280,4122,1,8,0:0:0:0:
156,280,4263,1,0,1:0:0:0:
237,76,4403,1,8,0:0:0:0:
237,76,4543,1,0,1:0:0:0:
436,126,4683,1,8,0:0:0:0:
307,234,4823,5,0,3:0:0:0:
307,234,4893,1,0,3:0:0:0:
307,234,4964,2,0,P|294:184|299:97,1,95,8|0,0:0|1:0,0:0:0:0:
496,66,5244,2,0,P|509:116|504:203,1,95,12|0,0:0|1:0,0:0:0:0:
497,184,5454,1,0,3:0:0:0:
496,184,5524,2,2,L|432:179,1,47.5,8|0,0:0|0:0,0:1:0:0:
373,278,5664,6,0,P|423:265|510:270,1,95,4|8,1:0|0:0,0:0:0:0:
296,339,5945,1,0,3:0:0:0:
296,339,6015,1,0,3:0:0:0:
296,339,6085,2,0,P|246:352|159:347,1,95,8|0,0:0|1:0,0:0:0:0:
31,278,6366,1,8,0:0:0:0:
235,207,6506,1,0,3:0:0:0:
235,207,6576,1,0,3:0:0:0:
235,207,6646,1,8,0:0:0:0:
119,306,6786,1,0,1:0:0:0:
304,260,6926,5,8,0:0:0:0:
234,106,7066,1,0,3:0:0:0:
234,106,7136,1,0,3:0:0:0:
234,106,7207,2,0,P|233:59|243:13,1,95,8|0,0:0|1:0,0:0:0:0:
312,165,7487,2,0,P|313:213|303:259,1,95,8|0,0:0|1:0,0:0:0:0:
401,92,7767,1,8,0:0:0:0:
145,143,7907,6,0,P|93:142|10:115,1,95,4|8,1:0|0:0,0:0:0:0:
218,195,8188,1,0,3:0:0:0:
218,195,8258,1,0,3:0:0:0:
218,195,8328,1,8,0:0:0:0:
105,71,8468,1,0,1:0:0:0:
313,166,8608,1,8,0:0:0:0:
85,256,8749,1,0,3:0:0:0:
85,256,8819,1,0,3:0:0:0:
85,256,8889,2,0,L|154:260,1,47.5,10|0,0:0|0:0,0:0:0:0:
253,336,9029,6,0,L|369:323,1,95,4|8,1:0|0:0,0:0:0:0:
385,320,9239,1,8,0:0:0:0:
422,316,9309,1,8,0:0:0:0:
230,116,9450,1,8,0:0:0:0:
284,194,9590,6,0,B|280:246,1,35.625001358986,2|0,1:3|0:0,0:0:0:0:
435,224,9730,1,8,0:0:0:0:
397,223,9800,1,8,0:0:0:0:
359,222,9870,1,8,0:0:0:0:
135,203,10010,1,8,0:0:0:0:
379,58,10150,5,6,1:2:0:0:
502,134,10291,2,0,P|454:136|406:50,1,152,10|8,0:0|0:0,0:0:0:0:
306,10,10711,1,2,1:2:0:0:
230,133,10851,2,0,P|228:85|314:37,1,152,10|8,0:0|0:0,0:0:0:0:
133,58,11272,5,2,1:2:0:0:
10,134,11412,2,0,P|58:136|106:50,1,152,10|8,0:0|0:0,0:0:0:0:
206,10,11833,1,2,1:2:0:0:
282,133,11973,2,0,P|284:85|198:37,1,152,10|8,0:0|0:0,0:0:0:0:
165,233,12393,5,2,1:2:0:0:
31,212,12534,2,0,P|81:275|161:258,1,170.999994781494,10|8,0:0|0:0,0:0:0:0:
236,235,12954,1,2,1:2:0:0:
220,331,13094,6,0,P|280:254|376:274,1,190,10|8,0:0|0:0,0:0:0:0:
449,328,13515,1,2,1:2:0:0:
0,195,13655,6,0,P|71:283|182:260,1,209.000006378174,14|8,0:0|0:0,0:0:0:0:
256,152,14076,1,0,1:0:0:0:
399,270,14216,6,0,P|290:261|226:348,1,227.999993041992,14|8,0:0|0:0,0:0:0:0:
511,218,14636,5,6,1:2:0:0:
403,120,14777,2,0,P|449:130|473:225,1,152,10|8,0:0|0:0,0:0:0:0:
267,132,15197,5,2,1:2:0:0:
385,24,15337,2,0,P|333:35|306:140,1,170.999994781494,10|8,0:0|0:0,0:0:0:0:
269,241,15758,5,2,1:2:0:0:
171,133,15898,2,0,P|181:179|276:203,1,152,10|8,0:0|0:0,0:0:0:0:
118,43,16319,5,2,1:2:0:0:
19,150,16459,2,0,P|34:99|121:83,1,114,10|0,0:0|0:0,0:0:0:0:
128,77,16739,1,8,0:0:0:0:
259,313,16879,5,6,1:0:0:0:
13,253,17020,1,2,1:2:0:0:
207,60,17160,1,8,0:0:0:0:
248,232,17300,5,6,1:0:0:0:
469,178,17440,1,2,1:2:0:0:
294,4,17580,1,8,0:0:0:0:
224,146,17721,5,6,1:0:0:0:
369,194,17861,1,2,1:2:0:0:
417,50,18001,1,8,0:0:0:0:
469,178,18141,5,6,1:0:0:0:
369,194,18281,1,2,1:2:0:0:
321,280,18421,1,8,0:0:0:0:
469,356,18562,6,0,P|477:321|480:289,1,47.5,4|0,1:2|0:0,0:0:0:0:
240,376,18842,2,0,P|231:337|229:290,1,83.125,4|0,1:2|0:0,0:0:0:0:
241,278,19122,6,0,B|142:278|183:316|64:338,1,170.999994781494,6|0,1:2|1:0,0:0:0:0:
156,260,19683,1,8,0:0:0:0:
156,260,19823,2,0,P|99:254|43:241,1,113.999996520996,8|0,0:0|0:0,0:0:0:0:
247,196,20244,6,0,P|292:182|325:94,2,132.999995941162,2|2|8,0:0|0:0|0:0,0:0:0:0:
131,123,20945,1,8,0:0:0:0:
191,83,21085,1,0,1:0:0:0:
176,162,21225,1,0,1:0:0:0:
33,41,21365,6,0,B|117:41|81:75|173:87,1,132.999995941162,2|2,1:2|0:0,0:0:0:0:
388,18,21926,1,10,0:0:0:0:
313,80,22066,2,0,P|301:45|299:2,1,66.4999979705811,10|0,0:0|0:0,0:0:0:0:
298,15,22487,6,0,P|286:50|284:93,1,56.9999982604981,2|0,1:2|0:0,0:0:0:0:
391,92,22767,2,0,P|403:57|405:14,1,56.9999982604981,2|0,1:2|1:0,0:0:0:0:
243,133,23048,2,0,P|222:73|219:0,1,113.999996520996,10|2,0:2|0:0,0:0:0:0:
331,144,23468,1,0,1:0:0:0:
331,144,23538,1,0,1:0:0:0:
330,143,23608,6,0,P|380:148|427:164,1,99.7499969558717,4|0,1:0|0:0,0:0:0:0:
447,146,23889,2,0,P|486:142|524:129,1,66.4999979705811,2|0,1:2|1:0,0:0:0:0:
367,231,24169,1,8,0:0:0:0:
367,231,24309,2,0,P|404:252|499:266,1,113.999996520996,10|0,0:0|0:0,0:0:0:0:
316,292,24730,6,0,P|290:296|236:313,1,56.9999982604981,2|0,0:0|0:0,0:0:0:0:
234,229,25010,2,0,P|259:224|313:208,1,56.9999982604981,2|0,0:0|0:0,0:0:0:0:
394,328,25291,1,8,0:0:0:0:
394,328,25431,1,8,0:0:0:0:
183,289,25571,6,2,B|160:270|138:274|138:274|111:205|181:154,1,166.25,0|0,1:0|0:0,0:1:0:0:
146,176,25851,6,0,L|156:242,1,35.625001358986,4|0,1:0|0:0,0:0:0:0:
286,136,25992,1,0,1:0:0:0:
139,64,26132,1,8,0:0:0:0:
183,289,26272,6,0,L|174:342,1,29.6875,4|0,1:0|0:0,0:0:0:0:
50,274,26412,1,0,1:0:0:0:
152,211,26552,1,8,0:0:0:0:
252,373,26693,6,0,P|258:321|268:246,1,106.875004076958,4|0,1:0|0:0,0:0:0:0:
265,266,26973,6,0,L|277:350,1,71.2500027179719,4|0,1:0|0:0,0:0:0:0:
221,77,27534,6,0,L|233:-7,1,71.2500027179719,4|0,1:0|0:0,0:0:0:0:
274,151,27814,1,2,0:1:0:0:
274,151,28094,5,4,1:0:0:0:
249,228,28235,1,2,0:0:0:0:
408,157,28375,1,8,0:0:0:0:
221,77,28515,1,8,0:0:0:0:
408,157,28655,2,0,L|513:142,1,95,2|0,1:0|0:0,0:0:0:0:
249,228,28936,1,10,0:0:0:0:
318,32,29076,1,8,0:0:0:0:
353,238,29216,6,0,L|383:339,1,95,2|0,1:0|0:0,0:0:0:0:
408,157,29496,2,0,L|438:55,1,95,8|8,0:0|0:0,0:0:0:0:
249,228,29777,2,0,B|226:246|226:246|128:272,1,106.875004076958,2|0,1:0|0:0,0:0:0:0:
136,289,30057,1,8,0:0:0:0:
309,177,30197,1,8,0:0:0:0:
112,71,30337,6,0,L|7:56,1,95,2|0,1:0|0:0,0:0:0:0:
236,140,30618,1,8,0:0:0:0:
17,207,30758,1,8,0:0:0:0:
112,71,30898,2,0,L|142:172,1,95,2|0,1:0|0:0,0:0:0:0:
176,1,31179,2,0,L|112:71,1,95,10|8,0:0|0:0,0:0:0:0:
292,190,31459,6,0,L|277:11,1,152,2|8,1:2|0:0,0:0:0:0:
214,134,31879,1,8,0:0:0:0:
407,25,32020,6,0,L|475:37,1,47.5,6|0,1:0|0:0,0:0:0:0:
512,100,32160,1,8,0:0:0:0:
512,100,32230,1,8,0:0:0:0:
512,100,32300,1,0,1:0:0:0:
279,38,32440,1,8,0:0:0:0:
375,235,32580,5,0,1:0:0:0:
429,105,32721,1,2,0:0:0:0:
258,226,32861,1,10,0:0:0:0:
490,274,33001,1,10,0:0:0:0:
258,226,33141,2,0,L|153:241,1,95,2|0,1:0|0:0,0:0:0:0:
353,131,33421,1,10,0:0:0:0:
293,329,33562,1,8,0:0:0:0:
405,189,33702,6,0,L|510:174,1,95,2|0,1:0|0:0,0:0:0:0:
262,135,33982,1,10,0:0:0:0:
262,135,34122,1,8,0:0:0:0:
418,268,34263,2,0,B|369:276|369:276|297:224,1,95,2|0,1:0|0:0,0:0:0:0:
294,56,34543,1,8,0:0:0:0:
446,109,34683,1,8,0:0:0:0:
270,309,34823,5,6,1:0:0:0:
24,249,34964,1,2,1:2:0:0:
218,56,35104,1,8,0:0:0:0:
24,249,35244,5,6,1:0:0:0:
245,195,35384,1,2,1:2:0:0:
70,21,35524,1,8,0:0:0:0:
245,195,35664,5,6,1:0:0:0:
115,292,35805,1,2,1:2:0:0:
30,154,35945,1,8,0:0:0:0:
115,292,36085,5,6,1:0:0:0:
210,289,36225,1,2,1:2:0:0:
277,355,36365,1,8,0:0:0:0:
454,265,36506,6,0,P|465:221|466:171,1,95,4|0,1:2|0:0,0:0:0:0:
271,372,36786,2,0,P|258:317|255:251,1,106.875004076958,4|0,1:2|0:0,0:0:0:0:
326,239,37066,6,0,B|437:260|379:307|509:341,1,190,6|8,1:0|0:0,0:0:0:0:
216,198,37627,1,2,1:0:0:0:
216,198,37767,2,0,P|227:148|230:89,1,95,0|8,1:2|0:0,0:0:0:0:
148,8,38048,1,0,1:2:0:0:
267,25,38188,6,0,P|194:29|153:114,1,142.5,2|0,0:1|0:0,0:0:0:0:
127,113,38468,2,0,P|54:109|13:24,1,142.5,10|0,0:0|0:0,0:0:0:0:
23,57,38749,2,0,P|43:84|46:150,1,85.4999973907472,2|0,1:0|1:0,0:0:0:0:
221,243,39029,2,0,P|244:220|264:138,1,116.374996448517,8|0,0:0|0:0,0:0:0:0:
265,141,39309,6,0,P|358:145|416:231,1,190,6|8,1:0|0:0,0:0:0:0:
509,308,39730,1,2,0:0:0:0:
319,241,39870,5,2,1:2:0:0:
511,151,40010,2,0,P|457:149|393:131,1,95,0|8,1:0|0:0,0:0:0:0:
268,330,40291,2,0,P|314:320|362:319,1,95,2|0,1:2|0:0,0:0:0:0:
490,232,40571,1,0,1:0:0:0:
235,216,40711,6,0,P|187:237|112:247,1,106.875004076958,8|0,0:0|0:0,0:0:0:0:
110,273,40992,2,0,P|69:270|22:242,1,90.2499975900651,2|0,1:0|1:0,0:0:0:0:
242,141,41272,1,10,0:0:0:0:
8,35,41412,1,8,0:0:0:0:
158,168,41552,6,0,P|166:121|166:73,1,95,6|0,1:0|1:0,0:0:0:0:
313,296,41833,2,0,P|303:240|302:182,1,99.7499969558717,10|0,0:0|0:0,0:0:0:0:
334,162,42113,1,2,1:0:0:0:
207,310,42253,1,2,1:2:0:0:
376,235,42393,1,10,0:0:0:0:
242,141,42534,1,2,1:2:0:0:
388,307,42674,6,0,P|428:306|477:253,1,95,2|0,0:1|1:0,0:0:0:0:
265,62,42954,2,0,P|216:66|170:115,1,116.374996448517,14|0,0:0|0:0,0:0:0:0:
171,112,43235,6,0,P|126:99|64:92,1,95,2|0,1:0|1:0,0:0:0:0:
325,18,43515,1,8,0:0:0:0:
347,25,43585,1,8,0:0:0:0:
370,31,43655,1,8,0:0:0:0:
393,35,43725,1,8,0:0:0:0:
417,37,43795,5,4,1:2:0:0:
412,238,43936,1,0,1:0:0:0:
508,56,44076,1,8,0:0:0:0:
508,56,44356,5,4,1:2:0:0:
282,134,44496,1,0,1:0:0:0:
505,213,44636,1,8,0:0:0:0:
505,213,44917,5,4,1:2:0:0:
253,45,45057,1,0,1:0:0:0:
345,323,45197,1,8,0:0:0:0:
505,213,45478,5,6,1:2:0:0:
273,236,45618,1,8,0:0:0:0:
273,236,45688,1,8,0:0:0:0:
273,236,45758,1,8,0:0:0:0:
450,104,45898,1,8,0:0:0:0:
345,323,46038,6,0,L|233:316,1,85.4999973907472,2|0,1:2|1:0,0:0:0:0:
78,250,46319,2,0,L|167:244,1,71.2500027179719,10|0,0:0|1:0,0:0:0:0:
295,149,46599,1,2,1:2:0:0:
295,149,46739,1,0,1:0:0:0:
218,5,46879,1,8,0:0:0:0:
218,5,47160,6,0,L|212:94,1,71.2500027179719,2|0,1:2|1:0,0:0:0:0:
38,182,47440,2,0,L|43:92,1,71.2500027179719,10|0,0:0|1:0,0:0:0:0:
134,0,47721,1,2,1:2:0:0:
134,0,47861,1,0,1:0:0:0:
294,120,48001,1,10,0:0:0:0:
294,120,48281,6,0,L|288:31,1,71.2500027179719,2|0,1:2|1:0,0:0:0:0:
299,198,48562,2,0,L|304:288,1,71.2500027179719,10|0,0:0|1:0,0:0:0:0:
384,73,48842,2,0,L|390:-16,1,71.2500027179719,2|0,1:2|1:0,0:0:0:0:
379,175,49122,2,0,L|374:265,1,71.2500027179719,10|0,0:0|1:0,0:0:0:0:
504,79,49403,1,2,1:2:0:0:
504,79,49543,1,0,1:0:0:0:
294,120,49683,1,10,0:0:0:0:
379,175,49823,1,0,1:0:0:0:
211,121,49964,6,0,P|162:135|54:135,1,142.500005435944,4|8,1:2|0:0,0:0:0:0:
7,71,50384,1,0,1:0:0:0:
145,180,50524,6,0,P|151:220|155:263,1,71.2500027179719,2|0,1:2|1:0,0:0:0:0:
12,356,50805,2,0,P|6:316|2:273,1,71.2500027179719,8|0,0:2|1:0,0:0:0:0:
217,365,51085,2,0,P|229:285|237:199,1,142.500005435944,2|8,1:2|0:0,0:0:0:0:
114,347,51506,1,0,1:0:0:0:
296,174,51646,6,0,P|345:188|453:188,1,142.500005435944,4|8,1:2|0:0,0:0:0:0:
148,68,52207,2,0,P|99:82|-9:82,1,142.500005435944,2|8,1:2|0:0,0:0:0:0:
79,120,52627,1,2,0:0:0:0:
256,0,52767,5,4,1:2:0:0:
256,192,54309,12,0,54940,0:0:0:0:
512,83,55011,6,0,B|472:70|433:91|433:91|396:74|389:31|389:31|411:-16,1,199.499993911743,6|0,1:0|0:0,0:0:0:0:
485,4,55292,2,0,B|472:44|493:83|493:83|476:120|433:127|433:127|386:105,1,199.499993911743,2|0,1:0|0:0,0:0:0:0:
279,123,55572,6,2,B|294:162|294:162|330:153|375:184,1,106.875004076958,10|0,0:0|0:0,0:1:0:0:
357,173,55852,2,0,L|287:185,1,71.2500027179719,0|0,1:0|0:0,0:0:0:0:
9,168,56133,6,0,B|49:155|88:176|88:176|125:159|132:116|132:116|110:69,1,199.499993911743,2|0,1:0|0:0,0:0:0:0:
105,84,56413,2,0,L|117:179,1,95,0|0,1:0|0:0,0:0:0:0:
256,356,56694,6,0,B|265:331|265:331|252:283,1,71.25,10|0,0:0|0:0,0:0:0:0:
172,237,56974,6,2,B|206:218|206:218|196:132|253:59|253:59|224:-7,1,265.999991882324,2|4,1:0|1:0,0:1:0:0:
105,84,57394,1,0,3:0:0:0:
436,160,57535,6,2,B|388:176|388:176|347:99|244:118,1,199.499993911743,2|0,1:0|0:0,0:1:0:0:
263,115,57816,2,2,B|311:131|311:131|352:54|455:73,1,199.499993911743,12|0,0:0|0:0,0:1:0:0:
436,70,58095,2,2,L|424:0,1,71.25,0|0,1:0|0:0,0:1:0:0:
479,227,58376,6,0,P|514:174|430:69,1,213.750008153916,6|0,1:2|0:0,0:0:0:0:
321,198,58656,6,0,P|348:254|480:234,1,213.750008153916,0|0,1:2|0:0,0:0:0:0:
490,242,58937,6,0,P|425:237|377:362,1,213.750008153916,8|0,0:2|0:0,0:0:0:0:
374,357,59217,6,0,L|369:326,1,23.75,2|2,1:0|0:0,0:0:0:0:
275,138,59357,1,8,0:0:0:0:
79,249,59497,6,0,B|40:286|56:344|56:344|97:310|165:306,1,199.499993911743,6|0,1:0|0:0,0:0:0:0:
228,216,59778,2,0,B|191:177|133:193|133:193|167:234|171:302,1,199.499993911743,2|0,1:0|0:0,0:0:0:0:
178,375,60058,6,2,B|229:361|229:361|228:335|241:309,1,106.875004076958,10|0,0:0|0:0,0:1:0:0:
310,286,60338,2,0,B|327:270|327:270|306:253|293:199,1,71.2500027179719,2|0,1:0|0:0,0:0:0:0:
49,30,60619,6,0,B|10:67|18:110|18:110|63:73|132:78,1,170.999994781494,6|0,1:0|0:0,0:0:0:0:
149,127,60900,2,0,B|186:166|229:158|229:158|192:113|197:44,1,170.999994781494,2|0,1:0|0:0,0:0:0:0:
224,3,61180,6,2,B|255:11|272:19|272:19|283:42|267:85,1,106.875004076958,10|0,0:0|0:0,0:1:0:0:
198,84,61460,2,0,B|180:85|180:85|156:67|111:68,1,71.2500027179719,2|0,1:0|0:0,0:0:0:0:
348,51,61740,6,0,B|385:57|402:103|402:103|541:148,1,199.499993911743,6|0,1:0|0:0,0:0:0:0:
485,70,62021,2,0,B|463:81|434:83|434:83|446:121|436:148,1,106.875004076958,2|0,1:0|0:0,0:0:0:0:
336,232,62301,6,0,B|270:210|270:210|267:117|385:120,1,199.499993911743,10|0,0:0|0:0,0:0:0:0:
352,133,62581,2,0,B|361:161|361:161|325:145|273:130,1,106.875004076958,2|0,1:0|0:0,0:0:0:0:
256,32,62862,5,4,1:0:0:0:
39,353,63142,6,2,L|24:252,1,95,6|8,0:0|0:0,0:1:0:0:
142,9,63703,6,2,L|155:97,1,71.25,6|0,0:0|0:0,0:1:0:0:
203,135,63982,6,0,P|120:114|34:112,1,170.999994781494,4|0,1:0|0:0,0:0:0:0:
48,186,64263,2,0,P|99:200|153:205,1,106.875004076958,0|0,1:0|0:0,0:0:0:0:
255,68,64543,6,2,P|369:82|431:204,1,246.999988693238,14|0,1:2|1:0,0:1:0:0:
431,189,65104,6,0,P|423:145|425:86,1,95,2|0,1:2|0:0,0:0:0:0:
231,203,65384,2,0,P|239:247|237:306,1,95,2|0,1:2|0:0,0:0:0:0:
452,267,65664,2,0,P|384:258|346:185,1,142.500005435944,14|0,1:2|1:0,0:0:0:0:
347,199,66225,6,0,L|354:262,1,47.5,2|0,1:0|0:0,0:0:0:0:
282,161,66506,2,0,L|230:198,1,47.5,2|0,1:0|0:0,0:0:0:0:
398,146,66786,2,0,L|464:171,1,71.2500027179719,10|0,0:2|0:0,0:0:0:0:
217,98,67066,6,0,L|226:25,1,47.5,2|0,1:0|0:0,0:0:0:0:
223,51,67347,6,0,B|127:59|162:105|59:116,1,170.999994781494,4|0,1:0|0:0,0:0:0:0:
68,114,67627,2,0,B|63:94|63:94|84:52,1,47.5,0|0,1:0|0:0,0:0:0:0:
296,12,67907,6,0,P|352:40|482:38,1,190,12|8,1:2|0:0,0:0:0:0:
253,213,68328,1,8,0:0:0:0:
330,256,68468,6,0,P|326:172|285:88,1,170.999994781494,4|0,1:0|0:0,0:0:0:0:
290,95,68749,2,0,P|299:143|358:163,1,95,2|0,1:0|0:0,0:0:0:0:
512,207,69029,2,0,P|464:216|444:275,1,95,10|0,0:0|0:0,0:0:0:0:
336,355,69309,2,0,P|288:346|268:287,1,106.875004076958,2|0,1:0|0:0,0:0:0:0:
266,296,69590,6,0,P|185:301|85:283,1,170.999994781494,6|0,1:0|0:0,0:0:0:0:
2,296,69870,2,0,P|36:303|69:317,1,71.2500027179719,2|0,1:0|0:0,0:0:0:0:
337,239,70150,5,10,1:2:0:0:
45,131,70431,1,2,1:2:0:0:
119,83,70711,6,0,P|122:139|105:194,1,113.999996520996,6|0,1:2|0:0,0:0:0:0:
263,5,70992,2,0,P|246:57|255:138,1,113.999996520996,2|0,1:2|0:0,0:0:0:0:
399,307,71272,6,0,P|416:252|413:196,1,113.999996520996,10|0,1:2|1:0,0:0:0:0:
18,238,71833,5,4,1:0:0:0:
99,198,71973,1,0,1:0:0:0:
118,218,72043,1,0,1:0:0:0:
125,190,72113,1,0,1:0:0:0:
17,191,72253,1,4,3:0:0:0:
190,231,72393,5,4,1:3:0:0:
73,105,72534,1,4,1:3:0:0:
202,241,72814,1,4,1:3:0:0:
396,127,72954,6,0,P|442:139|523:146,2,113.999996520996,4|2|0,1:0|3:2|0:0,0:0:0:0:
396,127,74636,1,0,3:0:0:0:
356,57,75197,1,2,0:0:0:0:
436,58,75758,1,0,3:0:0:0:
436,58,76038,1,0,0:0:0:0:
396,127,76319,2,0,P|367:130|307:145,2,85.4999973907472,2|0|0,0:0|0:0|0:0,0:0:0:0:
254,18,77440,6,2,P|187:82|94:82,1,190,0|0,1:0|3:0,0:1:0:0:
94,82,78982,1,8,0:0:0:0:
95,100,79052,1,8,0:0:0:0:
97,120,79122,1,8,0:0:0:0:
97,120,79403,6,0,B|128:138|128:138|169:123,1,71.25,0|0,1:2|0:0,0:0:0:0:
192,128,79683,5,2,1:0:0:0:
263,81,79823,1,2,0:1:0:0:
183,47,79964,1,2,0:1:0:0:
183,47,80244,2,0,L|176:-2,2,47.5,2|2|2,0:1|0:1|0:1,0:0:0:0:
269,160,80805,5,2,0:1:0:0:
263,187,80945,1,2,0:1:0:0:
259,215,81085,1,2,0:1:0:0:
349,107,81225,5,2,0:1:0:0:
341,60,81365,1,2,0:1:0:0:
334,15,81506,1,2,0:1:0:0:
355,184,81646,6,2,L|341:268,1,83.125,2|0,0:1|0:0,0:1:0:0:
341,265,81926,6,0,B|215:263|275:328|159:340,1,190,6|0,1:0|0:0,0:0:0:0:
388,110,82487,1,8,0:0:0:0:
388,110,82627,2,0,P|445:116|501:129,1,113.999996520996,2|0,0:0|0:0,0:0:0:0:
312,5,83048,6,0,P|299:51|117:105,1,249.375009512902,6|0,1:2|0:0,0:0:0:0:
127,110,83608,2,0,P|172:100|188:90,1,56.9999982604981,8|0,0:0|0:0,0:0:0:0:
312,157,83889,1,2,0:0:0:0:
312,157,84169,6,0,P|313:198|305:233,1,71.2500027179719,2|0,1:0|0:0,0:0:0:0:
179,277,84450,2,0,P|178:236|186:201,1,71.2500027179719,2|0,0:0|0:0,0:0:0:0:
375,264,84730,2,0,P|329:263|257:327,1,142.500005435944,10|2,0:0|0:0,0:0:0:0:
259,322,85291,6,0,L|336:329,1,56.9999982604981,2|0,1:2|0:0,0:0:0:0:
179,277,85571,2,0,L|102:284,1,56.9999982604981,4|0,1:2|0:0,0:0:0:0:
257,179,85851,2,2,P|264:120|265:11,1,166.25,10|0,0:0|0:0,0:1:0:0:
245,33,86412,6,0,B|165:42|211:68|104:95,1,142.500005435944,2|0,1:0|0:0,0:0:0:0:
348,26,86973,1,8,0:0:0:0:
348,26,87113,2,0,P|393:35|480:48,1,113.999996520996,2|0,0:0|0:0,0:0:0:0:
371,110,87534,6,0,P|343:115|291:123,1,56.9999982604981,2|0,1:2|0:0,0:0:0:0:
402,231,87814,2,0,P|410:203|420:177,1,56.9999982604981,2|0,0:2|0:0,0:0:0:0:
507,120,88094,1,10,0:0:0:0:
321,201,88375,1,8,0:0:0:0:
321,201,88515,1,8,0:0:0:0:
480,231,88655,6,0,L|521:221,1,35.625001358986,6|0,1:2|0:0,0:0:0:0:
244,87,88936,1,8,0:0:0:0:
310,44,89076,6,0,L|346:53,1,35.625001358986,6|0,1:2|0:0,0:0:0:0:
115,176,89357,1,8,0:0:0:0:
179,224,89496,6,0,L|215:215,1,35.625001358986,6|0,1:2|0:0,0:0:0:0:
0,101,89777,2,0,P|77:108|115:176,1,161.500003080368,6|0,1:2|0:0,0:0:0:0:
112,188,90127,1,4,0:3:0:0:
110,198,90197,1,4,0:3:0:0:
107,207,90267,1,4,0:3:0:0:
105,217,90337,5,10,0:0:0:0:
260,116,90618,2,2,L|253:25,1,83.125,0|0,1:0|0:0,0:1:0:0:
254,33,90898,6,0,P|363:28|413:130,1,213.750008153916,6|0,1:0|0:0,0:0:0:0:
512,168,91459,2,0,P|447:180|410:263,1,142.500005435944,10|0,0:0|0:0,0:0:0:0:
409,241,91879,1,0,0:0:0:0:
333,208,92020,2,0,P|338:172|333:132,1,61.7499971733095,2|0,1:2|0:0,0:0:0:0:
344,285,92300,2,0,P|349:321|344:361,1,61.7499971733095,2|8,0:2|0:0,0:0:0:0:
270,253,92580,2,0,P|253:227|242:198,1,61.7499971733095,2|0,0:2|0:0,0:0:0:0:
414,247,92861,1,8,0:0:0:0:
267,328,93001,1,8,0:0:0:0:
160,183,93141,6,0,P|98:196|56:267,1,142.500005435944,2|2,1:0|0:0,0:0:0:0:
215,129,93702,2,0,P|222:91|223:49,1,71.2500027179719,8|0,0:0|0:0,0:0:0:0:
111,42,93982,2,0,P|103:79|102:121,1,71.2500027179719,2|0,0:0|0:0,0:0:0:0:
243,200,94263,6,0,P|308:203|374:189,1,123.499994346619,2|2,1:2|0:0,0:0:0:0:
451,132,94683,1,8,0:0:0:0:
346,50,94823,2,0,P|281:47|215:61,1,123.499994346619,2|0,0:2|1:0,0:0:0:0:
289,127,95244,1,0,1:0:0:0:
490,243,95384,6,0,P|434:223|341:208,1,142.500005435944,2|2,1:0|0:0,0:0:0:0:
103,335,95945,2,0,P|140:342|182:343,1,71.2500027179719,8|0,0:0|0:0,0:0:0:0:
84,249,96225,2,0,P|46:241|4:240,1,71.2500027179719,2|0,0:0|0:0,0:0:0:0:
166,258,96506,6,0,P|169:193|155:127,1,123.499994346619,2|2,1:2|0:0,0:0:0:0:
46,42,96926,1,8,0:0:0:0:
46,42,97066,2,0,P|43:107|57:173,1,123.499994346619,2|8,0:2|0:0,0:0:0:0:
161,42,97487,1,8,0:0:0:0:
246,209,97627,6,0,B|242:151|262:163|254:86,1,106.875004076958,2|0,1:0|0:0,0:0:0:0:
270,87,97907,2,0,P|263:50|265:13,1,71.2500027179719,2|0,0:0|0:0,0:0:0:0:
385,172,98188,1,8,0:0:0:0:
385,172,98328,1,8,0:0:0:0:
313,244,98468,1,0,1:0:0:0:
351,84,98608,1,4,1:3:0:0:
256,311,98749,5,8,0:0:0:0:
256,311,99309,2,0,P|227:320|153:321,1,95,2|0,0:0|0:0,0:0:0:0:
512,327,99870,6,0,B|470:314|420:345|420:345|398:293|455:241,1,199.499993911743,6|0,1:0|0:0,0:0:0:0:
470,152,100151,2,0,B|426:153|385:110|385:110|351:155|392:220,1,199.499993911743,2|0,1:0|0:0,0:0:0:0:
334,312,100431,6,2,B|313:312|313:312|307:261|267:227,1,106.875004076958,10|0,0:0|0:0,0:1:0:0:
282,241,100711,2,0,L|212:253,1,71.2500027179719,0|0,1:0|0:0,0:0:0:0:
0,112,100992,6,0,B|51:114|84:70|84:70|118:130|90:182,1,199.499993911743,2|0,1:0|0:0,0:0:0:0:
10,194,101272,2,0,L|108:177,1,95,0|0,1:0|0:0,0:0:0:0:
259,68,101553,6,0,B|268:43|268:43|256:24|255:-5,1,71.25,10|0,0:0|0:0,0:0:0:0:
161,80,101833,6,2,B|157:104|176:119|176:119|227:80|343:68|343:68|344:93|388:136,1,265.999991882324,2|4,1:0|1:0,0:1:0:0:
486,10,102253,1,0,3:0:0:0:
498,203,102394,6,2,B|470:195|461:166|461:166|355:153|355:269,1,199.499993911743,2|0,1:0|0:0,0:1:0:0:
357,238,102674,2,2,B|328:243|316:271|316:271|210:275|220:159,1,199.499993911743,12|0,0:0|0:0,0:1:0:0:
220,189,102954,2,2,L|142:220,1,71.25,0|0,1:0|0:0,0:1:0:0:
75,127,103235,6,0,P|36:176|110:288,1,213.750008153916,6|0,1:2|0:0,0:0:0:0:
220,189,103515,6,0,P|208:127|75:112,1,213.750008153916,2|0,1:2|0:0,0:0:0:0:
68,108,103796,6,0,P|129:129|208:21,1,213.750008153916,8|0,0:2|0:0,0:0:0:0:
209,26,104076,6,0,L|214:57,1,23.75,2|2,1:0|0:0,0:0:0:0:
256,320,104216,1,8,0:0:0:0:
482,130,104357,6,0,B|472:151|446:150|446:150|389:157|350:100|350:100|365:81|368:47,1,199.499993911743,6|0,1:0|0:0,0:0:0:0:
479,45,104637,2,0,B|500:55|499:81|499:81|506:138|449:177|449:177|430:162|396:159,1,199.499993911743,2|0,1:0|0:0,0:0:0:0:
324,257,104917,6,2,B|340:212|395:235|395:235|410:251,1,106.875004076958,10|0,0:0|0:0,0:1:0:0:
417,346,105198,2,0,B|384:336|372:322|372:322|353:330,1,71.2500027179719,2|0,1:0|0:0,0:0:0:0:
12,233,105478,6,0,B|23:219|45:224|45:224|92:232|111:285|111:285|95:297|85:323,1,170.999994781494,6|0,1:0|0:0,0:0:0:0:
159,349,105758,2,0,B|170:362|192:357|192:357|239:350|258:296|258:296|242:284|232:258,1,170.999994781494,2|0,1:0|0:0,0:0:0:0:
173,114,106039,6,2,B|166:155|166:155|141:177|143:218,1,106.875004076958,10|0,0:0|0:0,0:1:0:0:
76,243,106319,2,0,B|58:252|58:252|45:239|1:230,1,71.2500027179719,2|0,1:0|0:0,0:0:0:0:
0,97,106599,6,0,B|41:89|54:45|54:35|54:35|100:0|199:0,1,199.499993911743,6|0,1:0|0:0,0:0:0:0:
111,67,106880,2,0,B|60:54|60:54|70:-10,1,106.875004076958,2|0,1:0|0:0,0:0:0:0:
222,100,107160,6,0,B|243:120|231:146|231:146|158:129|78:173|78:173,1,199.499993911743,10|0,0:0|0:0,0:0:0:0:
79,177,107440,2,0,B|68:188|62:203|62:203|152:180,1,106.875004076958,2|0,1:0|0:0,0:0:0:0:
256,28,107721,5,0,1:0:0:0:
253,362,108001,6,2,L|238:261,1,95,2|8,0:0|0:0,0:1:0:0:
462,41,108562,6,2,L|449:129,1,71.25,2|0,0:0|0:0,0:1:0:0:
397,240,108842,6,0,P|376:157|374:71,1,170.999994781494,4|0,1:0|0:0,0:0:0:0:
294,110,109123,2,0,P|298:163|310:217,1,106.875004076958,0|0,1:0|0:0,0:0:0:0:
511,222,109403,6,2,B|387:222|421:317|282:361,1,246.999988693238,14|0,1:2|1:0,0:1:0:0:
310,351,109964,6,0,P|265:347|208:330,1,95,2|0,1:2|0:0,0:0:0:0:
386,320,110244,2,0,P|430:316|487:299,1,95,2|0,1:2|0:0,0:0:0:0:
163,268,110524,2,0,P|99:273|26:311,1,142.500005435944,14|0,1:2|1:0,0:0:0:0:
30,307,111085,6,0,L|23:244,1,47.5,2|0,1:0|0:0,0:0:0:0:
166,121,111365,2,0,L|173:184,1,47.5,2|0,1:0|0:0,0:0:0:0:
386,320,111646,2,0,L|393:249,1,71.2500027179719,10|0,0:0|0:0,0:0:0:0:
91,154,111926,6,0,L|82:227,1,47.5,2|0,1:0|0:0,0:0:0:0:
85,201,112207,6,0,P|163:198|249:266,1,170.999994781494,4|0,1:0|0:0,0:0:0:0:
297,205,112487,2,0,P|296:182|281:143,1,47.5,0|0,1:0|0:0,0:0:0:0:
0,9,112767,6,0,B|116:52|77:-11|227:45,1,227.999993041992,12|8,1:2|0:0,0:0:0:0:
368,169,113188,1,8,0:0:0:0:
142,309,113328,6,0,P|146:208|196:107,1,199.499993911743,4|0,1:0|0:0,0:0:0:0:
187,119,113609,2,0,P|139:128|79:134,1,95,2|0,1:0|0:0,0:0:0:0:
211,356,113889,2,0,P|259:347|319:341,1,95,10|0,0:0|0:0,0:0:0:0:
107,217,114169,2,0,P|59:226|-1:232,1,106.875004076958,2|0,1:0|0:0,0:0:0:0:
1,231,114450,6,0,P|83:235|178:260,1,170.999994781494,6|0,1:0|0:0,0:0:0:0:
205,243,114730,2,0,P|240:235|273:221,1,71.2500027179719,2|0,1:0|0:0,0:0:0:0:
512,257,115010,5,10,1:2:0:0:
216,158,115291,1,2,1:2:0:0:
439,303,115571,6,0,P|436:247|453:192,1,113.999996520996,6|0,1:2|0:0,0:0:0:0:
293,0,115852,2,0,P|296:55|279:110,1,113.999996520996,2|0,1:2|0:0,0:0:0:0:
47,302,116132,6,0,P|30:247|33:191,1,113.999996520996,10|0,1:2|1:0,0:0:0:0:
452,192,116693,5,6,1:0:0:0:
290,275,116833,1,8,0:0:0:0:
314,266,116903,1,8,0:0:0:0:
337,255,116973,1,8,0:0:0:0:
505,261,117113,1,8,0:0:0:0:
330,125,117253,5,4,1:3:0:0:
428,352,117394,1,4,1:3:0:0:
327,113,117674,1,4,1:3:0:0:
113,184,117814,6,0,P|42:173|-14:171,1,113.999996520996,4|0,1:0|0:0,0:0:0:0:
249,115,118094,2,0,P|192:111|136:102,1,113.999996520996,0|0,1:0|0:0,0:0:0:0:
0,265,118376,2,0,P|41:258|74:257,1,71.25,8|0,0:0|0:0,0:0:0:0:
97,275,118655,1,2,1:2:0:0:
464,213,118936,6,0,P|484:154|461:66,1,142.500005435944,6|0,1:2|1:0,0:0:0:0:
155,1,119497,2,0,P|137:54|157:133,1,106.875004076958,10|0,0:2|0:0,0:0:0:0:
112,117,119777,2,0,L|17:89,1,71.2500027179719,0|0,1:0|0:0,0:0:0:0:
222,263,120057,6,0,B|249:257|269:265|269:265|342:196|275:119,1,190,6|0,1:0|1:0,0:0:0:0:
289,138,120618,2,0,P|292:196|297:228,1,71.2500027179719,10|0,0:0|0:0,0:0:0:0:
507,267,120898,2,0,P|504:209|499:177,1,71.2500027179719,2|0,1:2|0:0,0:0:0:0:
211,182,121179,6,0,P|214:129|224:77,1,106.875004076958,4|0,1:2|0:0,0:0:0:0:
224,77,121459,2,0,P|186:89|161:93,1,56.9999982604981,2|0,1:2|0:0,0:0:0:0:
293,208,121739,2,0,P|334:194|362:190,1,71.2500027179719,10|0,0:2|0:0,0:0:0:0:
149,278,122020,1,2,1:2:0:0:
149,278,122160,1,8,0:0:0:0:
327,368,122300,6,0,P|335:321|339:273,1,95,6|0,1:0|0:0,0:0:0:0:
429,70,122580,2,0,P|432:126|442:183,1,95,2|0,1:0|0:0,0:0:0:0:
250,339,122861,2,0,P|241:301|226:259,1,71.2500027179719,10|0,0:0|0:0,0:0:0:0:
120,169,123142,2,0,L|-3:202,1,106.875004076958,0|0,1:0|0:0,0:0:0:0:
16,196,123421,6,0,P|24:149|28:101,1,71.2500027179719,6|0,1:2|0:0,0:0:0:0:
133,22,123702,2,0,P|141:68|145:116,1,71.2500027179719,2|0,1:2|0:0,0:0:0:0:
274,206,123982,2,0,P|344:199|384:136,1,142.500005435944,10|0,0:0|1:0,0:0:0:0:
383,143,124543,6,0,P|391:189|395:237,1,71.2500027179719,6|0,1:2|0:0,0:0:0:0:
504,200,124823,2,0,P|499:164|493:129,1,71.2500027179719,2|0,1:2|0:0,0:0:0:0:
382,31,125104,2,0,P|319:60|300:126,1,142.500005435944,10|0,0:0|1:0,0:0:0:0:
506,308,125664,5,4,1:2:0:0:
22,248,125945,6,2,L|106:236,1,71.2500027179719,4|0,0:0|0:0,0:1:0:0:
111,247,126225,1,8,0:0:0:0:
452,41,126506,6,2,L|368:29,1,83.125,4|0,0:0|0:0,0:1:0:0:
369,29,126786,6,0,P|359:74|352:118,1,71.2500027179719,6|0,1:0|0:0,0:0:0:0:
217,17,127066,2,0,P|211:52|203:86,1,71.2500027179719,0|0,1:0|0:0,0:0:0:0:
20,150,127347,2,0,P|76:140|130:124,1,113.999996520996,10|0,0:0|1:0,0:0:0:0:
131,124,127907,6,0,L|143:189,1,56.9999982604981,6|0,1:2|0:0,0:0:0:0:
12,287,128188,2,0,L|24:222,1,56.9999982604981,0|0,1:2|0:0,0:0:0:0:
190,330,128468,1,10,0:0:0:0:
190,330,128749,2,0,P|148:324|92:322,1,85.4999973907472,2|0,1:0|0:0,0:0:0:0:
105,321,129029,6,0,B|84:302|99:274|99:274|199:247,1,142.5,6|0,1:0|0:0,0:0:0:0:
254,286,129309,2,0,B|289:301|289:301|316:274|357:290,1,95,2|0,1:0|0:0,0:0:0:0:
458,129,129590,2,2,B|416:107|412:56|412:56|336:77|352:150,1,190,10|0,0:0|1:0,0:1:0:0:
349,123,130150,6,0,B|368:93|417:111|417:111|477:58|421:5,1,199.499993911743,6|0,1:0|0:0,0:0:0:0:
421,5,130431,2,0,L|409:61,1,47.5,2|0,1:2|0:0,0:0:0:0:
150,168,130711,2,0,P|82:158|34:141,1,95,10|0,0:0|0:0,0:0:0:0:
246,94,130992,1,2,1:2:0:0:
30,25,131132,2,0,B|26:47|26:47|36:78,1,47.5,8|0,0:0|0:0,0:0:0:0:
156,242,131272,6,0,P|179:215|240:201,1,80.750001540184,6|0,1:2|0:0,0:0:0:0:
42,304,131552,2,0,P|15:281|0:220,1,80.750001540184,2|0,1:2|0:0,0:0:0:0:
246,94,131833,2,0,B|216:186|291:172|238:299,1,190,10|0,0:0|1:0,0:0:0:0:
246,279,132393,6,0,L|235:196,1,66.4999979705811,6|0,1:2|0:0,1:0:0:0:
256,360,132674,1,0,1:0:0:0:
319,142,132954,6,0,P|360:158|395:166,1,66.4999979705811,8|0,0:0|0:0,0:0:0:0:
499,104,133235,1,2,1:2:0:0:
313,227,133515,6,0,P|355:237|394:254,1,85.4999973907472,6|0,1:2|0:0,0:0:0:0:
150,159,133795,2,0,P|192:150|231:133,1,85.4999973907472,2|0,1:2|0:0,0:0:0:0:
440,60,134076,2,0,P|460:128|446:198,1,142.500005435944,10|0,0:0|1:0,0:0:0:0:
447,198,134636,6,0,P|461:141|541:103,1,142.500005435944,4|4,1:0|1:3,0:0:0:0:
247,13,135197,2,0,L|254:74,1,56.9999982604981,14|0,0:0|0:0,0:0:0:0:
376,21,135478,1,0,1:0:0:0:
376,21,135618,1,2,0:0:0:0:
217,147,135758,5,12,0:0:0:0:
217,147,135898,1,0,3:0:0:0:
32,96,136038,1,0,1:0:0:0:
314,159,136319,5,12,0:0:0:0:
314,159,136459,1,0,3:0:0:0:
73,228,136599,1,0,1:0:0:0:
416,173,136879,5,12,0:0:0:0:
416,173,137020,1,0,3:0:0:0:
140,82,137159,1,0,1:0:0:0:
511,215,137440,6,0,B|498:221|494:233|494:233|403:254,1,113.999996520996,14|0,0:0|1:0,0:0:0:0:
18,366,138001,5,4,1:0:0:0:
256,192,138071,12,0,141365,0:0:0:0:
256,192,141786,5,0,3:0:0:0:
284,120,141926,1,2,3:2:0:0:
256,192,142066,2,2,P|252:153|255:61,1,118.75,0|0,3:2|0:0,0:1:0:0:
309,16,142487,6,2,B|379:0|379:0|417:48|417:48|461:28|517:56,2,213.750008153916,4|0|0,1:0|0:0|0:1,0:1:0:0:
241,134,143609,6,2,B|222:137|196:126|196:126|179:133|170:146|170:146|150:133|127:135|127:135|96:107|99:71|99:71|92:44|119:43|119:43|128:22|149:15|158:19|158:19|163:12|163:12|176:8|206:19|224:49,1,356.25,8|0,0:0|0:0,0:1:0:0:
256,64,144730,5,4,1:0:0:0:
126,213,145011,2,0,L|70:202,1,47.5,8|0,0:0|0:0,0:0:0:0:
260,278,145291,2,2,B|252:310|252:310|274:327|274:327|265:348|278:374,1,95,8|0,0:0|1:0,0:1:0:0:
272,360,145712,1,0,1:0:0:0:
256,192,145852,5,8,0:0:0:0:
256,192,145992,1,0,1:0:0:0:
361,279,146272,2,0,B|440:261,1,71.2500027179719,0|0,1:0|0:0,3:0:0:0:
512,199,146553,1,0,1:0:0:0:
424,45,146693,6,2,B|389:49|389:49|349:30|349:30|337:60|285:66,1,142.5,0|0,1:0|0:0,0:1:0:0:
256,64,146973,5,4,1:0:0:0:
122,219,147254,2,0,L|66:208,1,47.5,8|0,0:0|0:0,0:0:0:0:
298,323,147534,2,2,B|348:311|348:311|373:344|373:344|410:330|456:353,1,166.25,8|0,0:0|0:0,0:1:0:0:
468,331,148095,5,10,0:0:0:0:
429,263,148656,1,2,0:0:0:0:
429,263,149216,6,0,P|432:229|432:186,1,71.25,4|0,1:2|0:0,0:0:0:0:
453,172,149497,1,8,0:0:0:0:
353,221,149637,1,8,0:0:0:0:
479,101,149777,1,8,0:0:0:0:
295,35,149917,1,8,0:0:0:0:
494,103,150058,1,8,0:0:0:0:
266,175,150198,1,8,0:0:0:0:
396,7,150338,6,0,P|393:41|393:84,1,71.25,4|0,1:0|0:0,0:0:0:0:
380,102,150618,1,8,0:0:0:0:
351,111,150688,1,8,0:0:0:0:
322,106,150758,1,8,0:0:0:0:
298,89,150828,1,8,0:0:0:0:
285,63,150899,5,0,1:3:0:0:
285,63,150969,1,0,1:3:0:0:
285,63,151039,1,0,1:3:0:0:
285,63,151109,1,0,1:3:0:0:
266,35,151179,5,8,0:0:0:0:
232,25,151249,1,8,0:0:0:0:
197,30,151319,1,8,0:0:0:0:
168,52,151389,1,8,0:0:0:0:
152,83,151459,6,0,P|97:92|49:39,1,106.875004076958,6|0,1:2|0:0,0:0:0:0:
58,63,151740,2,0,P|93:106|71:174,1,106.875004076958,2|0,1:2|0:0,0:0:0:0:
27,201,152020,1,4,0:0:0:0:
27,201,152581,2,0,P|54:192|88:189,1,47.5,8|0,0:0|0:0,0:0:0:0:
159,237,152861,2,0,P|192:247|228:252,1,71.25,2|0,0:0|0:0,0:0:0:0:
250,239,153142,6,0,B|266:111,1,106.875004076958,6|0,1:2|0:0,0:0:0:0:
246,114,153423,2,0,B|262:-14,1,106.875004076958,2|0,1:2|0:0,0:0:0:0:
243,26,153703,1,4,0:0:0:0:
366,121,154263,1,4,0:0:0:0:
500,250,154824,6,0,B|447:245|423:280|423:280|363:291,1,142.500005435944,10|0,0:0|0:0,0:0:0:0:
352,313,155174,1,0,0:0:0:0:
352,313,155244,1,0,0:0:0:0:
440,204,155385,2,0,B|440:175|457:158|457:158|434:55,1,142.500005435944,4|2,1:3|0:0,0:0:0:0:
254,214,155945,6,0,B|238:86,1,106.875004076958,6|0,1:2|0:0,0:0:0:0:
221,124,156226,2,0,B|205:-4,1,106.875004076958,2|0,1:2|0:0,0:0:0:0:
185,42,156506,1,4,0:0:0:0:
185,42,157067,2,0,P|158:51|124:54,1,47.5,8|0,0:0|0:0,0:0:0:0:
0,151,157347,2,0,P|10:184|15:220,1,71.25,2|0,0:0|0:0,0:0:0:0:
7,250,157628,6,0,B|135:266,1,106.875004076958,6|0,1:2|0:0,0:0:0:0:
129,282,157909,2,0,B|257:298,1,106.875004076958,2|0,1:2|0:0,0:0:0:0:
246,317,158189,1,4,0:0:0:0:
490,247,158469,6,0,B|362:231,1,106.875004076958,2|0,1:2|0:0,0:0:0:0:
363,218,158750,2,0,P|345:154|411:88,1,142.500005435944,2|2,1:2|0:0,0:0:0:0:
495,162,159170,1,0,1:0:0:0:
495,162,159240,1,0,1:0:0:0:
495,162,159310,5,8,0:0:0:0:
306,46,159590,1,0,1:0:0:0:
139,241,159871,6,0,P|88:250|17:173,1,166.25,6|0,0:0|0:0,0:0:0:0:
17,172,160431,6,0,B|145:156,1,121.125002310276,6|0,1:2|0:0,0:0:0:0:
127,129,160712,2,0,B|255:113,1,121.125002310276,2|0,1:2|0:0,0:0:0:0:
242,86,160992,2,0,B|388:60|368:124|526:95,1,282.625005390644,4|0,0:0|0:0,0:0:0:0:
510,68,161553,2,0,P|427:75|347:54,1,166.25,8|0,0:0|0:0,0:0:0:0:
334,76,162114,6,0,B|350:204,1,106.875004076958,6|0,1:2|0:0,0:0:0:0:
370,191,162395,2,0,B|386:319,1,106.875004076958,2|0,1:2|0:0,0:0:0:0:
405,308,162674,1,4,0:0:0:0:
250,248,163235,1,4,0:0:0:0:
250,248,163375,2,0,B|176:244|193:288|118:300,1,142.499995651245
96,298,163796,6,2,L|90:245,1,35.625001358986,12|0,0:0|0:0,0:1:0:0:
260,72,164076,2,2,L|248:170,1,71.2500027179719,0|0,0:0|0:0,0:1:0:0:
252,143,164357,6,0,P|310:181|386:168,1,142.500005435944,6|0,1:2|0:0,0:0:0:0:
14,206,164917,5,4,1:0:0:0:
179,107,165198,1,0,1:0:0:0:
379,171,165478,1,8,0:0:0:0:
467,281,165759,1,0,1:0:0:0:
209,347,166039,6,0,P|201:317|205:249,1,95,2|0,1:2|1:0,0:0:0:0:
302,36,166600,2,0,P|312:83|308:130,1,95,10|0,0:2|1:0,0:0:0:0:
128,328,167160,6,0,P|122:307|125:259,1,56.9999982604981,2|0,1:2|0:0,0:0:0:0:
152,203,167441,1,0,1:0:0:0:
238,157,167581,1,2,0:0:0:0:
384,56,167721,2,0,P|389:77|386:124,1,56.9999982604981,10|2,0:2|0:0,0:0:0:0:
300,205,168001,1,0,1:0:0:0:
50,344,168282,5,2,1:2:0:0:
32,275,168422,1,4,1:3:0:0:
66,211,168562,1,4,1:3:0:0:
127,161,168702,5,2,0:0:0:0:
222,222,168843,1,10,0:0:0:0:
379,184,168983,1,2,0:0:0:0:
474,235,169123,1,2,1:2:0:0:
474,235,169403,6,2,P|483:195|445:45,1,190,4|0,1:0|0:0,0:1:0:0:
450,52,171086,1,0,0:0:0:0:
512,96,171366,1,0,0:0:0:0:
249,174,171927,2,0,P|258:140|261:90,2,76,0|2|0,0:0|0:0|0:0,0:0:0:0:
53,244,172768,2,0,P|36:132|63:22,1,228,2|0,0:0|0:0,0:0:0:0:
63,22,173889,6,0,L|70:109,1,76,6|0,0:0|0:0,0:0:0:0:
127,149,174450,1,0,0:0:0:0:
125,167,174730,1,0,0:0:0:0:
183,95,175011,2,0,L|176:8,2,76,2|0|0,0:0|0:0|0:0,0:0:0:0:
122,182,175852,1,2,1:2:0:0:
302,235,176132,6,0,P|369:277|446:267,1,152,0|2,0:0|0:0,0:0:0:0:
489,212,176973,1,0,0:0:0:0:
369,297,177254,2,0,P|358:333|354:380,2,76,0|2|0,0:0|0:0|0:0,0:0:0:0:
419,238,178095,1,0,0:0:0:0:
255,301,178375,6,0,L|258:328,1,19,6|0,0:0|0:0,0:0:0:0:
257,319,178936,2,0,P|263:277|261:204,1,114,2|0,0:0|0:0,0:0:0:0:
207,151,179497,1,0,0:0:0:0:
274,115,179777,1,2,0:0:0:0:
201,138,180058,1,0,0:0:0:0:
334,182,180338,1,2,1:2:0:0:
201,138,180618,6,0,P|196:104|197:46,2,76,0|0|2,0:0|0:0|0:0,0:0:0:0:
262,182,181459,1,0,0:0:0:0:
364,59,181740,2,0,P|440:87|514:89,2,152,2|2|4,0:0|0:0|0:0,0:0:0:0:
256,192,183142,12,0,187347,0:0:0:0:
178,40,191833,5,0,1:0:0:0:
61,143,192114,1,0,1:0:0:0:
61,143,192254,1,0,0:0:0:0:
121,90,192394,2,0,P|123:59|111:2,2,85.4999973907472,10|0|0,0:0|0:0|0:0,0:0:0:0:
121,90,193515,2,0,L|178:100,1,56.9999982604981,8|0,0:0|0:0,0:0:0:0:
495,27,194637,6,0,P|464:25|407:37,1,85.4999973907472,10|0,0:0|0:0,0:0:0:0:
367,102,195198,2,0,P|336:104|279:92,1,85.4999973907472,2|0,0:0|0:0,0:0:0:0:
419,159,195758,1,10,0:0:0:0:
447,156,195899,1,2,0:3:0:0:
475,159,196039,1,2,0:3:0:0:
503,167,196179,1,2,0:3:0:0:
433,237,196319,5,0,1:0:0:0:
324,342,196600,1,0,1:0:0:0:
324,342,196740,1,0,0:0:0:0:
383,294,196880,2,0,P|414:292|471:304,2,85.4999973907472,10|0|0,0:0|0:0|0:0,0:0:0:0:
383,294,198001,2,0,L|374:235,1,56.9999982604981,8|0,0:0|0:0,0:0:0:0:
205,339,199123,6,0,P|174:341|117:329,2,85.4999973907472,10|0|0,0:0|0:0|0:0,0:0:0:0:
114,258,200244,2,0,P|83:256|26:268,1,85.4999973907472,10|0,0:0|1:0,0:0:0:0:
29,267,200665,1,0,1:0:0:0:
188,200,200805,6,0,L|199:84,1,106.875004076958,12|0,0:0|0:0,0:0:0:0:
225,71,201086,2,0,B|253:66|253:66|285:89|331:70,1,106.875004076958,2|0,1:2|0:0,0:0:0:0:
337,84,201366,2,0,L|322:0,1,85.4999973907472,0|0,1:2|0:2,0:0:0:0:
400,5,201646,6,0,B|427:53|427:53|405:109|414:144,2,142.500005435944,10|0|0,0:0|1:0|1:0,0:0:0:0:
115,134,202487,5,4,1:3:0:0:
340,186,202768,1,0,1:3:0:0:
48,191,203048,5,0,1:2:0:0:
326,110,203329,1,4,1:3:0:0:
0,130,203609,5,4,1:3:0:0:
357,255,203889,1,0,1:3:0:0:
0,130,204170,6,0,L|7:174,1,35.625001358986,6|0,1:0|0:0,0:0:0:0:
255,89,204450,2,0,L|267:9,1,71.2500027179719,0|0,1:1|0:1,0:0:0:0:
266,18,204660,1,0,0:0:0:0:
266,18,204730,6,2,B|212:9|174:50|174:50|120:39,1,142.5,6|0,1:0|0:0,0:1:0:0:
126,52,205011,2,2,L|136:128,1,71.25,0|0,1:0|0:0,0:1:0:0:
148,194,205291,5,4,1:0:0:0:
256,192,205361,12,0,208656,0:0:0:0:
433,135,209777,6,0,B|456:40|456:40|396:-2|347:78,1,199.499993911743,6|0,1:0|0:0,0:0:0:0:
356,211,210058,2,0,B|451:234|451:234|493:174|413:125,1,199.499993911743,2|0,1:0|0:0,0:0:0:0:
308,145,210338,6,2,B|278:154|278:154|252:143|252:143|231:156|205:166,1,106.875004076958,10|0,0:0|0:0,0:1:0:0:
152,122,210618,2,0,B|148:104|139:82|139:82|169:35,1,71.2500027179719,2|0,1:0|0:0,0:0:0:0:
104,321,210899,6,0,B|56:320|17:341|17:341|-25:281|44:233,1,170.999994781494,6|0,1:0|0:0,0:0:0:0:
103,331,211179,2,0,B|151:330|190:351|190:351|232:291|163:243,1,170.999994781494,2|0,1:0|0:0,0:0:0:0:
69,182,211460,6,2,B|64:203|85:230|85:230|107:220|151:225,1,106.875004076958,10|0,0:0|0:0,0:1:0:0:
196,275,211740,2,0,B|220:274|238:292|238:292|299:296,1,106.875004076958,2|0,1:0|0:0,0:0:0:0:
383,384,212020,6,0,B|377:347|331:330|331:330|286:191,1,199.499993911743,6|0,1:0|0:0,0:0:0:0:
364,250,212301,2,0,B|353:272|351:301|351:301|313:289|286:299,1,106.875004076958,2|0,1:0|0:0,0:0:0:0:
367,115,212581,6,0,B|346:135|358:161|358:161|431:144|511:188|511:188,1,199.499993911743,10|0,0:0|0:0,0:0:0:0:
510,192,212861,2,0,B|521:203|527:218|527:218|437:195,1,106.875004076958,2|0,1:0|0:0,0:0:0:0:
256,32,213142,5,0,1:0:0:0:
4,195,213422,6,2,L|105:180,1,95,6|8,0:0|0:0,0:1:0:0:
507,327,213983,6,2,L|419:314,1,71.25,6|0,0:0|0:0,0:1:0:0:
397,240,214263,6,0,P|376:157|374:71,1,170.999994781494,4|0,1:0|0:0,0:0:0:0:
479,189,214544,2,0,P|474:135|463:83,1,106.875004076958,0|0,1:0|0:0,0:0:0:0:
297,141,214824,6,2,B|173:141|207:236|68:280,1,246.999988693238,14|0,1:2|1:0,0:1:0:0:
96,270,215385,6,0,P|83:224|78:177,1,95,2|0,1:2|0:0,0:0:0:0:
305,379,215665,2,0,P|318:333|322:286,1,95,2|0,1:2|0:0,0:0:0:0:
44,72,215945,2,0,P|11:134|4:205,1,142.500005435944,14|0,1:2|1:0,0:0:0:0:
5,205,216506,6,0,L|-2:142,1,47.5,2|0,1:0|0:0,0:0:0:0:
256,192,216786,2,0,L|263:129,1,47.5,2|0,1:0|0:0,0:0:0:0:
507,205,217067,2,0,L|500:134,1,71.2500027179719,10|0,0:0|0:0,0:0:0:0:
128,287,217347,6,0,L|119:214,1,47.5,2|0,1:0|0:0,0:0:0:0:
122,240,217628,6,0,B|236:248|189:282|292:299,1,170.999994781494,4|0,1:0|0:0,0:0:0:0:
377,232,217908,2,0,P|354:233|315:248,1,47.5,0|0,1:0|0:0,0:0:0:0:
0,142,218188,6,0,B|141:132|83:89|211:68,1,227.999993041992,14|0,0:0|1:0,0:0:0:0:
447,181,218609,1,8,0:0:0:0:
200,357,218749,6,0,P|103:326|18:252,1,199.499993911743,4|0,1:0|0:0,0:0:0:0:
28,265,219030,2,0,P|76:274|136:280,1,95,2|0,1:0|0:0,0:0:0:0:
313,151,219310,2,0,P|265:160|205:166,1,95,10|0,0:0|0:0,0:0:0:0:
493,314,219590,2,0,P|439:308|387:299,1,106.875004076958,2|0,1:0|0:0,0:0:0:0:
344,368,219871,6,0,P|348:286|383:193,1,170.999994781494,6|0,1:0|0:0,0:0:0:0:
396,173,220151,2,0,P|433:136|487:116,1,106.875004076958,2|0,1:0|0:0,0:0:0:0:
504,144,220431,5,10,1:2:0:0:
211,263,220712,1,2,1:2:0:0:
326,1,220992,6,0,P|323:57|340:112,1,113.999996520996,6|0,1:2|0:0,0:0:0:0:
243,380,221273,1,0,1:0:0:0:
228,269,221413,1,0,1:0:0:0:
464,365,221553,6,0,P|481:310|478:254,1,113.999996520996,10|0,1:2|1:0,0:0:0:0:
314,311,221973,1,0,1:0:0:0:
53,160,222114,5,6,1:0:0:0:
127,107,222254,1,0,1:0:0:0:
216,125,222394,1,0,1:0:0:0:
272,196,222534,1,0,1:0:0:0:
29,39,222674,5,10,0:0:0:0:
29,39,223235,6,0,P|100:28|156:26,1,113.999996520996,4|0,1:0|0:0,0:0:0:0:
362,113,223515,2,0,P|305:109|249:100,1,113.999996520996,0|0,1:0|0:0,0:0:0:0:
96,204,223797,6,0,P|48:206|2:215,1,95,2|0,0:0|0:0,0:0:0:0:
2,215,224357,2,0,P|63:212|172:235,1,166.25,10|0,0:2|0:0,0:0:0:0:
204,209,224917,6,0,P|217:173|218:130,1,71.2500027179719,2|0,1:0|0:0,0:0:0:0:
323,296,225198,2,0,P|320:260|307:227,1,71.2500027179719,0|0,1:0|0:0,0:0:0:0:
387,172,225478,6,0,L|494:186,1,95,2|0,0:0|0:0,0:0:0:0:
481,184,226039,1,2,0:0:0:0:
475,104,226319,2,0,P|447:96|400:93,1,71.25,2|0,0:0|0:0,0:0:0:0:
399,71,226600,6,0,P|338:83|260:128,1,132.999995941162,8|0,0:0|0:0,0:0:0:0:
411,363,227160,2,0,P|341:347|279:312,1,142.500005435944,4|2,1:2|0:0,0:0:0:0:
43,30,227721,6,0,P|91:40|142:70,1,95,6|0,1:0|0:0,0:0:0:0:
231,214,228001,2,0,P|219:164|189:114,1,95,2|0,1:0|0:0,0:0:0:0:
122,139,228282,6,0,P|77:154|34:174,1,95,2|0,0:0|0:0,0:0:0:0:
33,174,228842,2,0,P|79:178|132:186,1,95,10|0,0:2|0:0,0:0:0:0:
512,160,229403,6,0,P|476:161|438:176,1,71.2500027179719,6|0,1:0|0:0,0:0:0:0:
246,237,229684,2,0,P|281:236|319:221,1,71.2500027179719,2|0,1:0|0:0,0:0:0:0:
506,306,229964,6,0,P|459:316|415:332,1,95,2|0,0:0|0:0,0:0:0:0:
134,279,230525,2,0,P|90:295|44:307,1,95,2|0,0:0|1:0,0:0:0:0:
473,52,231086,5,12,0:2:0:0:
473,52,231366,1,2,0:0:0:0:
335,133,231506,1,8,0:0:0:0:
335,133,231576,1,8,0:0:0:0:
335,133,231646,1,8,0:0:0:0:
499,163,231786,1,4,1:3:0:0:
375,56,231927,1,4,1:3:0:0:
250,86,232067,1,4,1:3:0:0:
420,261,232207,6,0,P|410:216|403:172,1,71.2500027179719,6|0,1:0|0:0,0:0:0:0:
255,343,232487,2,0,P|249:308|241:274,1,71.2500027179719,0|0,1:0|0:0,0:0:0:0:
3,203,232768,2,0,B|60:216|60:216|111:162,1,113.999996520996,10|0,0:0|1:0,0:0:0:0:
98,175,233328,6,0,L|110:240,1,56.9999982604981,6|0,1:2|0:0,0:0:0:0:
23,283,233609,2,0,L|35:348,1,56.9999982604981,0|0,1:2|0:0,0:0:0:0:
186,188,233889,1,10,0:0:0:0:
186,188,234170,2,0,P|192:146|193:81,1,99.7499969558717,2|0,1:0|0:0,0:0:0:0:
193,88,234450,6,0,B|204:110|229:114|229:114|271:75|329:87,1,142.5,6|0,1:0|0:0,0:0:0:0:
341,10,234730,2,0,B|364:39|364:39|345:72|371:108,1,95,2|0,1:0|0:0,0:0:0:0:
509,282,235011,2,2,B|475:275|442:299|442:299|398:240|475:166,1,190,10|0,0:0|1:0,0:1:0:0:
452,190,235572,6,0,B|430:216|436:248|436:248|353:295|319:187,1,199.499993911743,6|0,1:0|0:0,0:0:0:0:
327,208,235852,2,0,L|339:264,1,47.5,2|0,1:2|0:0,0:0:0:0:
452,190,236132,2,0,P|464:144|469:97,1,95,10|0,0:0|0:0,0:0:0:0:
256,267,236413,1,2,1:2:0:0:
452,371,236553,2,0,B|456:349|456:349|446:318,1,47.5,8|0,0:0|0:0,0:0:0:0:
247,187,236693,6,0,P|211:199|148:208,1,80.750001540184,6|0,1:2|0:0,0:0:0:0:
373,356,236973,2,0,P|337:344|274:335,1,80.750001540184,2|0,1:2|0:0,0:0:0:0:
119,147,237254,2,0,P|71:153|26:167,1,95,10|0,0:2|0:0,0:0:0:0:
172,0,237535,1,2,1:2:0:0:
172,0,237815,6,0,L|161:83,1,66.4999979705811,6|0,1:2|0:0,1:0:0:0:
20,65,238095,2,0,L|31:-18,1,66.4999979705811,0|0,1:2|0:0,1:0:0:0:
286,92,238375,6,0,B|274:129|274:129|248:144|248:207,1,99.7499969558717,8|0,0:0|0:0,0:0:0:0:
254,191,238656,2,0,L|238:271,1,66.4999979705811,0|0,1:0|0:0,0:0:0:0:
386,142,238936,6,0,P|393:94|330:38,1,104.500003189087,6|0,1:2|0:0,0:0:0:0:
146,237,239216,2,0,P|114:197|132:64,1,156.750004783631,2|0,1:2|0:0,0:0:0:0:
149,95,239497,1,10,0:0:0:0:
316,292,239637,1,2,0:0:0:0:
256,359,239777,2,0,P|241:311|247:232,1,104.500003189087,0|0,1:0|0:0,0:0:0:0:
512,176,240058,6,0,P|460:212|396:215,1,128.249996086121,4|0,1:3|0:0,0:0:0:0:
326,181,240338,2,0,P|296:141|287:92,1,99.7499969558717,4|0,1:3|0:0,0:0:0:0:
288,93,240618,6,0,P|283:126|278:143,1,47.5,8|0,0:0|0:0,0:0:0:0:
74,285,240758,2,0,P|55:255|45:182,1,95,2|4,0:0|1:3,0:0:0:0:
480,288,241179,5,4,1:2:0:0:
424,298,241459,1,0,1:0:0:0:
479,311,241740,1,8,0:0:0:0:
462,232,242300,6,0,P|467:191|467:149,1,76,2|0,0:0|0:0,0:0:0:0:
424,298,242861,1,8,0:0:0:0:
424,298,243422,6,0,P|383:293|341:293,1,76
256,352,243983,1,8,0:0:0:0:
98,304,244263,1,2,0:0:0:0:
173,258,244543,5,2,0:0:0:0:
173,258,244964,1,0,0:0:0:0:
37,196,245104,2,0,P|23:140|29:84,1,114,8|0,0:0|0:0,0:0:0:0:
141,18,245665,6,0,B|180:-3|275:13|232:65|276:123|336:117,1,228,2|0,1:2|0:0,0:0:0:0:
323,117,246786,2,0,P|332:89|329:31,1,76
203,122,247347,1,8,0:0:0:0:
368,191,247628,1,0,0:0:0:0:
368,191,247768,1,0,0:0:0:0:
426,141,247908,6,0,P|459:149|506:152,1,76,2|0,0:0|0:0,0:0:0:0:
294,217,248469,2,0,P|261:209|214:206,1,76,10|0,0:0|0:0,0:0:0:0:
411,249,249029,1,2,0:0:0:0:
487,266,249310,1,0,0:0:0:0:
307,142,249590,2,0,P|299:109|296:62,1,76,8|0,0:0|0:0,0:0:0:0:
480,96,250151,5,4,1:2:0:0:
424,86,250431,1,0,1:0:0:0:
479,73,250712,1,8,0:0:0:0:
462,152,251272,6,0,P|467:193|467:235,1,76,2|0,0:0|0:0,0:0:0:0:
424,86,251833,1,8,0:0:0:0:
424,86,252394,6,0,P|383:91|341:91,1,76
256,32,252955,1,8,0:0:0:0:
98,80,253235,1,2,0:0:0:0:
173,126,253515,5,2,0:0:0:0:
173,126,253936,1,0,0:0:0:0:
37,187,254076,2,0,P|23:243|29:299,1,114,8|0,0:0|0:0,0:0:0:0:
141,366,254637,6,0,P|211:348|237:138,1,304,2|0,0:0|0:0,0:0:0:0:
246,148,256880,6,0,P|251:182|410:207,1,227.999993041992
457,153,258142,6,0,P|487:142|447:146,1,142.5
