osu file format v14

[General]
AudioFilename: audio.mp3
AudioLeadIn: 0
PreviewTime: 52661
Countdown: 0
SampleSet: Normal
StackLeniency: 0.7
Mode: 2
LetterboxInBreaks: 0
WidescreenStoryboard: 0

[Editor]
Bookmarks: 15476,20529,30634,43266,63476,73582,83687,91266,96318,106424,116529
DistanceSpacing: 1.2
BeatDivisor: 2
GridSize: 32
TimelineZoom: 2.3

[Metadata]
Title:The First Punch
TitleUnicode:The First Punch
Artist:Pierce The Veil
ArtistUnicode:Pierce The Veil
Creator:Nelly
Version:Salad
Source:
Tags:collide with the sky post hardcore metal punk ajamez
BeatmapID:1744302
BeatmapSetID:832176

[Difficulty]
HPDrainRate:4
CircleSize:3
OverallDifficulty:7
ApproachRate:7
SliderMultiplier:1.5
SliderTickRate:1

[Events]
//Background and Video events
0,0,"bg.jpg",0,0
//Break Periods
//Storyboard Layer 0 (Background)
//Storyboard Layer 1 (Fail)
//Storyboard Layer 2 (Pass)
//Storyboard Layer 3 (Foreground)
//Storyboard Sound Samples

[TimingPoints]
9161,315.789473684211,4,1,1,50,1,0
19266,-111.111111111111,4,1,1,60,0,0
20529,-111.111111111111,4,1,1,70,0,0
33161,-100,4,1,1,70,0,0
43266,-100,4,1,1,60,0,0
53371,-111.111111111111,4,1,1,70,0,1
72318,-111.111111111111,4,1,1,70,0,0
73582,-111.111111111111,4,1,1,60,0,0
77371,-111.111111111111,4,1,1,65,0,0
78003,-111.111111111111,4,1,1,60,0,0
82424,-111.111111111111,4,1,1,70,0,0
83055,-111.111111111111,4,1,1,60,0,0
83687,-111.111111111111,4,1,1,70,0,0
88739,-100,4,1,1,70,0,0
96318,-111.111111111111,4,1,1,70,0,1
116529,-111.111111111111,4,1,1,70,0,0

[HitObjects]
139,314,10424,6,0,L|366:117,1,300,4|0,0:0|0:0,0:0:0:0:
201,101,11371,1,0,0:0:0:0:
283,110,11529,1,8,0:0:0:0:
365,117,11687,2,0,L|372:268,1,150,0|0,0:0|0:0,0:0:0:0:
196,305,12318,2,0,L|91:195,1,150,0|0,0:0|0:0,0:0:0:0:
264,68,12950,6,0,P|338:147|261:304,1,300,0|0,0:0|0:0,0:0:0:0:
130,295,13897,1,0,0:0:0:0:
265,302,14213,2,0,L|370:192,1,150,2|0,0:0|0:0,0:0:0:0:
303,153,14687,1,8,0:0:0:0:
231,146,14845,2,0,L|126:36,1,150,2|2,0:0|0:0,0:0:0:0:
406,29,15476,6,0,P|467:73|394:254,1,300,4|0,0:0|0:0,0:0:0:0:
238,276,16424,1,0,0:0:0:0:
154,286,16582,1,8,0:0:0:0:
74,290,16739,2,0,L|92:141,1,150,0|0,0:0|0:0,0:0:0:0:
257,146,17371,1,0,0:0:0:0:
91,146,17687,1,0,0:0:0:0:
322,163,18003,6,0,L|331:315,1,150,2|0,0:0|0:0,0:0:0:0:
136,322,18634,2,0,L|127:172,1,150,2|0,0:0|0:0,0:0:0:0:
212,120,19108,1,8,0:0:0:0:
387,68,19266,6,0,P|430:99|398:169,1,134.999995880127,8|4,0:3|0:3,0:0:0:0:
324,178,19739,1,0,0:0:0:0:
243,188,19897,2,0,L|119:127,1,134.999995880127,8|8,0:3|0:0,0:0:0:0:
404,166,20529,5,4,0:0:0:0:
414,238,20687,1,8,0:0:0:0:
268,265,21003,1,8,0:0:0:0:
263,336,21161,1,0,0:0:0:0:
476,275,21476,2,0,L|358:211,1,134.999995880127,0|0,0:0|0:0,0:0:0:0:
297,179,21950,5,8,0:0:0:0:
111,189,22266,1,8,0:0:0:0:
101,255,22424,1,0,0:0:0:0:
211,292,22582,2,0,L|277:317,2,67.4999979400635,14|14|14,0:0|0:0|0:0,0:0:0:0:
49,129,23055,5,4,0:0:0:0:
39,195,23213,1,8,0:0:0:0:
211,292,23529,1,8,0:0:0:0:
278,282,23686,1,0,0:0:0:0:
77,240,24003,2,0,L|210:213,1,134.999995880127,0|0,0:0|0:0,0:0:0:0:
264,196,24476,5,8,0:0:0:0:
423,134,24793,1,8,0:0:0:0:
360,125,24950,1,0,0:0:0:0:
272,119,25108,2,0,L|203:140,2,67.4999979400635,14|14|14,0:0|0:0|0:0,0:0:0:0:
452,147,25582,5,4,0:0:0:0:
461,210,25739,1,8,0:0:0:0:
263,319,26055,1,8,0:0:0:0:
267,256,26212,1,0,0:0:0:0:
461,210,26529,2,0,L|327:193,1,134.999995880127,0|0,0:0|0:0,0:0:0:0:
269,185,27003,5,8,0:0:0:0:
102,264,27318,1,8,0:0:0:0:
165,273,27475,1,0,0:0:0:0:
242,259,27634,2,0,L|306:233,2,67.4999979400635,14|14|14,0:0|0:0|0:0,0:0:0:0:
79,185,28108,5,4,0:0:0:0:
70,248,28265,1,8,0:0:0:0:
245,94,28582,1,8,0:0:0:0:
308,91,28739,1,0,0:0:0:0:
79,185,29055,2,0,L|198:256,1,134.999995880127,0|0,0:0|0:0,0:0:0:0:
248,284,29528,5,8,0:0:0:0:
386,261,29845,1,8,0:0:0:0:
389,198,30002,1,0,0:0:0:0:
315,167,30161,2,0,L|246:175,2,67.4999979400635,10|0|10,0:0|0:0|0:0,0:0:0:0:
488,122,30634,5,6,0:0:0:0:
368,107,30950,1,8,0:0:0:0:
245,91,31266,1,6,0:0:0:0:
368,107,31582,1,8,0:0:0:0:
488,122,31897,6,0,L|372:209,1,134.999995880127,6|8,0:0|0:0,0:0:0:0:
231,281,32529,2,0,L|123:200,1,134.999995880127,8|8,0:3|0:0,0:0:0:0:
404,327,33161,6,0,P|465:301|412:179,1,225,4|0,0:0|0:0,0:0:0:0:
330,173,33792,2,0,L|178:190,1,150,0|0,0:0|0:0,0:0:0:0:
395,297,34424,6,0,L|409:147,1,150,0|0,0:0|0:0,0:0:0:0:
228,147,35055,1,0,0:0:0:0:
319,146,35213,1,8,0:0:0:0:
408,147,35371,1,0,0:0:0:0:
115,341,35687,6,0,P|46:307|117:207,1,225,0|8,0:0|0:0,0:0:0:0:
206,216,36318,1,0,0:0:0:0:
366,191,36634,1,0,0:0:0:0:
372,116,36791,1,8,0:0:0:0:
281,41,36950,6,0,L|165:137,1,150,4|0,0:0|0:0,0:0:0:0:
366,191,37582,2,0,L|380:344,1,150,0|10,0:0|0:0,0:0:0:0:
247,353,38055,1,10,0:0:0:0:
121,342,38213,6,0,P|71:314|119:253,1,150,4|0,0:0|0:0,0:0:0:0:
284,243,38845,2,0,L|299:93,1,150,0|0,0:0|0:0,0:0:0:0:
197,71,39318,1,8,0:0:0:0:
92,92,39476,6,0,L|243:74,1,150,0|0,0:0|0:0,0:0:0:0:
317,70,39950,1,8,0:0:0:0:
392,67,40108,2,0,L|489:182,1,150,0|0,0:0|0:0,0:0:0:0:
205,194,40739,6,0,L|76:116,2,150,6|8|6,0:0|0:0|0:0,0:0:0:0:
371,261,41687,1,8,0:0:0:0:
192,343,42003,2,0,L|205:187,1,150,6|8,0:0|0:0,0:0:0:0:
405,252,42634,2,0,L|392:96,1,150,8|8,0:0|0:0,0:0:0:0:
103,90,43266,6,0,P|46:125|108:313,1,300,4|0,0:0|0:0,0:0:0:0:
245,295,44213,1,0,0:0:0:0:
405,252,44529,2,0,L|261:73,2,225,0|8|0,0:0|0:0|0:0,0:0:0:0:
178,331,45792,6,0,L|34:152,2,225,4|8|0,0:0|0:0|0:0,0:0:0:0:
376,321,47055,2,0,L|492:129,2,225,0|8|0,0:0|0:0|0:0,0:0:0:0:
142,297,48318,6,0,P|86:255|161:73,1,300,4|0,0:0|0:0,0:0:0:0:
320,112,49266,1,0,0:0:0:0:
123,221,49582,2,0,L|238:318,1,150,0|0,0:0|0:0,0:0:0:0:
412,164,50213,2,0,L|297:261,1,150,0|0,0:0|0:0,0:0:0:0:
64,219,50845,6,0,L|55:56,1,150,4|0,0:0|0:0,0:0:0:0:
247,48,51476,2,0,L|394:86,1,150,0|0,0:0|0:0,0:0:0:0:
108,343,52108,6,0,L|126:193,1,150,8|8,0:0|0:0,0:0:0:0:
205,163,52582,1,8,0:0:0:0:
297,143,52739,2,0,L|404:256,1,150,12|8,0:3|0:0,0:0:0:0:
116,345,53371,6,0,L|18:168,2,202.499993820191,4|0|8,0:0|0:0|0:0,0:0:0:0:
333,344,54634,2,0,L|347:199,1,134.999995880127,0|8,0:0|0:0,0:0:0:0:
169,51,55266,2,0,L|156:192,1,134.999995880127,0|8,0:0|0:0,0:0:0:0:
438,110,55897,5,6,0:0:0:0:
301,260,56213,1,8,0:0:0:0:
295,197,56370,1,8,0:0:0:0:
290,134,56528,1,2,0:0:0:0:
438,110,56845,1,10,0:0:0:0:
184,71,57161,5,6,0:0:0:0:
55,94,57476,1,8,0:0:0:0:
50,157,57634,1,8,0:0:0:0:
44,220,57791,1,0,0:0:0:0:
169,278,58108,1,8,0:0:0:0:
241,267,58266,1,8,0:0:0:0:
414,78,58424,6,0,L|500:182,2,134.999995880127,4|8|0,0:0|0:0|0:0,0:0:0:0:
235,49,59371,2,0,P|176:80|242:229,1,269.999991760254,8|8,0:0|0:0,0:0:0:0:
427,223,60318,2,0,L|436:75,1,134.999995880127,0|8,0:0|0:0,0:0:0:0:
152,81,60950,5,2,0:0:0:0:
37,98,61266,1,8,0:0:0:0:
32,160,61423,1,8,0:0:0:0:
26,223,61581,1,2,0:0:0:0:
171,248,61897,1,10,0:0:0:0:
409,206,62213,6,0,L|479:215,2,67.4999979400635,4|0|8,0:3|0:0|0:0,0:0:0:0:
190,122,62845,1,8,0:0:0:0:
159,182,63002,1,8,0:0:0:0:
129,242,63160,1,8,0:0:0:0:
382,271,63476,6,0,L|503:337,2,134.999995880127,4|8|0,0:0|0:0|0:0,0:0:0:0:
179,116,64424,2,0,L|10:329,1,269.999991760254,8|8,0:0|0:0,0:0:0:0:
191,343,65371,2,0,L|327:325,1,134.999995880127,0|8,0:0|0:0,0:0:0:0:
147,36,66003,6,0,L|127:178,1,134.999995880127,0|8,0:0|0:0,0:0:0:0:
277,170,66634,2,0,L|386:257,1,134.999995880127,0|8,0:0|0:0,0:0:0:0:
112,303,67266,2,0,L|128:166,1,134.999995880127,0|12,0:0|0:0,0:0:0:0:
289,156,67897,1,8,0:0:0:0:
127,168,68213,1,8,0:0:0:0:
203,96,68371,1,8,0:0:0:0:
373,118,68529,6,0,L|491:185,2,134.999995880127,4|8|0,0:0|0:0|0:0,0:0:0:0:
187,90,69476,2,0,P|127:122|189:272,1,269.999991760254,8|8,0:0|0:0,0:0:0:0:
368,274,70424,2,0,L|434:153,1,134.999995880127,0|8,0:0|0:0,0:0:0:0:
150,42,71055,6,0,P|85:81|105:136,1,134.999995880127,6|0,0:0|0:0,0:0:0:0:
169,160,71529,1,8,0:0:0:0:
253,172,71687,2,0,L|392:162,1,134.999995880127,2|8,0:0|0:0,0:0:0:0:
113,339,72318,5,14,0:0:0:0:
297,299,72950,1,2,2:1:0:0:
62,353,73582,6,0,L|157:249,1,134.999995880127,4|8,0:0|0:0,0:0:0:0:
334,214,74213,2,0,L|344:77,1,134.999995880127,0|8,0:0|0:0,0:0:0:0:
144,232,74845,6,0,L|135:98,1,134.999995880127,0|8,0:0|0:0,0:0:0:0:
325,119,75476,2,0,L|416:218,1,134.999995880127,0|8,0:0|0:0,0:0:0:0:
230,207,76108,6,0,L|221:343,1,134.999995880127,0|8,0:0|0:0,0:0:0:0:
426,343,76739,2,0,L|414:203,1,134.999995880127,0|8,0:0|0:0,0:0:0:0:
135,83,77371,2,0,P|39:163|101:271,1,269.999991760254,2|0,0:0|2:0,0:0:0:0:
407,260,78634,6,0,L|423:124,1,134.999995880127,4|8,0:0|0:0,0:0:0:0:
229,271,79266,1,0,0:0:0:0:
422,125,79582,1,8,0:0:0:0:
229,271,79897,6,0,L|139:171,1,134.999995880127,0|8,0:0|0:0,0:0:0:0:
309,140,80529,2,0,L|399:40,1,134.999995880127,0|8,0:0|0:0,0:0:0:0:
90,237,81161,6,0,P|45:161|162:58,1,269.999991760254,8|8,0:0|0:3,0:0:0:0:
388,180,82424,2,0,P|485:248|405:336,1,269.999991760254,4|0,0:0|0:0,0:0:0:0:
101,346,83687,6,0,L|121:72,1,269.999991760254,4|0,0:0|3:0,0:0:0:0:
456,44,84950,2,0,P|480:83|363:228,1,269.999991760254,8|8,0:0|0:0,0:0:0:0:
143,216,85897,1,8,0:0:0:0:
174,115,86055,1,8,0:0:0:0:
345,43,86213,6,0,P|406:73|348:226,1,269.999991760254,4|0,0:0|3:0,0:0:0:0:
151,350,87476,6,0,P|112:333|142:260,1,134.999995880127,4|8,0:0|0:0,0:0:0:0:
230,237,87950,1,8,0:0:0:0:
323,215,88108,2,0,L|447:275,1,134.999995880127,8|8,0:0|0:0,0:0:0:0:
128,192,88739,6,0,L|139:43,1,150,6|8,0:0|0:0,0:0:0:0:
322,93,89371,2,0,L|333:242,1,150,0|8,0:0|0:0,0:0:0:0:
119,346,90003,6,0,L|226:240,1,150,2|8,0:0|0:0,0:0:0:0:
428,198,90634,2,0,L|348:72,1,150,0|8,0:0|0:0,0:0:0:0:
258,47,91108,1,0,0:0:0:0:
78,87,91266,6,0,L|89:236,1,150,14|8,0:0|0:0,0:0:0:0:
251,329,91897,2,0,L|262:180,1,150,8|8,0:0|0:0,0:0:0:0:
454,201,92529,6,0,L|442:48,1,150,4|8,0:3|0:0,0:0:0:0:
252,53,93161,1,8,0:0:0:0:
165,84,93318,1,8,0:0:0:0:
137,172,93476,1,8,0:0:0:0:
188,258,93634,1,8,0:0:0:0:
372,242,93792,6,0,P|418:218|336:46,1,300,4|0,0:0|2:0,0:0:0:0:
213,52,95055,1,4,0:3:0:0:
126,83,95212,1,8,0:0:0:0:
98,171,95370,1,8,0:0:0:0:
149,257,95528,1,8,0:0:0:0:
326,277,95687,2,0,L|434:173,1,150,8|0,0:0|3:0,0:0:0:0:
150,327,96318,6,0,L|25:164,2,202.499993820191,4|0|8,0:0|0:0|0:0,0:0:0:0:
334,343,97581,2,0,L|348:198,1,134.999995880127,0|8,0:0|0:0,0:0:0:0:
170,50,98213,2,0,L|157:191,1,134.999995880127,0|8,0:0|0:0,0:0:0:0:
439,109,98844,5,2,0:0:0:0:
302,259,99160,1,8,0:0:0:0:
296,196,99317,1,0,0:0:0:0:
291,133,99475,1,2,0:0:0:0:
439,109,99792,1,10,0:0:0:0:
185,70,100108,5,2,0:0:0:0:
56,93,100423,1,8,0:0:0:0:
51,156,100581,1,8,0:0:0:0:
45,219,100738,1,0,0:0:0:0:
170,277,101055,1,8,0:0:0:0:
242,253,101213,1,8,0:0:0:0:
408,82,101371,6,0,L|498:191,2,134.999995880127,4|8|0,0:0|0:0|0:0,0:0:0:0:
262,49,102318,2,0,P|203:80|269:229,1,269.999991760254,8|8,0:0|0:0,0:0:0:0:
428,222,103266,2,0,L|437:74,1,134.999995880127,0|8,0:0|0:0,0:0:0:0:
153,80,103897,5,2,0:0:0:0:
38,97,104213,1,8,0:0:0:0:
33,159,104370,1,8,0:0:0:0:
27,222,104528,1,2,0:0:0:0:
172,247,104844,1,10,0:0:0:0:
410,205,105160,6,0,L|480:214,2,67.4999979400635,4|0|8,0:3|0:0|0:0,0:0:0:0:
172,247,105792,2,0,L|102:256,2,67.4999979400635,8|8|8,0:0|0:0|0:0,0:0:0:0:
383,270,106423,6,0,L|504:336,2,134.999995880127,4|8|0,0:0|0:0|0:0,0:0:0:0:
180,115,107371,2,0,L|11:328,1,269.999991760254,8|8,0:0|0:0,0:0:0:0:
192,342,108318,2,0,L|328:324,1,134.999995880127,0|8,0:0|0:0,0:0:0:0:
148,35,108950,6,0,L|128:177,1,134.999995880127,0|8,0:0|0:0,0:0:0:0:
278,169,109581,2,0,L|387:256,1,134.999995880127,0|8,0:0|0:0,0:0:0:0:
113,302,110213,2,0,L|129:165,1,134.999995880127,8|8,0:0|0:0,0:0:0:0:
290,155,110844,1,8,0:0:0:0:
128,167,111160,1,8,0:0:0:0:
197,240,111318,1,8,0:0:0:0:
374,117,111476,6,0,L|493:182,2,134.999995880127,4|8|0,0:0|0:0|0:0,0:0:0:0:
204,95,112423,2,0,P|144:127|206:277,1,269.999991760254,8|8,0:0|0:0,0:0:0:0:
369,273,113371,2,0,L|435:152,1,134.999995880127,0|8,0:0|0:0,0:0:0:0:
151,41,114002,6,0,P|86:80|109:147,1,134.999995880127,14|8,0:0|0:0,0:0:0:0:
154,161,114476,1,0,0:0:0:0:
218,170,114634,2,0,L|357:160,1,134.999995880127,10|8,0:0|0:0,0:0:0:0:
63,352,115265,5,10,0:0:0:0:
225,323,115582,1,0,0:0:0:0:
63,352,115897,1,0,0:0:0:0:
74,271,116055,1,0,0:0:0:0:
86,190,116213,1,8,0:0:0:0:
368,138,116529,1,4,0:0:0:0:
