osu file format v14

[General]
AudioFilename: audio.mp3
AudioLeadIn: 0
PreviewTime: 52661
Countdown: 0
SampleSet: Normal
StackLeniency: 0.7
Mode: 2
LetterboxInBreaks: 0
WidescreenStoryboard: 0

[Editor]
DistanceSpacing: 1.2
BeatDivisor: 4
GridSize: 32
TimelineZoom: 2.3

[Metadata]
Title:The First Punch
TitleUnicode:The First Punch
Artist:Pierce The Veil
ArtistUnicode:Pierce The Veil
Creator:Nelly
Version:Overdose
Source:
Tags:collide with the sky post hardcore metal punk ajamez
BeatmapID:1743502
BeatmapSetID:832176

[Difficulty]
HPDrainRate:7
CircleSize:4
OverallDifficulty:9.2
ApproachRate:9.2
SliderMultiplier:2.22
SliderTickRate:2

[Events]
//Background and Video events
0,0,"bg.jpg",0,0
//Break Periods
//Storyboard Layer 0 (Background)
//Storyboard Layer 1 (Fail)
//Storyboard Layer 2 (Pass)
//Storyboard Layer 3 (Foreground)
//Storyboard Sound Samples

[TimingPoints]
9161,315.789473684211,4,1,1,50,1,0
19266,-111.111111111111,4,1,1,60,0,0
20529,-111.111111111111,4,1,1,70,0,0
33161,-100,4,1,1,70,0,0
43266,-100,4,1,1,60,0,0
53371,-111.111111111111,4,1,1,70,0,1
72318,-111.111111111111,4,1,1,70,0,0
73582,-111.111111111111,4,1,1,60,0,0
77371,-111.111111111111,4,1,1,65,0,0
78003,-111.111111111111,4,1,1,60,0,0
82424,-111.111111111111,4,1,1,70,0,0
83055,-111.111111111111,4,1,1,60,0,0
83687,-111.111111111111,4,1,1,70,0,0
88739,-100,4,1,1,70,0,0
96318,-111.111111111111,4,1,1,70,0,1
116529,-111.111111111111,4,1,1,70,0,0

[HitObjects]
157,287,10424,6,0,L|269:279,1,111,4|8,0:0|0:0,0:0:0:0:
417,137,10739,1,0,0:0:0:0:
412,192,10818,1,0,0:0:0:0:
408,248,10896,1,8,0:0:0:0:
107,203,11055,2,0,L|119:88,1,111,0|8,0:0|0:0,0:0:0:0:
272,45,11371,1,0,0:0:0:0:
234,41,11450,1,0,0:0:0:0:
195,38,11528,1,8,0:0:0:0:
465,296,11687,6,0,L|355:286,1,111,0|8,0:0|0:0,0:0:0:0:
210,264,12003,1,0,0:0:0:0:
201,208,12081,1,0,0:0:0:0:
192,154,12160,1,8,0:0:0:0:
480,203,12318,2,0,L|474:88,1,111,0|8,0:0|0:0,0:0:0:0:
317,54,12634,1,0,0:0:0:0:
355,50,12713,1,0,0:0:0:0:
394,47,12791,1,8,0:0:0:0:
118,343,12950,6,0,L|131:233,1,111,0|8,0:0|0:0,0:0:0:0:
288,222,13266,1,0,0:0:0:0:
295,166,13344,1,0,0:0:0:0:
301,111,13423,1,8,0:0:0:0:
71,55,13582,2,0,L|189:51,1,111,0|8,0:0|0:0,0:0:0:0:
326,49,13897,1,0,0:0:0:0:
332,104,13976,1,0,0:0:0:0:
339,160,14054,1,8,0:0:0:0:
52,320,14213,6,0,L|164:308,1,111,2|8,0:0|0:0,0:0:0:0:
307,294,14529,1,0,0:0:0:0:
310,238,14607,1,0,0:0:0:0:
313,183,14686,1,8,0:0:0:0:
61,220,14845,2,0,L|172:211,1,111,2|8,0:0|0:0,0:0:0:0:
313,183,15161,1,2,0:0:0:0:
274,182,15239,1,0,0:0:0:0:
235,181,15318,1,8,0:0:0:0:
496,312,15476,6,0,L|386:304,1,111,4|8,0:0|0:0,0:0:0:0:
225,235,15792,1,0,0:0:0:0:
263,231,15871,1,0,0:0:0:0:
302,228,15949,1,8,0:0:0:0:
78,41,16108,2,0,L|65:151,1,111,0|8,0:0|0:0,0:0:0:0:
212,341,16424,1,0,0:0:0:0:
174,337,16503,1,0,0:0:0:0:
135,334,16581,1,8,0:0:0:0:
456,306,16739,5,0,0:0:0:0:
312,292,16897,1,8,0:0:0:0:
456,306,17055,1,0,0:0:0:0:
452,250,17133,1,0,0:0:0:0:
448,195,17212,1,8,0:0:0:0:
164,173,17371,1,0,0:0:0:0:
308,159,17529,1,8,0:0:0:0:
164,173,17687,1,0,0:0:0:0:
167,117,17765,1,0,0:0:0:0:
171,62,17844,1,8,0:0:0:0:
430,43,18003,6,0,L|315:44,1,111,2|8,0:0|0:0,0:0:0:0:
164,173,18318,1,0,0:0:0:0:
168,228,18397,1,0,0:0:0:0:
171,284,18475,1,8,0:0:0:0:
468,349,18634,2,0,L|474:236,1,111,2|8,0:0|0:0,0:0:0:0:
323,183,18950,1,0,0:0:0:0:
361,179,19029,1,0,0:0:0:0:
400,176,19107,1,8,0:0:0:0:
135,349,19266,5,8,0:3:0:0:
84,330,19344,1,0,0:0:0:0:
62,281,19423,1,0,0:0:0:0:
84,232,19502,1,0,0:0:0:0:
135,213,19582,1,4,0:3:0:0:
185,194,19660,1,0,0:0:0:0:
207,145,19739,1,0,0:0:0:0:
185,96,19818,1,0,0:0:0:0:
135,77,19897,6,0,L|88:96,1,49.949998475647,8|0,0:3|0:0,0:0:0:0:
297,330,20055,2,0,L|306:273,1,49.949998475647
84,330,20213,1,8,0:0:0:0:
62,281,20292,1,8,0:0:0:0:
84,232,20371,1,8,0:0:0:0:
135,213,20451,1,8,0:0:0:0:
341,227,20529,6,0,L|440:237,2,99.8999969512941,4|8|0,0:0|0:0|0:0,0:0:0:0:
200,211,21003,2,0,L|192:107,1,99.8999969512941,8|0,0:0|0:0,0:0:0:0:
332,105,21318,1,8,0:0:0:0:
192,111,21476,2,0,L|179:212,1,99.8999969512941,0|8,0:0|0:0,0:0:0:0:
447,348,21792,6,0,L|436:247,1,99.8999969512941,0|8,0:0|0:0,0:0:0:0:
297,231,22108,1,0,0:0:0:0:
129,220,22266,2,0,L|140:119,1,99.8999969512941,8|0,0:0|0:0,0:0:0:0:
279,103,22582,1,14,0:0:0:0:
16,348,22739,2,0,L|118:336,1,99.8999969512941,14|14,0:0|0:0,0:0:0:0:
438,278,23055,6,0,L|339:289,2,99.8999969512941,4|8|0,0:0|0:0|0:0,0:0:0:0:
280,180,23529,2,0,L|379:192,2,99.8999969512941,8|0|8,0:0|0:0|0:0,0:0:0:0:
432,153,24003,2,0,L|427:53,1,99.8999969512941,0|8,0:0|0:0,0:0:0:0:
183,43,24318,6,0,L|84:54,2,99.8999969512941,0|8|0,0:0|0:0|0:0,0:0:0:0:
324,51,24792,2,0,L|331:154,1,99.8999969512941,8|0,0:0|0:0,0:0:0:0:
192,168,25108,1,14,0:0:0:0:
444,353,25266,2,0,L|436:252,1,99.8999969512941,14|14,0:0|0:0,0:0:0:0:
144,52,25582,6,0,L|139:160,1,99.8999969512941,4|8,0:0|0:0,0:0:0:0:
279,203,25897,1,0,0:0:0:0:
135,248,26055,2,0,L|30:236,2,99.8999969512941,8|0|8,0:0|0:0|0:0,0:0:0:0:
279,203,26529,1,0,0:0:0:0:
140,151,26687,1,8,0:0:0:0:
405,75,26845,6,0,L|416:175,1,99.8999969512941,0|8,0:0|0:0,0:0:0:0:
279,203,27161,1,0,0:0:0:0:
112,224,27318,2,0,L|101:324,1,99.8999969512941,8|0,0:0|0:0,0:0:0:0:
238,352,27634,1,14,0:0:0:0:
11,104,27792,2,0,L|113:100,1,99.8999969512941,14|14,0:0|0:0,0:0:0:0:
426,56,28108,6,0,L|323:48,2,99.8999969512941,4|8|0,0:0|0:0|0:0,0:0:0:0:
277,129,28582,2,0,L|172:135,1,99.8999969512941,8|0,0:0|0:0,0:0:0:0:
317,213,28897,1,8,0:0:0:0:
456,334,29055,2,0,L|354:340,1,99.8999969512941,0|8,0:0|0:0,0:0:0:0:
81,306,29371,6,0,L|92:206,1,99.8999969512941,0|8,0:0|0:0,0:0:0:0:
219,144,29687,1,0,0:0:0:0:
365,163,29845,2,0,L|465:178,1,99.8999969512941,8|0,0:0|0:0,0:0:0:0:
323,365,30161,2,0,L|314:266,1,99.8999969512941,10|0,0:0|0:0,0:0:0:0:
460,305,30476,1,10,0:0:0:0:
112,282,30634,6,0,L|103:228,1,49.949998475647,6|0,0:0|0:0,0:0:0:0:
160,232,30792,2,0,L|151:178,1,49.949998475647,8|8,0:0|0:0,0:0:0:0:
208,182,30950,2,0,L|199:128,1,49.949998475647,8|8,0:0|0:0,0:0:0:0:
256,132,31108,2,0,L|247:78,1,49.949998475647,8|8,0:0|0:0,0:0:0:0:
326,63,31266,5,6,0:0:0:0:
374,77,31344,1,0,0:0:0:0:
413,108,31423,1,8,0:0:0:0:
439,150,31502,1,8,0:0:0:0:
448,199,31581,1,8,0:0:0:0:
439,248,31660,1,8,0:0:0:0:
413,291,31739,1,8,0:0:0:0:
374,321,31818,1,8,0:0:0:0:
95,321,31897,5,6,0:0:0:0:
73,272,31976,1,0,0:0:0:0:
95,223,32055,1,8,0:0:0:0:
146,204,32135,1,8,0:0:0:0:
417,321,32213,1,8,0:0:0:0:
439,272,32292,1,8,0:0:0:0:
417,223,32371,1,8,0:0:0:0:
366,204,32451,1,8,0:0:0:0:
205,192,32529,5,8,0:3:0:0:
183,143,32608,1,0,0:0:0:0:
205,94,32687,1,8,0:3:0:0:
256,75,32767,1,0,0:0:0:0:
307,324,32845,1,8,0:0:0:0:
329,275,32924,1,8,0:0:0:0:
307,226,33003,1,8,0:0:0:0:
256,207,33083,1,8,0:0:0:0:
72,348,33161,6,0,L|61:235,1,111,4|8,0:0|0:0,0:0:0:0:
205,94,33476,1,0,0:0:0:0:
166,96,33554,1,0,0:0:0:0:
128,99,33633,1,8,0:0:0:0:
356,292,33792,2,0,L|468:284,1,111,0|8,0:0|0:0,0:0:0:0:
412,238,34029,1,0,0:0:0:0:
225,213,34108,1,0,0:0:0:0:
182,211,34187,1,0,0:0:0:0:
225,213,34266,1,8,0:0:0:0:
480,87,34424,6,0,L|366:80,1,111,0|8,0:0|0:0,0:0:0:0:
218,94,34739,1,0,0:0:0:0:
213,149,34817,1,0,0:0:0:0:
209,204,34896,1,8,0:0:0:0:
468,340,35055,2,0,L|479:230,1,111,0|8,0:0|0:0,0:0:0:0:
335,86,35370,1,0,0:0:0:0:
374,88,35450,1,0,0:0:0:0:
412,91,35529,1,8,0:0:0:0:
119,312,35687,6,0,L|234:305,1,111,0|8,0:0|0:0,0:0:0:0:
376,277,36003,1,0,0:0:0:0:
372,222,36081,1,0,0:0:0:0:
368,167,36160,1,8,0:0:0:0:
128,42,36318,2,0,L|119:152,1,111,0|8,0:0|0:0,0:0:0:0:
260,202,36634,1,0,0:0:0:0:
298,199,36713,1,0,0:0:0:0:
337,197,36791,1,8,0:0:0:0:
49,344,36950,6,0,L|163:336,1,111,4|8,0:0|0:0,0:0:0:0:
298,199,37266,1,0,0:0:0:0:
302,254,37345,1,0,0:0:0:0:
306,309,37423,1,8,0:0:0:0:
156,153,37582,1,0,0:0:0:0:
426,104,37739,1,10,0:0:0:0:
296,84,37897,1,10,0:0:0:0:
426,104,38055,1,10,0:0:0:0:
195,336,38213,6,0,L|82:325,1,111,4|8,0:0|0:0,0:0:0:0:
245,252,38529,1,0,0:0:0:0:
248,196,38607,1,0,0:0:0:0:
252,141,38686,1,8,0:0:0:0:
18,47,38845,2,0,L|129:43,1,111,0|8,0:0|0:0,0:0:0:0:
184,38,39082,1,0,0:0:0:0:
347,32,39161,1,0,0:0:0:0:
390,30,39240,1,0,0:0:0:0:
347,32,39319,1,8,0:0:0:0:
60,317,39476,6,0,L|174:309,1,111,0|8,0:0|0:0,0:0:0:0:
295,228,39792,1,0,0:0:0:0:
257,226,39870,1,0,0:0:0:0:
219,223,39949,1,8,0:0:0:0:
461,337,40108,2,0,L|471:226,1,111,0|8,0:0|0:0,0:0:0:0:
328,83,40423,1,0,0:0:0:0:
367,85,40503,1,0,0:0:0:0:
405,88,40582,1,8,0:0:0:0:
165,341,40739,6,0,L|158:283,1,55.5,6|0,0:0|0:0,0:0:0:0:
331,229,40897,1,8,0:0:0:0:
362,197,40976,1,8,0:0:0:0:
372,155,41055,1,8,0:0:0:0:
360,113,41134,1,8,0:0:0:0:
328,83,41213,1,8,0:0:0:0:
285,74,41292,1,8,0:0:0:0:
83,146,41371,5,6,0:0:0:0:
130,153,41450,1,0,0:0:0:0:
327,235,41529,2,0,L|334:291,1,55.5,8|8,0:0|0:0,0:0:0:0:
277,290,41687,1,8,0:0:0:0:
234,290,41766,1,8,0:0:0:0:
178,290,41845,2,0,L|174:345,1,55.5,8|8,0:0|0:0,0:0:0:0:
433,275,42003,6,0,L|440:219,1,55.5,6|0,0:0|0:0,0:0:0:0:
213,213,42161,2,0,L|204:159,1,55.5,8|8,0:0|0:0,0:0:0:0:
256,163,42319,2,0,L|247:109,1,55.5,8|8,0:0|0:0,0:0:0:0:
299,113,42477,2,0,L|290:59,1,55.5,8|8,0:0|0:0,0:0:0:0:
86,204,42634,5,8,0:0:0:0:
64,155,42713,1,0,0:0:0:0:
86,106,42792,1,8,0:0:0:0:
137,87,42872,1,4,0:3:0:0:
319,253,42950,1,8,0:0:0:0:
275,252,43028,1,0,0:0:0:0:
231,250,43107,1,8,0:0:0:0:
186,249,43186,1,0,0:0:0:0:
448,343,43266,6,0,L|458:233,1,111,4|8,0:0|0:0,0:0:0:0:
314,135,43582,1,0,0:0:0:0:
353,133,43660,1,0,0:0:0:0:
391,130,43739,1,8,0:0:0:0:
177,350,43897,2,0,L|167:240,1,111,0|8,0:0|0:0,0:0:0:0:
309,212,44213,1,0,0:0:0:0:
311,173,44291,1,0,0:0:0:0:
314,135,44370,1,8,0:0:0:0:
85,74,44529,6,0,L|73:184,1,111,0|8,0:0|0:0,0:0:0:0:
215,267,44845,1,0,0:0:0:0:
254,269,44923,1,0,0:0:0:0:
292,272,45002,1,8,0:0:0:0:
433,238,45161,1,0,0:0:0:0:
292,272,45318,1,8,0:0:0:0:
433,238,45476,1,0,0:0:0:0:
431,182,45554,1,0,0:0:0:0:
430,127,45633,1,8,0:0:0:0:
101,100,45792,6,0,L|212:92,1,111,4|8,0:0|0:0,0:0:0:0:
357,94,46108,1,0,0:0:0:0:
358,149,46187,1,0,0:0:0:0:
360,205,46265,1,8,0:0:0:0:
216,224,46424,2,0,L|211:342,1,111,0|8,0:0|0:0,0:0:0:0:
360,205,46739,1,0,0:0:0:0:
322,202,46818,1,0,0:0:0:0:
283,200,46896,1,8,0:0:0:0:
27,193,47055,6,0,L|36:81,1,111,0|8,0:0|0:0,0:0:0:0:
178,53,47371,1,0,0:0:0:0:
216,50,47450,1,0,0:0:0:0:
255,48,47528,1,8,0:0:0:0:
399,240,47687,2,0,L|288:231,1,111,0|8,0:0|0:0,0:0:0:0:
141,153,48003,1,0,0:0:0:0:
179,150,48082,1,0,0:0:0:0:
218,148,48160,1,8,0:0:0:0:
475,138,48318,6,0,L|482:250,1,111,4|8,0:0|0:0,0:0:0:0:
333,338,48634,1,0,0:0:0:0:
372,340,48712,1,0,0:0:0:0:
410,343,48791,1,8,0:0:0:0:
179,268,48950,2,0,L|172:155,1,111,0|8,0:0|0:0,0:0:0:0:
321,70,49266,1,0,0:0:0:0:
359,73,49345,1,0,0:0:0:0:
398,75,49423,1,8,0:0:0:0:
103,79,49582,6,0,L|214:71,1,111,0|8,0:0|0:0,0:0:0:0:
359,73,49898,1,0,0:0:0:0:
360,128,49977,1,0,0:0:0:0:
362,184,50055,1,8,0:0:0:0:
114,355,50213,2,0,L|107:243,1,111,0|8,0:0|0:0,0:0:0:0:
256,155,50529,1,0,0:0:0:0:
217,153,50607,1,0,0:0:0:0:
179,150,50686,1,8,0:0:0:0:
436,52,50845,6,0,L|325:44,1,111,4|8,0:0|0:0,0:0:0:0:
179,150,51161,1,0,0:0:0:0:
217,153,51240,1,0,0:0:0:0:
256,155,51318,1,8,0:0:0:0:
477,352,51476,2,0,L|484:240,1,111,0|8,0:0|0:0,0:0:0:0:
335,152,51792,1,0,0:0:0:0:
374,150,51870,1,0,0:0:0:0:
412,147,51949,1,8,0:0:0:0:
150,267,52108,5,8,0:0:0:0:
128,218,52187,1,8,0:0:0:0:
150,169,52266,1,8,0:0:0:0:
201,150,52346,1,8,0:0:0:0:
409,204,52424,1,8,0:0:0:0:
367,192,52503,1,8,0:0:0:0:
201,150,52582,1,8,0:0:0:0:
159,138,52661,1,8,0:0:0:0:
409,204,52739,6,0,L|415:262,1,55.5,12|0,0:3|0:0,0:0:0:0:
173,295,52897,2,0,L|179:353,1,55.5,8|0,0:0|0:0,0:0:0:0:
435,116,53055,1,8,0:0:0:0:
393,104,53134,1,0,0:0:0:0:
126,41,53213,1,8,0:0:0:0:
168,53,53292,1,0,0:0:0:0:
424,327,53371,6,0,P|474:300|424:196,1,199.799993902588,4|8,0:0|0:0,0:0:0:0:
293,193,53845,2,0,L|205:241,2,99.8999969512941,0|0|0,0:0|0:0|0:0,0:0:0:0:
423,195,54318,2,0,L|414:92,1,99.8999969512941,8|0,0:0|0:0,0:0:0:0:
109,67,54634,6,0,L|212:59,1,99.8999969512941,0|0,0:0|0:0,0:0:0:0:
339,64,54950,2,0,L|347:163,1,99.8999969512941,8|0,0:0|0:0,0:0:0:0:
216,294,55266,2,0,L|208:195,1,99.8999969512941,0|0,0:0|0:0,0:0:0:0:
438,71,55582,2,0,L|335:63,1,99.8999969512941,8|0,0:0|0:0,0:0:0:0:
49,225,55897,6,0,L|153:221,1,99.8999969512941,6|0,0:0|0:0,0:0:0:0:
279,232,56213,1,8,0:0:0:0:
148,221,56371,1,8,0:0:0:0:
463,228,56529,2,0,L|475:123,1,99.8999969512941,2|0,0:0|0:0,0:0:0:0:
335,110,56845,1,10,0:0:0:0:
474,128,57003,1,0,0:0:0:0:
232,313,57161,6,0,L|132:300,1,99.8999969512941,6|0,0:0|0:0,0:0:0:0:
393,222,57476,2,0,L|293:209,1,99.8999969512941,8|8,0:0|0:0,0:0:0:0:
54,168,57792,2,0,L|47:63,1,99.8999969512941,0|0,0:0|0:0,0:0:0:0:
288,53,58108,1,8,0:0:0:0:
330,65,58187,1,8,0:0:0:0:
173,140,58266,1,8,0:0:0:0:
215,152,58345,1,8,0:0:0:0:
456,313,58424,6,0,L|354:303,1,99.8999969512941,4|0,0:0|0:0,0:0:0:0:
228,284,58739,2,0,L|219:176,1,99.8999969512941,8|0,0:0|0:0,0:0:0:0:
350,174,59055,2,0,L|365:66,1,99.8999969512941,0|0,0:0|0:0,0:0:0:0:
102,29,59371,6,0,P|72:72|153:172,1,199.799993902588,8|0,0:0|0:0,0:0:0:0:
259,162,59845,1,0,0:0:0:0:
368,153,60003,2,0,L|381:253,1,99.8999969512941,8|0,0:0|0:0,0:0:0:0:
257,292,60318,2,0,L|158:283,1,99.8999969512941,0|0,0:0|0:0,0:0:0:0:
286,64,60634,2,0,L|385:55,1,99.8999969512941,8|0,0:0|0:0,0:0:0:0:
146,300,60950,6,0,L|46:308,1,99.8999969512941,2|0,0:0|0:0,0:0:0:0:
181,188,61266,1,8,0:0:0:0:
50,184,61424,1,8,0:0:0:0:
321,176,61582,2,0,L|420:184,1,99.8999969512941,2|0,0:0|0:0,0:0:0:0:
286,64,61898,1,10,0:0:0:0:
417,60,62056,1,0,0:0:0:0:
99,335,62213,6,0,L|198:322,1,99.8999969512941,4|0,0:3|0:0,0:0:0:0:
472,263,62529,2,0,L|373:250,1,99.8999969512941,8|0,0:0|0:0,0:0:0:0:
136,207,62845,2,0,L|37:194,1,99.8999969512941,8|8,0:0|0:0,0:0:0:0:
93,152,63082,1,8,0:0:0:0:
288,108,63161,1,8,0:0:0:0:
330,120,63240,1,8,0:0:0:0:
140,40,63318,1,8,0:0:0:0:
98,52,63397,1,8,0:0:0:0:
329,314,63476,6,0,L|430:301,1,99.8999969512941,4|0,0:0|0:0,0:0:0:0:
293,222,63792,2,0,L|193:234,1,99.8999969512941,8|0,0:0|0:0,0:0:0:0:
330,120,64108,2,0,L|342:16,1,99.8999969512941,0|0,0:0|0:0,0:0:0:0:
29,239,64424,6,0,L|223:175,1,199.799993902588,8|0,0:0|0:0,0:0:0:0:
346,199,64897,1,0,0:0:0:0:
218,176,65055,2,0,L|208:275,1,99.8999969512941,8|0,0:0|0:0,0:0:0:0:
335,298,65371,2,0,L|345:199,1,99.8999969512941,0|0,0:0|0:0,0:0:0:0:
218,176,65687,2,0,L|114:171,1,99.8999969512941,8|0,0:0|0:0,0:0:0:0:
467,36,66003,5,0,0:0:0:0:
478,155,66161,1,0,0:0:0:0:
349,163,66318,1,8,0:0:0:0:
478,155,66476,1,0,0:0:0:0:
256,329,66634,1,0,0:0:0:0:
155,320,66792,1,0,0:0:0:0:
256,329,66950,1,8,0:0:0:0:
357,320,67108,1,0,0:0:0:0:
78,229,67266,6,0,L|71:123,1,99.8999969512941,0|0,0:0|0:0,0:0:0:0:
287,65,67582,2,0,L|389:72,1,99.8999969512941,12|0,0:0|0:0,0:0:0:0:
338,106,67818,1,0,0:0:0:0:
106,236,67897,2,0,L|208:243,1,99.8999969512941,8|8,0:0|0:0,0:0:0:0:
255,248,68134,1,8,0:0:0:0:
466,192,68213,1,8,0:0:0:0:
488,143,68292,1,8,0:0:0:0:
466,94,68371,1,8,0:0:0:0:
415,75,68451,1,8,0:0:0:0:
176,117,68529,6,0,L|164:218,1,99.8999969512941,4|0,0:0|0:0,0:0:0:0:
286,329,68845,2,0,L|388:323,1,99.8999969512941,8|0,0:0|0:0,0:0:0:0:
255,248,69161,2,0,L|153:242,1,99.8999969512941,0|0,0:0|0:0,0:0:0:0:
442,236,69476,6,0,P|472:197|388:104,1,199.799993902588,8|0,0:0|0:0,0:0:0:0:
290,119,69950,1,0,0:0:0:0:
191,134,70108,2,0,L|182:233,1,99.8999969512941,8|0,0:0|0:0,0:0:0:0:
321,349,70424,2,0,L|220:341,1,99.8999969512941,0|0,0:0|0:0,0:0:0:0:
82,241,70739,2,0,L|183:233,1,99.8999969512941,8|0,0:0|0:0,0:0:0:0:
457,212,71055,6,0,L|465:110,1,99.8999969512941,6|0,0:0|0:0,0:0:0:0:
338,78,71371,1,0,0:0:0:0:
106,141,71529,2,0,L|210:153,2,99.8999969512941,8|2|0,0:0|0:0|0:0,0:0:0:0:
426,327,72003,2,0,L|326:315,1,99.8999969512941,8|0,0:0|0:0,0:0:0:0:
104,254,72318,5,14,0:0:0:0:
445,99,72950,1,2,2:1:0:0:
115,339,73582,6,0,L|215:327,1,99.8999969512941,4|0,0:0|0:0,0:0:0:0:
353,305,73897,2,0,P|395:279|353:208,1,149.849995426941,8|0,0:0|0:0,0:0:0:0:
297,208,74213,2,0,L|197:211,1,99.8999969512941,0|0,0:0|0:0,0:0:0:0:
329,117,74529,2,0,L|336:13,1,99.8999969512941,8|0,0:0|0:0,0:0:0:0:
204,17,74845,6,0,L|99:25,1,99.8999969512941,0|0,0:0|0:0,0:0:0:0:
235,29,75161,2,0,L|383:51,1,149.849995426941,8|0,0:0|0:0,0:0:0:0:
432,61,75476,2,0,L|437:164,1,99.8999969512941,0|0,0:0|0:0,0:0:0:0:
312,200,75792,2,0,L|208:190,1,99.8999969512941,8|0,0:0|0:0,0:0:0:0:
350,284,76108,6,0,L|359:388,1,99.8999969512941,0|0,0:0|0:0,0:0:0:0:
227,379,76424,2,0,P|179:361|147:268,1,149.849995426941,8|0,0:0|0:0,0:0:0:0:
195,274,76739,2,0,L|295:281,1,99.8999969512941,0|0,0:0|0:0,0:0:0:0:
124,63,77055,2,0,L|115:167,1,99.8999969512941,8|0,0:0|0:0,0:0:0:0:
333,294,77371,5,2,0:0:0:0:
381,281,77449,1,0,0:0:0:0:
420,251,77528,1,2,0:0:0:0:
445,208,77607,1,0,0:0:0:0:
248,149,77687,2,0,L|197:142,1,49.949998475647,2|0,0:0|0:0,0:0:0:0:
395,73,77845,2,0,L|444:79,1,49.949998475647,2|0,0:0|0:0,0:0:0:0:
163,293,78003,5,0,2:0:0:0:
128,294,78161,1,0,2:0:0:0:
93,296,78318,1,0,2:0:0:0:
58,298,78476,1,0,2:0:0:0:
396,352,78634,6,0,L|402:250,1,99.8999969512941,4|0,0:0|0:0,0:0:0:0:
272,234,78950,2,0,P|232:201|272:128,1,149.849995426941,8|0,0:0|0:0,0:0:0:0:
328,128,79266,2,0,L|430:138,1,99.8999969512941,0|0,0:0|0:0,0:0:0:0:
293,330,79582,2,0,L|191:340,1,99.8999969512941,8|0,0:0|0:0,0:0:0:0:
52,211,79897,6,0,L|154:221,1,99.8999969512941,0|0,0:0|0:0,0:0:0:0:
282,227,80213,2,0,P|322:194|282:121,1,149.849995426941,8|0,0:0|0:0,0:0:0:0:
226,121,80529,2,0,L|124:131,1,99.8999969512941,0|0,0:0|0:0,0:0:0:0:
261,323,80845,2,0,L|363:333,1,99.8999969512941,8|0,0:0|0:0,0:0:0:0:
118,341,81161,5,8,0:0:0:0:
47,311,81318,1,0,0:0:0:0:
178,257,81476,1,8,0:3:0:0:
66,220,81633,1,4,0:3:0:0:
297,169,81792,1,8,0:3:0:0:
151,120,81949,1,4,0:3:0:0:
417,109,82108,1,8,0:3:0:0:
271,60,82265,1,4,0:3:0:0:
500,316,82424,5,4,0:0:0:0:
132,316,83055,1,0,0:0:0:0:
476,355,83687,6,0,P|429:328|488:54,1,399.599987805176,4|0,0:0|3:0,0:0:0:0:
175,59,84950,6,0,L|170:111,1,49.949998475647,8|0,0:0|0:0,0:0:0:0:
233,124,85108,2,0,L|286:119,1,49.949998475647,8|8,0:0|0:0,0:0:0:0:
348,118,85266,2,0,L|353:170,1,49.949998475647,8|0,0:0|0:0,0:0:0:0:
158,269,85424,2,0,L|208:265,1,49.949998475647,8|0,0:0|0:0,0:0:0:0:
407,303,85582,5,8,0:0:0:0:
446,273,85661,1,0,0:0:0:0:
472,230,85740,1,8,0:0:0:0:
481,181,85819,1,8,0:0:0:0:
472,132,85898,1,8,0:0:0:0:
446,90,85977,1,8,0:0:0:0:
407,59,86056,1,8,0:0:0:0:
359,45,86134,1,8,0:0:0:0:
131,48,86213,6,0,P|38:210|165:347,1,399.599987805176,4|0,0:0|3:0,0:0:0:0:
393,194,87476,5,4,0:0:0:0:
254,171,87634,1,8,0:0:0:0:
249,220,87712,1,8,0:0:0:0:
245,270,87791,1,8,0:0:0:0:
393,194,87950,2,0,L|398:138,1,49.949998475647,8|8,0:0|0:0,0:0:0:0:
194,250,88108,5,8,0:0:0:0:
172,201,88187,1,8,0:0:0:0:
194,152,88266,1,8,0:0:0:0:
245,133,88346,1,8,0:0:0:0:
296,123,88424,1,8,0:0:0:0:
318,74,88503,1,8,0:0:0:0:
296,25,88582,1,8,0:0:0:0:
245,6,88662,1,8,0:0:0:0:
40,73,88739,6,0,L|32:184,1,111,6|0,0:0|0:0,0:0:0:0:
254,342,89055,2,0,L|365:334,1,111,8|0,0:0|0:0,0:0:0:0:
144,242,89371,2,0,L|255:234,1,111,0|0,0:0|0:0,0:0:0:0:
489,166,89687,2,0,L|378:158,1,111,8|0,0:0|0:0,0:0:0:0:
119,31,90003,6,0,L|110:141,1,111,2|0,0:0|0:0,0:0:0:0:
423,285,90318,2,0,L|312:277,1,111,8|0,0:0|0:0,0:0:0:0:
35,138,90634,2,0,L|146:146,1,111,0|0,0:0|0:0,0:0:0:0:
374,107,90950,2,0,L|485:115,1,111,8|0,0:0|0:0,0:0:0:0:
436,149,91187,1,0,0:0:0:0:
200,290,91266,6,0,L|87:280,1,111,14|0,0:0|0:0,0:0:0:0:
318,236,91582,2,0,L|431:226,1,111,8|0,0:0|0:0,0:0:0:0:
149,104,91897,2,0,L|39:94,1,111,8|0,0:0|0:0,0:0:0:0:
361,180,92213,2,0,L|472:170,1,111,8|0,0:0|0:0,0:0:0:0:
136,334,92529,5,4,0:3:0:0:
273,290,92687,2,0,L|281:232,2,55.5,0|0|8,0:0|0:0|0:0,0:0:0:0:
136,334,93003,1,8,0:0:0:0:
357,320,93161,1,8,0:0:0:0:
256,329,93318,1,8,0:0:0:0:
376,211,93476,1,8,0:0:0:0:
275,202,93634,1,8,0:0:0:0:
497,43,93792,5,4,0:0:0:0:
424,44,94108,1,0,2:0:0:0:
351,45,94424,1,0,2:0:0:0:
278,46,94739,1,0,2:0:0:0:
205,47,95055,5,4,0:3:0:0:
348,147,95213,1,8,0:0:0:0:
192,173,95371,1,8,0:0:0:0:
335,273,95529,1,8,0:0:0:0:
52,360,95687,2,0,P|33:308|122:186,1,222,8|0,0:0|3:0,0:0:0:0:
499,173,96318,6,0,L|398:162,1,99.8999969512941,4|0,0:0|0:0,0:0:0:0:
268,163,96634,1,8,0:0:0:0:
401,204,96792,2,0,L|407:307,1,99.8999969512941,0|0,0:0|0:0,0:0:0:0:
277,322,97108,1,0,0:0:0:0:
147,329,97266,2,0,L|67:264,1,99.8999969512941,8|0,0:0|0:0,0:0:0:0:
350,230,97582,6,0,L|356:127,1,99.8999969512941,0|0,0:0|0:0,0:0:0:0:
219,77,97897,2,0,L|213:176,1,99.8999969512941,8|0,0:0|0:0,0:0:0:0:
350,230,98213,2,0,L|248:242,1,99.8999969512941,0|0,0:0|0:0,0:0:0:0:
25,236,98529,2,0,L|127:248,1,99.8999969512941,8|0,0:0|0:0,0:0:0:0:
448,218,98845,6,0,L|460:113,1,99.8999969512941,2|0,0:0|0:0,0:0:0:0:
320,100,99161,1,8,0:0:0:0:
459,118,99319,1,8,0:0:0:0:
124,247,99476,2,0,L|112:142,1,99.8999969512941,2|0,0:0|0:0,0:0:0:0:
252,129,99792,1,10,0:0:0:0:
113,147,99950,1,0,0:0:0:0:
388,344,100108,6,0,L|392:245,1,99.8999969512941,2|0,0:0|0:0,0:0:0:0:
141,56,100424,2,0,L|242:46,1,99.8999969512941,8|8,0:0|0:0,0:0:0:0:
486,164,100739,2,0,L|385:154,1,99.8999969512941,0|0,0:0|0:0,0:0:0:0:
134,265,101055,1,8,0:0:0:0:
176,253,101134,1,8,0:0:0:0:
365,154,101213,1,8,0:0:0:0:
323,142,101292,1,8,0:0:0:0:
56,313,101371,6,0,L|158:303,1,99.8999969512941,4|0,0:0|0:0,0:0:0:0:
284,284,101687,2,0,L|294:182,1,99.8999969512941,8|0,0:0|0:0,0:0:0:0:
137,91,102003,2,0,L|240:77,1,99.8999969512941
455,52,102318,6,0,P|485:95|404:195,1,199.799993902588,8|0,0:0|0:0,0:0:0:0:
307,186,102792,1,0,0:0:0:0:
207,178,102950,2,0,L|194:278,1,99.8999969512941,8|0,0:0|0:0,0:0:0:0:
335,361,103266,2,0,L|233:349,1,99.8999969512941
107,327,103581,2,0,L|116:227,1,99.8999969512941,8|0,0:0|0:0,0:0:0:0:
366,300,103897,6,0,L|466:308,1,99.8999969512941,2|0,0:0|0:0,0:0:0:0:
331,188,104213,1,8,0:0:0:0:
462,184,104371,1,8,0:0:0:0:
191,176,104529,2,0,L|92:184,1,99.8999969512941,2|0,0:0|0:0,0:0:0:0:
226,64,104845,1,10,0:0:0:0:
95,60,105003,1,0,0:0:0:0:
353,301,105160,6,0,L|452:314,1,99.8999969512941,4|0,0:3|0:0,0:0:0:0:
139,250,105476,2,0,L|133:148,1,99.8999969512941,8|0,0:0|0:0,0:0:0:0:
503,188,105792,2,0,L|404:175,1,99.8999969512941,8|8,0:0|0:0,0:0:0:0:
354,164,106029,1,8,0:0:0:0:
190,132,106108,1,8,0:0:0:0:
148,144,106187,1,8,0:0:0:0:
338,64,106265,1,8,0:0:0:0:
380,76,106344,1,8,0:0:0:0:
183,314,106424,6,0,L|81:303,1,99.8999969512941,4|0,0:0|0:0,0:0:0:0:
219,222,106739,2,0,L|319:234,1,99.8999969512941,8|0,0:0|0:0,0:0:0:0:
182,120,107055,2,0,L|170:16,1,99.8999969512941,0|0,0:0|0:0,0:0:0:0:
483,239,107371,6,0,L|289:175,1,199.799993902588,8|0,0:0|0:0,0:0:0:0:
166,199,107844,1,0,0:0:0:0:
294,176,108003,2,0,L|305:276,1,99.8999969512941,8|0,0:0|0:0,0:0:0:0:
177,298,108318,2,0,L|167:199,1,99.8999969512941,0|0,0:0|0:0,0:0:0:0:
294,176,108634,2,0,L|398:171,1,99.8999969512941,8|0,0:0|0:0,0:0:0:0:
45,36,108950,5,0,0:0:0:0:
34,155,109108,1,0,0:0:0:0:
163,163,109265,1,8,0:0:0:0:
34,155,109423,1,0,0:0:0:0:
317,351,109581,1,0,0:0:0:0:
328,241,109739,1,0,0:0:0:0:
195,351,109897,1,8,0:0:0:0:
184,241,110055,1,0,0:0:0:0:
434,229,110213,6,0,L|441:123,1,99.8999969512941,8|0,0:0|0:0,0:0:0:0:
225,65,110529,2,0,L|123:72,1,99.8999969512941,8|0,0:0|0:0,0:0:0:0:
406,236,110845,2,0,L|305:245,1,99.8999969512941,8|8,0:0|0:0,0:0:0:0:
257,248,111081,1,8,0:0:0:0:
46,192,111160,1,8,0:0:0:0:
24,143,111239,1,8,0:0:0:0:
46,94,111318,1,8,0:0:0:0:
97,75,111398,1,8,0:0:0:0:
336,117,111476,6,0,L|348:218,1,99.8999969512941,4|0,0:0|0:0,0:0:0:0:
226,329,111792,2,0,L|124:323,1,99.8999969512941,8|0,0:0|0:0,0:0:0:0:
257,248,112108,2,0,L|359:242,1,99.8999969512941,0|0,0:0|0:0,0:0:0:0:
70,236,112423,6,0,P|40:197|124:104,1,199.799993902588,8|0,0:0|0:0,0:0:0:0:
222,119,112897,1,0,0:0:0:0:
321,134,113055,2,0,L|330:233,1,99.8999969512941,8|0,0:0|0:0,0:0:0:0:
191,349,113371,2,0,L|292:341,1,99.8999969512941,0|0,0:0|0:0,0:0:0:0:
430,241,113687,2,0,L|328:233,1,99.8999969512941,8|0,0:0|0:0,0:0:0:0:
55,212,114003,6,0,L|47:112,1,99.8999969512941,14|0,0:0|0:0,0:0:0:0:
285,51,114318,2,0,L|387:57,1,99.8999969512941,8|0,0:0|0:0,0:0:0:0:
121,278,114634,2,0,L|220:272,1,99.8999969512941,10|0,0:0|0:0,0:0:0:0:
490,244,114950,2,0,L|502:144,1,99.8999969512941,8|0,0:0|0:0,0:0:0:0:
206,240,115266,5,10,0:0:0:0:
184,191,115345,1,8,0:0:0:0:
206,142,115424,1,0,0:0:0:0:
257,123,115504,1,0,0:0:0:0:
308,240,115582,1,0,0:0:0:0:
330,191,115661,1,0,0:0:0:0:
308,142,115740,1,0,0:0:0:0:
257,123,115818,1,0,0:0:0:0:
96,91,115897,5,0,0:0:0:0:
138,79,115976,1,0,0:0:0:0:
362,71,116055,1,0,0:0:0:0:
320,59,116134,1,0,0:0:0:0:
154,324,116213,2,0,L|47:310,1,99.8999969512941,8|0,0:0|0:0,0:0:0:0:
406,218,116529,1,4,0:0:0:0:
