osu file format v14

[General]
AudioFilename: audio.mp3
AudioLeadIn: 0
PreviewTime: 52661
Countdown: 0
SampleSet: Normal
StackLeniency: 0.7
Mode: 2
LetterboxInBreaks: 0
WidescreenStoryboard: 0

[Editor]
Bookmarks: 15476,20529,30634,43266,63476,73582,83687,91266,96318,106424,116529
DistanceSpacing: 1.1
BeatDivisor: 2
GridSize: 32
TimelineZoom: 2.3

[Metadata]
Title:The First Punch
TitleUnicode:The First Punch
Artist:Pierce The Veil
ArtistUnicode:Pierce The Veil
Creator:Nelly
Version:Cup
Source:
Tags:collide with the sky post hardcore metal punk ajamez
BeatmapID:1744239
BeatmapSetID:832176

[Difficulty]
HPDrainRate:3
CircleSize:2.5
OverallDifficulty:6
ApproachRate:6
SliderMultiplier:1.4
SliderTickRate:1

[Events]
//Background and Video events
0,0,"bg.jpg",0,0
//Break Periods
//Storyboard Layer 0 (Background)
//Storyboard Layer 1 (Fail)
//Storyboard Layer 2 (Pass)
//Storyboard Layer 3 (Foreground)
//Storyboard Sound Samples

[TimingPoints]
9161,315.789473684211,4,1,1,50,1,0
19266,-111.111111111111,4,1,1,60,0,0
20529,-111.111111111111,4,1,1,70,0,0
33161,-100,4,1,1,70,0,0
43266,-100,4,1,1,60,0,0
53371,-111.111111111111,4,1,1,70,0,1
72318,-111.111111111111,4,1,1,70,0,0
73582,-111.111111111111,4,1,1,60,0,0
77371,-111.111111111111,4,1,1,65,0,0
78003,-111.111111111111,4,1,1,60,0,0
82424,-111.111111111111,4,1,1,70,0,0
83055,-111.111111111111,4,1,1,60,0,0
83687,-111.111111111111,4,1,1,70,0,0
88739,-100,4,1,1,70,0,0
96318,-111.111111111111,4,1,1,70,0,1
116529,-111.111111111111,4,1,1,70,0,0

[HitObjects]
139,314,10424,6,0,P|82:281|143:117,1,280,4|0,0:0|0:0,0:0:0:0:
239,125,11371,1,0,0:0:0:0:
345,140,11687,2,0,P|429:236|348:336,1,280,0|0,0:0|0:0,0:0:0:0:
231,340,12634,1,0,0:0:0:0:
113,318,12950,6,0,P|95:262|234:121,1,280,0|0,0:0|0:0,0:0:0:0:
347,133,13897,1,0,0:0:0:0:
431,223,14213,2,0,L|289:234,1,140,2|0,0:0|0:0,0:0:0:0:
159,252,14845,2,0,P|120:235|133:140,1,140,2|2,0:0|0:0,0:0:0:0:
310,70,15476,6,0,P|376:105|311:262,1,280,4|0,0:0|0:0,0:0:0:0:
192,280,16424,1,0,0:0:0:0:
325,324,16739,2,0,P|392:305|336:154,1,280,0|0,0:0|0:0,0:0:0:0:
210,162,17687,1,0,0:0:0:0:
90,188,18003,6,0,P|52:246|183:365,1,280,2|2,0:0|0:0,0:0:0:0:
402,298,19266,6,0,L|388:172,1,125.999996154785,8|4,0:3|0:3,0:0:0:0:
326,158,19739,1,0,0:0:0:0:
264,145,19897,2,0,L|138:139,1,125.999996154785,8|8,0:3|0:0,0:0:0:0:
301,202,20529,5,4,0:0:0:0:
311,130,20687,1,8,0:0:0:0:
138,65,21003,1,8,0:0:0:0:
143,136,21161,1,0,0:0:0:0:
278,29,21476,1,0,0:0:0:0:
434,53,21792,5,0,0:0:0:0:
446,119,21950,1,8,0:0:0:0:
308,320,22266,1,8,0:0:0:0:
318,254,22424,1,0,0:0:0:0:
394,231,22582,2,0,L|456:246,2,62.9999980773926,14|14|14,0:0|0:0|0:0,0:0:0:0:
318,254,23055,5,4,0:0:0:0:
255,247,23212,1,8,0:0:0:0:
136,218,23529,1,8,0:0:0:0:
146,151,23686,1,0,0:0:0:0:
282,97,24003,1,0,0:0:0:0:
109,61,24319,5,0,0:0:0:0:
99,126,24476,1,8,0:0:0:0:
235,283,24793,1,8,0:0:0:0:
172,274,24950,1,0,0:0:0:0:
109,265,25108,2,0,L|47:280,2,62.9999980773926,14|14|14,0:0|0:0|0:0,0:0:0:0:
172,274,25582,5,4,0:0:0:0:
235,283,25739,1,8,0:0:0:0:
359,264,26055,1,8,0:0:0:0:
363,201,26212,1,0,0:0:0:0:
237,98,26529,1,0,0:0:0:0:
111,110,26846,5,0,0:0:0:0:
106,172,27003,1,8,0:0:0:0:
239,218,27318,1,8,0:0:0:0:
302,227,27475,1,0,0:0:0:0:
365,236,27633,2,0,L|427:221,2,62.9999980773926,14|14|14,0:0|0:0|0:0,0:0:0:0:
302,227,28108,5,4,0:0:0:0:
239,218,28265,1,8,0:0:0:0:
114,197,28582,1,8,0:0:0:0:
111,134,28739,1,0,0:0:0:0:
245,94,29055,1,0,0:0:0:0:
105,330,29371,5,0,0:0:0:0:
168,321,29528,1,8,0:0:0:0:
304,276,29845,1,8,0:0:0:0:
307,213,30002,1,0,0:0:0:0:
233,182,30161,2,0,L|167:189,2,62.9999980773926,10|0|10,0:0|0:0|0:0,0:0:0:0:
311,157,30634,5,6,0:0:0:0:
51,100,31266,1,6,0:0:0:0:
311,157,31897,2,0,L|325:289,1,125.999996154785,6|8,0:0|0:0,0:0:0:0:
159,336,32529,2,0,L|145:210,1,125.999996154785,8|8,0:3|0:0,0:0:0:0:
310,47,33161,6,0,L|482:269,2,280,4|0|0,0:0|0:0|0:0,0:0:0:0:
152,50,34739,2,0,L|117:187,1,140,0|0,0:0|0:0,0:0:0:0:
329,358,35687,6,0,P|405:330|327:198,1,280,0|0,0:0|0:0,0:0:0:0:
206,216,36634,1,0,0:0:0:0:
102,240,36950,6,0,L|244:232,1,140,4|0,0:0|0:0,0:0:0:0:
394,224,37582,2,0,P|418:170|281:42,1,280,0|4,0:0|0:0,0:0:0:0:
183,78,38529,5,0,0:0:0:0:
90,129,38845,2,0,L|74:268,1,140
234,303,39476,6,0,L|372:286,1,140,0|0,0:0|0:0,0:0:0:0:
219,245,40108,2,0,P|161:214|232:59,1,280,0|6,0:0|0:0,0:0:0:0:
401,88,41055,6,0,L|280:160,2,140,8|6|8,0:0|0:0|0:0,0:0:0:0:
241,343,42003,2,0,L|230:197,1,140,6|8,0:0|0:0,0:0:0:0:
401,88,42634,2,0,L|255:76,1,140,8|8,0:0|0:0,0:0:0:0:
103,90,43266,6,0,P|46:125|99:298,1,280,4|0,0:0|0:0,0:0:0:0:
279,293,44529,2,0,L|427:143,2,210,0|8|0,0:0|0:0|0:0,0:0:0:0:
142,297,45792,6,0,L|26:118,2,210,4|8|0,0:0|0:0|0:0,0:0:0:0:
279,293,47055,2,0,L|427:143,2,210,0|8|0,0:0|0:0|0:0,0:0:0:0:
142,297,48318,6,0,P|86:255|156:93,1,280,4|0,0:0|0:0,0:0:0:0:
258,80,49266,1,0,0:0:0:0:
366,62,49582,2,0,P|412:88|401:166,1,140,0|0,0:0|0:0,0:0:0:0:
257,251,50213,2,0,L|136:324,1,140,0|0,0:0|0:0,0:0:0:0:
295,352,50845,6,0,L|288:206,1,140,4|0,0:0|0:0,0:0:0:0:
136,197,51476,2,0,L|143:51,1,140,0|0,0:0|0:0,0:0:0:0:
297,27,52108,6,0,P|375:56|355:224,1,280,8|12,0:0|0:3,0:0:0:0:
248,247,53055,1,8,0:0:0:0:
141,262,53371,6,0,L|24:109,2,188.999994232178,4|0|8,0:0|0:0|0:0,0:0:0:0:
248,247,54634,2,0,L|262:114,1,125.999996154785,0|8,0:0|0:0,0:0:0:0:
130,61,55266,2,0,L|247:117,1,125.999996154785,0|8,0:0|0:0,0:0:0:0:
391,160,55897,5,6,0:0:0:0:
254,310,56213,1,8,0:0:0:0:
248,247,56370,1,8,0:0:0:0:
243,184,56528,1,2,0:0:0:0:
391,160,56845,1,10,0:0:0:0:
243,184,57161,5,6,0:0:0:0:
114,207,57476,1,8,0:0:0:0:
109,270,57634,1,8,0:0:0:0:
103,333,57791,1,0,0:0:0:0:
243,184,58108,1,8,0:0:0:0:
114,207,58424,6,0,L|30:113,2,125.999996154785,4|8|0,0:0|0:0|0:0,0:0:0:0:
243,184,59371,2,0,P|302:215|237:356,1,251.999992309571,8|8,0:0|0:0,0:0:0:0:
114,207,60318,2,0,L|198:113,1,125.999996154785,0|8,0:0|0:0,0:0:0:0:
328,82,60950,5,2,0:0:0:0:
443,99,61266,1,8,0:0:0:0:
448,161,61423,1,8,0:0:0:0:
454,224,61581,1,2,0:0:0:0:
333,232,61897,1,10,0:0:0:0:
190,249,62213,5,4,0:3:0:0:
185,311,62370,1,0,0:0:0:0:
179,374,62528,1,8,0:0:0:0:
322,357,62845,1,8,0:0:0:0:
328,294,63003,1,8,0:0:0:0:
333,232,63160,1,8,0:0:0:0:
179,116,63476,6,0,L|86:210,2,125.999996154785,4|8|0,0:0|0:0|0:0,0:0:0:0:
315,84,64424,2,0,L|469:285,2,251.999992309571,8|8|8,0:0|0:0|0:0,0:0:0:0:
179,116,66003,6,0,L|158:250,1,125.999996154785,0|8,0:0|0:0,0:0:0:0:
309,250,66634,2,0,L|330:384,1,125.999996154785,0|8,0:0|0:0,0:0:0:0:
152,345,67266,1,0,0:0:0:0:
71,308,67581,1,12,0:0:0:0:
48,228,67897,1,8,0:0:0:0:
77,144,68213,1,8,0:0:0:0:
151,101,68529,6,0,L|263:164,2,125.999996154785,4|8|0,0:0|0:0|0:0,0:0:0:0:
280,43,69476,2,0,P|340:75|277:215,1,251.999992309571,8|8,0:0|0:0,0:0:0:0:
129,223,70424,2,0,L|117:351,1,125.999996154785,0|8,0:0|0:0,0:0:0:0:
259,358,71055,6,0,L|389:218,2,188.999994232178,6|8|8,0:0|0:0|0:0,0:0:0:0:
117,348,72318,1,14,0:0:0:0:
352,95,72950,1,2,2:1:0:0:
135,98,73582,6,0,L|124:225,1,125.999996154785,4|8,0:0|0:0,0:0:0:0:
261,244,74213,2,0,L|271:118,1,125.999996154785,0|8,0:0|0:0,0:0:0:0:
135,98,74845,5,0,0:0:0:0:
271,118,75161,1,8,0:0:0:0:
408,94,75476,1,0,0:0:0:0:
271,118,75792,1,8,0:0:0:0:
417,219,76108,6,0,L|407:93,1,125.999996154785,0|8,0:0|0:0,0:0:0:0:
271,118,76739,2,0,L|281:243,1,125.999996154785,0|8,0:0|0:0,0:0:0:0:
417,219,77371,2,0,P|456:188|377:46,1,251.999992309571,2|0,0:0|2:0,0:0:0:0:
143,76,78634,6,0,L|129:205,1,125.999996154785,4|8,0:0|0:0,0:0:0:0:
265,232,79266,1,0,0:0:0:0:
129,201,79582,1,8,0:0:0:0:
265,232,79897,6,0,L|278:106,1,125.999996154785,0|8,0:0|0:0,0:0:0:0:
419,303,80529,2,0,L|405:177,1,125.999996154785,0|8,0:0|0:0,0:0:0:0:
265,232,81161,6,0,P|206:207|282:75,1,251.999992309571,8|8,0:0|0:3,0:0:0:0:
466,87,82424,2,0,L|481:343,1,251.999992309571,4|0,0:0|0:0,0:0:0:0:
250,324,83687,6,0,L|264:72,1,251.999992309571,4|0,0:0|3:0,0:0:0:0:
456,44,84950,2,0,P|488:113|247:384,1,503.999984619141,8|4,0:0|0:0,0:0:0:0:
27,324,86845,1,0,3:0:0:0:
255,271,87476,6,0,L|265:138,1,125.999996154785,4|8,0:0|0:0,0:0:0:0:
115,35,88108,2,0,L|206:127,1,125.999996154785,8|8,0:0|0:0,0:0:0:0:
339,187,88739,6,0,L|429:301,3,140,6|8|0|8,0:0|0:0|0:0|0:0,0:0:0:0:
256,188,90003,2,0,L|166:302,3,140,2|8|0|8,0:0|0:0|0:0|0:0,0:0:0:0:
319,318,91266,6,0,L|331:165,1,140,14|8,0:0|0:0,0:0:0:0:
162,41,91897,2,0,L|172:180,1,140,8|8,0:0|0:0,0:0:0:0:
319,318,92529,6,0,L|331:165,1,140,4|8,0:3|0:0,0:0:0:0:
464,168,93161,2,0,L|454:29,1,140,8|8,0:0|0:0,0:0:0:0:
287,45,93792,1,4,0:0:0:0:
151,65,95055,5,4,0:3:0:0:
101,87,95212,1,8,0:0:0:0:
80,138,95370,1,8,0:0:0:0:
101,188,95528,1,8,0:0:0:0:
152,209,95686,1,8,0:0:0:0:
260,242,96003,1,0,3:0:0:0:
371,262,96318,6,0,L|488:109,2,188.999994232178,4|0|8,0:0|0:0|0:0,0:0:0:0:
264,247,97581,2,0,L|162:167,1,125.999996154785,0|8,0:0|0:0,0:0:0:0:
304,33,98213,2,0,L|317:158,1,125.999996154785,0|8,0:0|0:0,0:0:0:0:
158,156,98844,5,2,0:0:0:0:
295,306,99160,1,8,0:0:0:0:
301,243,99317,1,0,0:0:0:0:
306,180,99475,1,2,0:0:0:0:
158,156,99792,1,10,0:0:0:0:
306,180,100108,5,2,0:0:0:0:
435,203,100423,1,8,0:0:0:0:
440,266,100581,1,8,0:0:0:0:
446,329,100738,1,0,0:0:0:0:
306,180,101055,1,8,0:0:0:0:
174,155,101371,6,0,L|90:61,2,125.999996154785,4|8|0,0:0|0:0|0:0,0:0:0:0:
306,180,102318,2,0,P|365:211|300:352,1,251.999992309571,8|8,0:0|0:0,0:0:0:0:
159,352,103265,2,0,L|243:258,1,125.999996154785,0|8,0:0|0:0,0:0:0:0:
328,82,103897,5,2,0:0:0:0:
443,99,104213,1,8,0:0:0:0:
448,161,104370,1,8,0:0:0:0:
454,224,104528,1,2,0:0:0:0:
333,232,104844,1,10,0:0:0:0:
190,249,105160,5,4,0:3:0:0:
185,311,105317,1,0,0:0:0:0:
179,374,105475,1,8,0:0:0:0:
322,357,105792,1,8,0:0:0:0:
328,294,105950,1,8,0:0:0:0:
333,232,106107,1,8,0:0:0:0:
179,116,106423,6,0,L|86:210,2,125.999996154785,4|8|0,0:0|0:0|0:0,0:0:0:0:
315,84,107371,2,0,L|469:285,2,251.999992309571,8|8|8,0:0|0:0|0:0,0:0:0:0:
179,116,108950,6,0,L|158:250,1,125.999996154785,0|8,0:0|0:0,0:0:0:0:
309,250,109581,2,0,L|330:384,1,125.999996154785,0|8,0:0|0:0,0:0:0:0:
152,345,110213,2,0,L|237:247,1,125.999996154785,8|8,0:0|0:0,0:0:0:0:
374,191,110845,2,0,L|289:93,1,125.999996154785,8|8,0:0|0:0,0:0:0:0:
151,101,111476,6,0,L|263:164,2,125.999996154785,4|8|0,0:0|0:0|0:0,0:0:0:0:
280,43,112423,2,0,P|340:75|277:215,1,251.999992309571,8|8,0:0|0:0,0:0:0:0:
129,223,113371,2,0,L|117:351,1,125.999996154785,0|8,0:0|0:0,0:0:0:0:
259,358,114003,6,0,L|265:224,1,125.999996154785,14|8,0:0|0:0,0:0:0:0:
413,213,114634,2,0,L|401:82,1,125.999996154785,10|8,0:0|0:0,0:0:0:0:
253,44,115266,2,0,P|190:68|246:205,1,251.999992309571,10|0,0:0|0:0,0:0:0:0:
349,213,116213,1,8,0:0:0:0:
453,218,116529,1,4,0:0:0:0:
