osu file format v14

[General]
AudioFilename: audio.mp3
AudioLeadIn: 0
PreviewTime: 90265
Countdown: 0
SampleSet: None
StackLeniency: 0.7
Mode: 2
LetterboxInBreaks: 0
WidescreenStoryboard: 1

[Editor]
Bookmarks: 7378,122305
DistanceSpacing: 1.2
BeatDivisor: 4
GridSize: 32
TimelineZoom: 2.8

[Metadata]
Title:The Divine Zero
TitleUnicode:The Divine Zero
Artist:Pierce The Veil
ArtistUnicode:Pierce The Veil
Creator:AJamez
Version:Salad
Source:
Tags:pishifat ptv divinezero misadventures post hardcore alternative rock metal emo
BeatmapID:2048025
BeatmapSetID:835135

[Difficulty]
HPDrainRate:4
CircleSize:3
OverallDifficulty:7.2
ApproachRate:7.2
SliderMultiplier:1.2
SliderTickRate:1

[Events]
//Background and Video events
0,0,"Glowing-Highway.jpg",0,0
//Break Periods
//Storyboard Layer 0 (Background)
//Storyboard Layer 1 (Fail)
//Storyboard Layer 2 (Pass)
//Storyboard Layer 3 (Foreground)
//Storyboard Sound Samples

[TimingPoints]
7379,220.588235294118,4,2,1,40,1,0
7379,-133.333333333333,4,2,1,40,0,0
7709,-133.333333333333,4,2,1,40,0,0
7930,-133.333333333333,4,2,1,40,0,0
10908,-133.333333333333,4,2,1,70,0,0
11349,-133.333333333333,4,2,1,40,0,0
14437,-133.333333333333,4,2,1,70,0,0
14823,-133.333333333333,4,2,1,40,0,0
17967,-133.333333333333,4,2,1,70,0,0
21496,-133.333333333333,4,2,1,80,0,0
22158,-111.111111111111,4,2,1,70,0,0
25026,-111.111111111111,4,2,1,80,0,0
25687,-111.111111111111,4,2,1,70,0,0
28555,-111.111111111111,4,2,1,80,0,0
29217,-111.111111111111,4,2,1,70,0,0
32084,-111.111111111111,4,2,1,80,0,0
35614,-111.111111111111,4,2,1,80,0,0
48849,-111.111111111111,4,2,1,75,0,0
49731,-125,4,2,1,70,0,1
56570,-125,4,2,1,70,0,1
56790,-125,4,2,1,70,0,1
63849,-142.857142857143,4,2,1,70,0,0
64290,-142.857142857143,4,2,1,50,0,0
66496,-142.857142857143,4,2,1,60,0,0
67379,-125,4,2,1,80,0,0
67985,-125,4,2,1,70,0,0
71570,-125,4,2,1,30,0,0
73114,-125,4,2,1,35,0,0
73334,-125,4,2,1,40,0,0
73555,-125,4,2,1,45,0,0
73776,-125,4,2,1,50,0,0
73996,-125,4,2,1,60,0,0
74217,-125,4,2,1,70,0,0
74437,-125,4,2,1,85,0,0
74768,-125,4,2,1,85,0,0
76202,-125,4,2,1,85,0,0
77912,-125,4,2,1,44,0,0
77967,-125,4,2,1,70,0,0
78408,-125,4,2,1,50,0,0
78849,-125,4,2,1,50,0,0
80614,-125,4,2,1,60,0,0
81276,-125,4,2,1,60,0,0
81496,-125,4,2,1,70,0,0
81937,-125,4,2,1,50,0,0
82379,-125,4,2,1,50,0,0
83261,-125,4,2,1,60,0,0
84364,-125,4,2,1,60,0,0
85026,-125,4,2,1,80,0,0
85687,-125,4,2,1,70,0,0
88334,-125,4,2,1,70,0,0
88555,-125,4,2,1,75,0,0
91643,-125,4,2,1,80,0,0
92029,-125,4,2,1,5,0,0
92084,-125,4,2,1,70,0,1
98923,-125,4,2,1,70,0,1
99143,-125,4,2,1,70,0,1
105320,-125,4,2,1,70,0,1
106202,-125,4,2,1,70,0,0
122415,-125,4,2,1,50,0,0
122967,-125,4,2,1,40,0,0
123849,-125,4,2,1,30,0,0
124731,-125,4,2,1,20,0,0
125614,-125,4,2,1,15,0,0
126496,-125,4,2,1,12,0,0
127379,-125,4,2,1,10,0,0
128261,-125,4,2,1,5,0,0
129143,-125,4,2,1,15,0,0

[Colours]
Combo1 : 255,255,128
Combo2 : 138,142,49
Combo3 : 255,128,128
Combo4 : 252,136,67

[HitObjects]
403,261,7378,6,0,L|429:187,2,60
229,309,8040,1,0,0:0:0:0:
132,279,8261,2,0,L|122:175,1,90.0000034332277
234,153,8702,2,0,L|249:57,1,90.0000034332277
385,29,9143,2,0,L|256:13,2,112.500004291535
262,176,10026,6,0,L|163:195,1,90.0000034332277
47,285,10467,2,0,L|51:383,1,90.0000034332277
254,359,10908,6,0,L|304:349,2,45.0000017166138
436,298,11570,1,0,0:0:0:0:
325,245,11790,2,0,L|314:147,1,90.0000034332277
190,131,12231,2,0,L|182:25,1,90.0000034332277
36,26,12673,2,0,L|130:20,1,90.0000034332277
244,168,13114,2,0,L|146:162,1,90.0000034332277
286,276,13555,2,0,L|381:281,2,90.0000034332277
180,313,14217,1,0,0:0:0:0:
379,371,14437,6,0,L|441:364,1,45.0000017166138
479,347,14658,2,0,P|461:296|342:237,1,180.000006866455
230,228,15320,1,0,0:0:0:0:
368,184,15540,2,0,P|374:73|330:17,1,180.000006866455
204,20,16202,6,0,L|104:30,2,90.0000034332277
101,125,16864,1,0,0:0:0:0:
237,142,17084,2,0,L|248:238,1,90.0000034332277
386,333,17526,2,0,L|292:339,1,90.0000034332277
84,320,17967,6,0,L|72:264,3,45.0000017166138
259,227,18629,5,0,0:0:0:0:
283,190,18739,1,0,0:0:0:0:
274,147,18849,1,0,0:0:0:0:
237,124,18959,1,0,0:0:0:0:
194,135,19070,1,0,0:0:0:0:
388,95,19290,1,0,0:0:0:0:
454,118,19401,2,0,L|466:180,1,45.0000017166138
254,263,19731,5,0,0:0:0:0:
40,248,21496,6,0,L|176:231,1,135.000005149841
28,137,22048,2,0,L|84:122,1,45.0000017166138
301,97,22379,2,0,L|308:28,2,53.9999983520508
152,206,22820,2,0,L|105:240,2,53.9999983520508
297,247,23261,6,0,L|305:324,1,53.9999983520508
447,355,23592,1,0,0:0:0:0:
385,368,23702,2,0,L|257:378,1,107.999996704102
144,366,24143,2,0,P|163:283|196:266,1,107.999996704102
310,222,24584,1,0,0:0:0:0:
329,171,24694,1,0,0:0:0:0:
337,118,24804,1,0,0:0:0:0:
104,59,25026,6,0,P|41:153|51:215,1,161.999995056153
190,222,25577,1,0,0:0:0:0:
136,252,25687,2,0,L|20:268,1,107.999996704102
142,344,26129,2,0,L|270:343,1,107.999996704102
259,297,26459,2,0,L|274:222,1,53.9999983520508
423,171,26790,6,0,L|244:132,2,161.999995056153
316,33,27673,2,0,L|189:14,1,107.999996704102
338,120,28114,2,0,L|452:112,1,107.999996704102
229,243,28555,6,0,L|162:238,1,53.9999983520508
112,232,28776,1,0,0:0:0:0:
21,188,29106,1,0,0:0:0:0:
26,124,29217,2,0,L|154:100,1,107.999996704102
270,91,29658,1,0,0:0:0:0:
463,104,30099,5,0,0:0:0:0:
336,189,30320,2,0,L|325:252,1,53.9999983520508
306,277,30540,2,0,L|188:289,1,107.999996704102
320,355,30981,1,0,0:0:0:0:
165,373,31202,5,0,0:0:0:0:
111,366,31312,1,0,0:0:0:0:
61,345,31422,1,0,0:0:0:0:
197,284,31643,1,0,0:0:0:0:
143,277,31753,1,0,0:0:0:0:
93,256,31863,1,0,0:0:0:0:
324,207,32084,5,0,0:0:0:0:
435,167,32305,2,0,L|309:146,1,107.999996704102
387,129,32636,1,0,0:0:0:0:
454,117,32746,2,0,P|459:62|428:14,1,107.999996704102
294,58,33187,1,0,0:0:0:0:
421,262,33408,2,0,L|316:234,1,107.999996704102
87,320,33849,6,0,L|40:215,2,107.999996704102
220,345,34511,2,0,L|276:348,1,53.9999983520508
333,345,34731,2,0,P|343:264|325:229,1,107.999996704102
203,183,35173,1,0,0:0:0:0:
150,171,35283,1,0,0:0:0:0:
102,147,35393,1,0,0:0:0:0:
317,101,35614,6,0,L|445:87,2,107.999996704102
203,159,36276,1,0,0:0:0:0:
314,224,36496,2,0,L|445:242,1,107.999996704102
331,340,36937,2,0,L|444:353,1,107.999996704102
218,345,37379,6,0,L|102:336,1,107.999996704102
228,239,37820,2,0,L|240:177,2,53.9999983520508
119,157,38261,1,0,0:0:0:0:
247,71,38481,2,0,L|177:62,1,53.9999983520508
44,19,38812,2,0,L|105:11,1,53.9999983520508
316,129,39143,6,0,L|343:260,1,107.999996704102
453,266,39584,1,0,0:0:0:0:
446,319,39694,1,0,0:0:0:0:
440,373,39804,1,0,0:0:0:0:
319,373,40026,2,0,L|187:351,1,107.999996704102
92,328,40467,2,0,L|83:196,1,107.999996704102
230,160,40908,6,0,L|99:135,2,107.999996704102
286,169,41459,2,0,L|354:171,1,53.9999983520508
221,263,41790,1,0,0:0:0:0:
340,291,42011,6,0,L|409:307,1,53.9999983520508
340,351,42231,1,0,0:0:0:0:
286,358,42341,1,0,0:0:0:0:
233,365,42451,1,0,0:0:0:0:
22,208,42673,6,0,L|141:189,1,107.999996704102
17,115,43114,1,0,0:0:0:0:
71,88,43224,1,0,0:0:0:0:
132,62,43334,1,0,0:0:0:0:
242,103,43555,2,0,L|259:218,1,107.999996704102
385,247,43996,1,0,0:0:0:0:
378,300,44106,1,0,0:0:0:0:
371,354,44216,1,0,0:0:0:0:
240,344,44437,5,0,0:0:0:0:
355,358,44658,1,0,0:0:0:0:
468,340,44879,1,0,0:0:0:0:
453,289,44989,1,0,0:0:0:0:
411,256,45099,1,0,0:0:0:0:
273,234,45320,2,0,L|266:123,1,107.999996704102
380,84,45761,2,0,L|493:77,1,107.999996704102
279,22,46202,6,0,L|164:20,2,107.999996704102
190,128,46864,1,0,0:0:0:0:
77,175,47084,2,0,L|58:295,1,107.999996704102
177,354,47526,2,0,L|62:372,1,107.999996704102
279,301,47967,6,0,L|390:321,2,107.999996704102
172,278,48629,1,0,0:0:0:0:
290,209,48849,5,0,0:0:0:0:
343,206,48959,1,0,0:0:0:0:
384,172,49069,1,0,0:0:0:0:
397,121,49179,1,0,0:0:0:0:
377,72,49290,1,0,0:0:0:0:
331,44,49400,1,0,0:0:0:0:
278,49,49510,1,0,0:0:0:0:
36,130,49732,6,0,P|71:188|156:215,1,144
192,218,50173,2,0,L|204:318,1,96
92,346,50614,2,0,P|35:329|51:248,1,144
92,228,51055,2,0,L|146:222,1,48
326,191,51386,1,0,0:0:0:0:
383,177,51496,6,0,P|384:133|305:70,1,144
257,56,51937,2,0,L|154:75,1,96
370,155,52379,2,0,P|412:168|448:267,1,144
401,273,52820,1,0,0:0:0:0:
346,286,52930,1,0,0:0:0:0:
154,300,53151,1,0,0:0:0:0:
100,293,53261,6,0,P|140:242|231:225,1,144
270,201,53702,2,0,L|166:179,1,96
69,90,54143,2,0,L|170:75,1,96
274,75,54584,2,0,L|288:133,1,48
173,195,54915,1,0,0:0:0:0:
115,209,55026,6,0,P|73:220|43:318,1,144
90,322,55467,2,0,L|186:329,1,96
402,284,55908,5,0,0:0:0:0:
277,238,56129,1,0,0:0:0:0:
401,173,56349,2,0,L|500:142,1,96
278,103,56790,6,0,P|201:106|108:20,1,192
223,82,57452,2,0,L|217:146,1,48
200,167,57673,2,0,P|159:189|55:182,2,144
417,218,58555,6,0,P|406:268|275:311,1,192
394,359,59217,1,0,0:0:0:0:
165,369,59437,2,0,L|153:257,1,96
201,277,59768,1,0,0:0:0:0:
238,248,59878,1,0,0:0:0:0:
245,202,59988,1,0,0:0:0:0:
218,163,60099,1,0,0:0:0:0:
34,113,60320,6,0,L|54:-2,1,96
240,9,60761,2,0,L|357:26,1,96
445,149,61202,2,0,L|341:155,2,96
366,246,61864,1,0,0:0:0:0:
251,282,62084,2,0,P|318:305|258:391,1,192
177,375,62746,1,0,0:0:0:0:
65,342,62967,6,0,L|40:234,1,96
152,208,63408,2,0,L|183:108,1,96
377,84,63849,5,0,0:0:0:0:
366,43,63959,1,0,0:0:0:0:
336,14,64069,1,0,0:0:0:0:
296,4,64179,1,0,0:0:0:0:
32,29,64952,5,0,0:0:0:0:
106,103,65173,1,0,0:0:0:0:
197,136,65393,2,0,L|208:189,1,41.9999987182618
61,266,65834,2,0,L|57:364,1,83.9999974365235
104,373,66165,1,0,0:0:0:0:
239,311,66496,6,0,L|155:291,1,83.9999974365235
174,248,66827,1,0,0:0:0:0:
209,218,66937,1,0,0:0:0:0:
253,203,67047,1,0,0:0:0:0:
293,197,67158,1,0,0:0:0:0:
495,155,67379,5,0,0:0:0:0:
399,115,67599,2,0,P|336:100|411:48,1,192
236,29,68481,2,0,L|38:66,1,192
157,154,69143,1,0,0:0:0:0:
269,218,69364,2,0,L|473:237,1,192
366,295,70026,1,0,0:0:0:0:
259,337,70246,2,0,L|150:324,2,96
61,269,70908,6,0,L|25:237,2,48
141,286,71239,1,0,0:0:0:0:
256,192,71570,12,0,73996,0:0:0:0:
437,300,74437,6,0,P|437:231|363:184,1,144
