osu file format v14

[General]
AudioFilename: audio.mp3
AudioLeadIn: 0
PreviewTime: 90265
Countdown: 0
SampleSet: Soft
StackLeniency: 0.7
Mode: 2
LetterboxInBreaks: 0
WidescreenStoryboard: 1

[Editor]
Bookmarks: 7378,122305
DistanceSpacing: 1.2
BeatDivisor: 4
GridSize: 32
TimelineZoom: 2.8

[Metadata]
Title:The Divine Zero
TitleUnicode:The Divine Zero
Artist:Pierce The Veil
ArtistUnicode:Pierce The Veil
Creator:AJamez
Version:Rain
Source:
Tags:pishifat ptv divinezero misadventures post hardcore alternative rock metal emo
BeatmapID:1762377
BeatmapSetID:835135

[Difficulty]
HPDrainRate:6
CircleSize:3.6
OverallDifficulty:9.2
ApproachRate:9.2
SliderMultiplier:1.7
SliderTickRate:1

[Events]
//Background and Video events
0,0,"Glowing-Highway.jpg",0,0
//Break Periods
//Storyboard Layer 0 (Background)
//Storyboard Layer 1 (Fail)
//Storyboard Layer 2 (Pass)
//Storyboard Layer 3 (Foreground)
//Storyboard Sound Samples

[TimingPoints]
7379,220.588235294118,4,2,1,40,1,0
7379,-133.333333333333,4,2,1,40,0,0
7709,-133.333333333333,4,2,1,40,0,0
7930,-133.333333333333,4,2,1,40,0,0
10908,-133.333333333333,4,2,1,70,0,0
11349,-133.333333333333,4,2,1,40,0,0
14437,-133.333333333333,4,2,1,70,0,0
14823,-133.333333333333,4,2,1,40,0,0
17967,-133.333333333333,4,2,1,70,0,0
21496,-133.333333333333,4,2,1,80,0,0
22158,-100,4,2,1,70,0,0
25026,-100,4,2,1,80,0,0
25687,-100,4,2,1,70,0,0
28555,-100,4,2,1,80,0,0
29217,-100,4,2,1,70,0,0
32084,-100,4,2,1,80,0,0
35614,-100,4,2,1,80,0,0
48849,-100,4,2,1,75,0,0
49731,-125,4,2,1,70,0,1
55908,-66.6666666666667,4,2,1,70,0,1
56570,-125,4,2,1,70,0,1
56790,-125,4,2,1,70,0,1
63849,-142.857142857143,4,2,1,70,0,0
64290,-142.857142857143,4,2,1,50,0,0
66496,-142.857142857143,4,2,1,60,0,0
67379,-125,4,2,1,80,0,0
67985,-125,4,2,1,70,0,0
71570,-125,4,2,1,30,0,0
73114,-125,4,2,1,35,0,0
73334,-125,4,2,1,40,0,0
73555,-125,4,2,1,45,0,0
73776,-125,4,2,1,50,0,0
73996,-125,4,2,1,60,0,0
74217,-125,4,2,1,70,0,0
74437,-100,4,2,1,85,0,0
74768,-100,4,2,1,85,0,0
76202,-100,4,2,1,85,0,0
77526,-66.6666666666667,4,2,1,85,0,0
77912,-100,4,2,1,44,0,0
77967,-100,4,2,1,70,0,0
78408,-100,4,2,1,50,0,0
78849,-100,4,2,1,50,0,0
80614,-100,4,2,1,60,0,0
81276,-100,4,2,1,60,0,0
81496,-100,4,2,1,70,0,0
81937,-100,4,2,1,50,0,0
82379,-100,4,2,1,50,0,0
83261,-100,4,2,1,60,0,0
84364,-100,4,2,1,60,0,0
85026,-100,4,2,1,80,0,0
85687,-100,4,2,1,70,0,0
88334,-100,4,2,1,70,0,0
88555,-100,4,2,1,75,0,0
91643,-100,4,2,1,80,0,0
92029,-100,4,2,1,5,0,0
92084,-125,4,2,1,70,0,1
98923,-125,4,2,1,70,0,1
99143,-125,4,2,1,70,0,1
105320,-125,4,2,1,70,0,1
106202,-100,4,2,1,70,0,0
122415,-100,4,2,1,50,0,0
122967,-100,4,2,1,40,0,0
123849,-100,4,2,1,30,0,0
124731,-100,4,2,1,20,0,0
125614,-100,4,2,1,15,0,0
126496,-100,4,2,1,12,0,0
127379,-100,4,2,1,10,0,0
128261,-100,4,2,1,5,0,0
129143,-100,4,2,1,15,0,0

[Colours]
Combo1 : 255,255,128
Combo2 : 138,142,49
Combo3 : 255,128,128
Combo4 : 252,136,67

[HitObjects]
95,384,6496,5,2,0:3:0:0:
28,231,6716,1,2,0:3:0:0:
85,75,6937,1,2,0:3:0:0:
233,1,7157,1,2,0:3:0:0:
479,125,7378,6,0,L|461:222,1,85,0|0,1:0|1:0,0:0:0:0:
337,227,7599,2,0,L|351:312,1,63.7500024318696,0|0,1:0|1:0,0:0:0:0:
150,355,8040,1,0,0:0:0:0:
353,131,8261,2,0,L|217:102,1,127.500004863739,0|0,0:0|0:0,0:0:0:0:
24,244,8702,2,0,L|166:217,1,127.500004863739,0|0,0:0|0:0,0:0:0:0:
372,359,9143,6,0,P|369:281|347:226,1,127.500004863739,0|0,0:0|0:0,0:0:0:0:
232,190,9474,2,0,P|212:132|255:60,1,127.500004863739,0|0,0:0|0:0,0:0:0:0:
348,44,9805,1,0,0:0:0:0:
117,202,10026,1,0,0:0:0:0:
181,309,10246,1,0,0:0:0:0:
294,363,10467,1,0,0:0:0:0:
419,343,10687,1,0,0:0:0:0:
197,183,10908,6,0,L|166:106,1,63.7500024318696,0|0,1:0|1:0,0:0:0:0:
281,98,11129,2,0,L|300:14,1,63.7500024318696,0|0,1:0|1:0,0:0:0:0:
28,48,11570,1,0,0:0:0:0:
233,198,11790,2,0,L|264:344,1,127.500004863739,0|0,0:0|0:0,0:0:0:0:
468,270,12231,2,0,L|445:404,1,127.500004863739,0|0,0:0|0:0,0:0:0:0:
259,372,12673,5,0,0:0:0:0:
135,358,12893,1,0,0:0:0:0:
60,259,13114,1,0,0:0:0:0:
78,136,13334,1,0,0:0:0:0:
270,133,13555,2,0,P|279:50|254:5,1,127.500004863739,0|0,0:0|0:0,0:0:0:0:
78,136,13996,2,0,P|69:219|94:264,1,127.500004863739,0|0,0:0|0:0,0:0:0:0:
396,264,14437,5,0,1:0:0:0:
347,222,14547,1,0,1:0:0:0:
291,192,14657,1,0,1:0:0:0:
230,175,14768,2,0,L|99:158,1,127.500004863739,0|0,1:0|0:0,0:0:0:0:
377,132,15320,2,0,L|320:85,1,63.7500024318696,0|0,0:0|0:0,0:0:0:0:
269,69,15540,2,0,L|125:51,1,127.500004863739,0|0,0:0|0:0,0:0:0:0:
288,262,15981,1,0,0:0:0:0:
468,333,16202,5,0,0:0:0:0:
360,278,16422,1,0,0:0:0:0:
367,158,16643,1,0,0:0:0:0:
479,115,16863,1,0,0:0:0:0:
295,84,17084,2,0,L|152:63,1,127.500004863739,0|0,0:0|0:0,0:0:0:0:
351,341,17526,2,0,L|493:318,1,127.500004863739,0|0,0:0|0:0,0:0:0:0:
175,271,17967,5,0,1:0:0:0:
224,229,18077,1,0,1:0:0:0:
280,199,18187,1,0,1:0:0:0:
341,182,18298,2,0,L|472:165,1,127.500004863739,0|0,1:0|0:0,0:0:0:0:
410,111,18629,1,0,1:0:0:0:
336,88,18739,1,0,1:0:0:0:
99,171,18849,6,0,L|15:186,1,63.7500024318696,0|0,1:0|1:0,0:0:0:0:
113,264,19070,2,0,L|246:292,1,127.500004863739,0|8,0:0|1:3,0:0:0:0:
154,354,19400,1,8,0:3:0:0:
237,290,19510,1,4,1:3:0:0:
154,254,19620,1,4,0:3:0:0:
377,55,19731,6,0,P|454:84|464:244,1,255.000009727478,2|0,1:3|0:0,0:0:0:0:
217,332,20614,2,0,L|491:363,1,255.000009727478,0|0,0:0|0:0,0:0:0:0:
31,249,21496,6,0,P|71:177|126:150,1,127.500004863739,4|0,0:0|1:0,0:0:0:0:
239,122,21827,2,0,P|190:75|112:55,1,127.500004863739,4|4,0:3|0:3,0:0:0:0:
46,51,22158,1,0,1:0:0:0:
294,228,22379,1,0,0:0:0:0:
211,249,22489,1,4,0:3:0:0:
129,270,22599,1,0,1:0:0:0:
361,384,22820,5,4,0:3:0:0:
293,340,22930,1,4,0:3:0:0:
303,261,23040,1,0,1:0:0:0:
380,236,23150,1,0,0:0:0:0:
470,221,23261,2,0,L|357:201,2,85,4|4|0,0:3|0:3|1:0,0:0:0:0:
341,119,23592,2,0,P|373:71|486:40,1,170,4|4,0:3|0:3,0:0:0:0:
378,21,23923,1,0,1:0:0:0:
92,184,24143,5,4,0:3:0:0:
174,162,24253,1,4,0:3:0:0:
256,141,24363,1,0,1:0:0:0:
95,73,24584,1,4,0:3:0:0:
189,83,24695,1,4,0:3:0:0:
93,277,24805,2,0,L|83:389,1,85,0|0,1:0|0:0,0:0:0:0:
328,331,25026,6,0,L|426:314,1,85,4|0,0:0|0:0,0:0:0:0:
317,233,25246,2,0,L|153:181,1,170,0|0,1:0|0:0,0:0:0:0:
365,102,25687,1,0,1:0:0:0:
150,92,25908,1,0,0:0:0:0:
141,176,26018,1,4,0:3:0:0:
132,261,26128,1,0,1:0:0:0:
318,326,26349,2,0,L|214:307,1,85,4|4,0:3|0:3,0:0:0:0:
317,233,26570,2,0,L|418:219,1,85,0|0,1:0|0:0,0:0:0:0:
265,153,26790,6,0,P|203:122|192:5,1,170,4|0,0:3|1:0,0:0:0:0:
288,57,27121,2,0,P|350:88|384:198,1,170,4|4,0:3|0:3,0:0:0:0:
465,264,27452,1,0,1:0:0:0:
244,337,27673,2,0,L|75:280,1,170,4|0,0:3|1:0,0:0:0:0:
171,258,28004,1,0,0:0:0:0:
259,239,28114,2,0,L|95:180,1,170,4|0,0:3|0:0,0:0:0:0:
402,118,28555,6,0,L|290:92,1,85,4|0,0:0|0:0,0:0:0:0:
226,88,28776,2,0,L|400:40,1,170,0|0,1:0|0:0,0:0:0:0:
402,118,29106,1,4,0:3:0:0:
171,258,29217,5,0,1:0:0:0:
411,275,29658,1,0,1:0:0:0:
76,378,30099,1,0,1:0:0:0:
248,291,30320,2,0,L|210:202,1,85,4|4,0:3|0:3,0:0:0:0:
155,163,30540,2,0,L|43:122,1,85,0|4,1:0|0:3,0:0:0:0:
165,75,30761,2,0,P|218:97|348:80,1,170,0|0,0:0|1:0,0:0:0:0:
491,226,31202,5,4,0:3:0:0:
408,247,31312,1,4,0:3:0:0:
326,269,31422,1,0,1:0:0:0:
494,91,31643,2,0,L|479:-2,1,85,4|4,0:3|0:3,0:0:0:0:
390,14,31864,1,0,1:0:0:0:
137,228,32084,6,0,L|249:243,1,85,4|0,0:0|0:0,0:0:0:0:
126,315,32305,2,0,P|61:268|89:158,1,170,0|0,1:0|0:0,0:0:0:0:
150,130,32636,1,4,0:3:0:0:
350,149,32746,2,0,P|323:103|182:62,1,170,0|0,1:0|0:0,0:0:0:0:
126,15,33077,1,4,0:3:0:0:
223,15,33187,1,0,1:0:0:0:
413,298,33408,2,0,L|314:289,2,85,4|4|0,0:3|0:3|1:0,0:0:0:0:
48,223,33849,6,0,P|66:277|172:329,1,170,6|0,0:3|1:0,0:0:0:0:
245,259,34180,1,4,0:3:0:0:
139,151,34290,2,0,L|154:51,1,85,4|4,0:3|0:3,0:0:0:0:
264,42,34511,2,0,L|246:-51,1,85,0|0,1:0|0:0,0:0:0:0:
386,95,34731,5,0,1:0:0:0:
311,125,34841,1,0,1:0:0:0:
312,205,34951,1,0,1:0:0:0:
387,233,35061,1,0,1:0:0:0:
472,255,35173,1,0,1:0:0:0:
379,317,35283,1,0,1:0:0:0:
468,343,35393,2,0,L|370:354,1,85,0|0,1:0|1:0,0:0:0:0:
159,340,35614,5,4,0:0:0:0:
324,241,35834,2,0,L|161:191,1,170,0|4,1:0|0:3,0:0:0:0:
381,94,36276,2,0,L|289:77,1,85,0|0,1:0|0:0,0:0:0:0:
203,68,36496,2,0,L|394:35,1,170,4|0,0:3|1:0,0:0:0:0:
297,78,36827,2,0,L|197:92,1,85,4|4,0:3|0:3,0:0:0:0:
306,175,37048,2,0,L|406:189,1,85,4|0,0:3|1:0,0:0:0:0:
76,372,37379,6,0,P|29:328|103:258,1,170,4|0,0:3|1:0,0:0:0:0:
251,241,37820,1,4,0:3:0:0:
166,248,37930,1,4,0:3:0:0:
81,255,38040,2,0,L|179:248,1,85,0|0,1:0|0:0,0:0:0:0:
400,164,38261,6,0,P|383:104|314:4,1,170,4|0,0:3|1:0,0:0:0:0:
430,53,38592,2,0,P|467:86|480:215,1,170,4|0,0:3|0:0,0:0:0:0:
401,266,38923,1,0,1:0:0:0:
489,306,39033,1,0,1:0:0:0:
236,89,39143,5,4,0:0:0:0:
375,135,39364,1,0,1:0:0:0:
170,198,39584,2,0,L|151:283,1,85,4|4,0:3|0:3,0:0:0:0:
244,301,39805,2,0,L|266:405,1,85,0|0,1:0|0:0,0:0:0:0:
139,376,40026,2,0,P|95:358|63:234,1,170,4|0,0:3|1:0,0:0:0:0:
170,200,40356,2,0,P|165:152|55:96,1,170,4|4,0:3|0:3,0:0:0:0:
192,50,40687,1,0,1:0:0:0:
422,185,40908,5,4,0:3:0:0:
281,176,41129,1,0,1:0:0:0:
448,334,41349,1,4,0:3:0:0:
363,346,41459,1,0,0:0:0:0:
279,359,41570,1,0,1:0:0:0:
448,334,41790,6,0,L|286:273,1,170,4|0,0:3|1:0,0:0:0:0:
386,229,42121,1,0,0:0:0:0:
488,196,42231,1,0,1:0:0:0:
384,129,42342,1,0,1:0:0:0:
485,83,42452,1,0,1:0:0:0:
376,29,42562,1,0,1:0:0:0:
138,191,42673,6,0,P|219:192|294:147,1,170,4|0,0:0|1:0,0:0:0:0:
106,86,43114,2,0,L|205:71,1,85,4|4,0:3|0:3,0:0:0:0:
107,283,43334,2,0,L|14:269,1,85,0|0,1:0|0:0,0:0:0:0:
169,194,43555,2,0,P|105:191|18:268,1,170,4|0,0:3|1:0,0:0:0:0:
199,284,43996,2,0,L|190:378,1,85,4|4,0:3|0:3,0:0:0:0:
88,375,44217,1,0,1:0:0:0:
394,369,44437,6,0,P|418:298|334:238,1,170,4|0,0:3|1:0,0:0:0:0:
265,204,44768,1,4,0:3:0:0:
172,185,44879,1,4,0:3:0:0:
354,122,45099,1,0,1:0:0:0:
254,87,45209,1,4,0:3:0:0:
154,78,45320,1,0,0:0:0:0:
383,209,45540,6,0,L|395:306,1,85,0|0,1:0|0:0,0:0:0:0:
306,308,45761,2,0,L|294:396,1,85,4|4,0:3|0:3,0:0:0:0:
208,375,45981,1,0,1:0:0:0:
454,118,46202,6,0,L|277:74,2,170,4|0|4,0:3|1:0|0:3,0:0:0:0:
378,141,46753,1,0,0:0:0:0:
380,221,46863,1,0,1:1:0:0:
456,241,46973,1,0,0:0:0:0:
201,340,47084,5,4,0:3:0:0:
104,309,47195,2,0,P|175:262|278:272,1,170,0|4,0:0|0:3,0:0:0:0:
168,226,47526,2,0,P|117:184|1:168,1,170,4|0,0:3|1:0,0:0:0:0:
118,135,47856,1,0,0:0:0:0:
365,102,47967,6,0,L|466:74,1,85,4|0,0:3|0:0,0:0:0:0:
339,21,48187,2,0,L|227:4,1,85,0|0,1:0|0:0,0:0:0:0:
354,181,48408,2,0,L|365:292,1,85,4|4,0:3|0:3,0:0:0:0:
252,313,48629,2,0,L|151:323,1,85,0|0,1:0|0:0,0:0:0:0:
406,367,48849,6,0,L|345:280,1,85,0|0,1:0|1:0,0:0:0:0:
288,241,49070,2,0,L|194:198,1,85,0|0,1:0|0:0,0:0:0:0:
334,167,49290,2,0,L|252:125,1,85,8|8,0:3|0:3,0:0:0:0:
378,91,49511,2,0,L|291:45,1,85,4|4,0:3|0:3,0:0:0:0:
62,119,49731,6,0,P|95:214|206:282,1,204,4|0,0:1|0:0,0:0:0:0:
304,340,50173,2,0,L|142:360,1,136,0|0,1:0|0:0,0:0:0:0:
481,253,50614,2,0,L|331:217,2,136,2|0|0,0:0|0:0|1:0,0:0:0:0:
402,294,51165,1,4,0:3:0:0:
181,322,51386,1,0,1:0:0:0:
92,293,51496,6,0,L|230:245,1,136,4|0,0:0|0:0,0:0:0:0:
23,170,51937,2,0,P|51:91|101:41,1,136,0|0,1:0|0:0,0:0:0:0:
178,31,52268,1,0,0:0:0:0:
275,115,52379,2,0,L|134:148,1,136,2|0,0:0|0:0,0:0:0:0:
348,228,52820,2,0,L|276:226,1,68,0|4,1:0|0:3,0:0:0:0:
129,278,53151,1,0,1:0:0:0:
363,136,53261,6,0,P|399:93|363:-1,1,136,4|0,0:1|0:0,0:0:0:0:
181,71,53702,2,0,L|257:82,1,68,0|0,1:0|0:0,0:0:0:0:
316,46,53923,2,0,L|171:20,1,136,0|2,0:0|0:0,0:0:0:0:
393,210,54364,2,0,L|253:181,1,136,0|0,0:0|1:0,0:0:0:0:
196,196,54694,1,4,0:3:0:0:
180,258,54804,1,0,0:0:0:0:
229,301,54914,1,0,1:0:0:0:
446,275,55026,6,0,P|470:233|443:144,1,136,4|0,0:0|0:0,0:0:0:0:
253,80,55467,2,0,P|323:44|395:55,1,136,0|2,0:0|0:3,0:0:0:0:
368,95,55742,1,0,0:0:0:0:
357,135,55798,1,2,0:3:0:0:
110,221,55908,2,0,L|315:399,3,255.000009727478,2|0|0|4,0:3|1:0|1:0|0:3,0:0:0:0:
10,129,56790,6,0,L|88:120,1,68,4|0,0:1|0:0,0:0:0:0:
140,117,57011,2,0,L|223:107,1,68,0|0,0:0|0:0,0:0:0:0:
278,170,57231,1,4,0:0:0:0:
198,180,57341,1,0,0:0:0:0:
286,250,57451,1,4,0:3:0:0:
189,254,57561,1,0,0:0:0:0:
390,323,57673,2,0,L|185:369,2,204,4|4|4,1:2|0:3|0:3,0:0:0:0:
102,325,58555,6,0,P|156:283|303:251,1,204,4|0,0:1|0:0,0:0:0:0:
201,210,58996,2,0,L|124:197,1,68,4|0,0:0|0:0,0:0:0:0:
41,110,59217,2,0,L|124:93,1,68,4|4,0:3|0:3,0:0:0:0:
320,168,59437,2,0,P|259:167|192:225,1,136,4|0,1:2|1:0,0:0:0:0:
220,237,59713,1,0,1:0:0:0:
244,260,59768,5,0,1:0:0:0:
273,279,59823,1,0,1:0:0:0:
304,292,59878,1,8,0:3:0:0:
406,312,59989,1,8,0:3:0:0:
292,384,60099,1,4,0:3:0:0:
400,221,60209,1,4,0:3:0:0:
174,322,60320,6,0,P|109:300|22:286,1,136,4|0,0:1|0:0,0:0:0:0:
251,157,60761,2,0,P|139:118|92:116,1,136,4|0,1:2|0:0,0:0:0:0:
352,30,61202,2,0,L|198:-3,2,136,4|0|0,0:3|0:0|1:0,0:0:0:0:
490,128,61864,1,0,0:0:0:0:
195,208,62084,5,4,0:3:0:0:
341,253,62305,1,4,0:3:0:0:
142,355,62526,1,0,1:0:0:0:
341,253,62746,1,4,0:3:0:0:
143,115,62967,2,0,L|297:82,1,136,6|4,0:3|0:3,0:0:0:0:
106,225,63408,2,0,P|72:250|48:355,1,136,0|4,1:0|0:3,0:0:0:0:
343,338,63849,6,0,L|424:319,1,59.4999981842042,0|0,1:0|1:0,0:0:0:0:
341,253,64070,2,0,L|265:241,1,59.4999981842042,0|0,1:0|1:0,0:0:0:0:
343,171,64290,1,0,0:0:0:0:
448,117,64510,1,0,0:0:0:0:
418,29,64731,1,2,0:0:0:0:
308,0,64951,1,4,0:3:0:0:
193,11,65172,5,4,0:3:0:0:
343,171,65393,1,0,0:0:0:0:
347,230,65503,1,0,1:0:0:0:
352,289,65613,1,2,0:0:0:0:
488,343,65834,1,0,1:0:0:0:
310,355,66055,5,8,1:3:0:0:
273,309,66165,1,8,0:3:0:0:
279,251,66275,1,4,0:3:0:0:
324,214,66385,1,4,0:3:0:0:
389,217,66496,2,0,P|300:182|210:178,1,178.499994552612,2|0,0:0|1:0,0:0:0:0:
137,164,66937,5,0,1:0:0:0:
223,95,67048,1,4,0:3:0:0:
143,69,67158,1,4,0:3:0:0:
231,13,67268,1,4,0:3:0:0:
439,249,67379,5,4,0:0:0:0:
297,315,67599,2,0,L|137:332,1,136,0|0,1:0|0:0,0:0:0:0:
324,214,68040,1,0,1:0:0:0:
162,184,68261,2,0,P|183:130|246:71,1,136,0|0,0:0|1:0,0:0:0:0:
65,35,68702,2,0,P|37:95|52:180,1,136,0|0,0:0|1:0,0:0:0:0:
217,229,69143,2,0,L|229:309,1,68,4|4,0:3|0:3,0:0:0:0:
310,306,69364,2,0,L|301:379,1,68,0|0,1:0|0:0,0:0:0:0:
223,380,69584,2,0,P|156:359|62:354,1,136,0|0,0:0|1:0,0:0:0:0:
296,226,70026,6,0,P|363:205|457:200,1,136,4|0,0:3|1:0,0:0:0:0:
274,134,70467,1,4,0:3:0:0:
333,101,70577,1,4,0:3:0:0:
400,93,70687,1,0,1:0:0:0:
84,104,70908,5,0,1:0:0:0:
123,158,71018,1,0,1:0:0:0:
182,192,71128,1,0,1:0:0:0:
249,199,71239,2,0,P|150:242|62:322,1,204,0|0,1:0|0:0,0:0:0:0:
225,324,71790,5,0,0:0:0:0:
348,275,72010,1,0,0:0:0:0:
403,154,72231,1,0,0:0:0:0:
358,29,72451,1,0,0:0:0:0:
240,0,72672,1,0,0:0:0:0:
113,11,72893,5,0,0:0:0:0:
144,141,73113,1,0,0:0:0:0:
239,236,73334,1,0,0:0:0:0:
370,265,73554,1,0,0:0:0:0:
232,355,73776,2,0,L|388:378,1,136,0|0,0:0|0:0,0:0:0:0:
211,142,74217,2,0,L|123:140,1,68,0|0,1:0|0:0,0:0:0:0:
365,155,74437,6,0,L|485:147,2,85,4|0|0,0:1|0:0|1:0,0:0:0:0:
269,71,74768,2,0,L|371:61,2,85,4|0|0,0:3|0:0|1:0,0:0:0:0:
44,140,75099,6,0,P|71:186|183:232,1,170,4|0,1:2|0:0,0:0:0:0:
247,246,75430,1,0,0:0:0:0:
322,249,75540,1,0,1:0:0:0:
172,347,75761,1,4,0:3:0:0:
91,328,75871,1,4,0:3:0:0:
47,258,75981,1,0,1:0:0:0:
359,124,76202,6,0,L|452:109,1,85,0|0,1:0|1:0,0:0:0:0:
352,43,76423,2,0,L|262:34,1,85,0|8,0:3|0:3,0:0:0:0:
362,211,76643,2,0,L|458:226,1,85,4|4,0:3|0:3,0:0:0:0:
448,307,76864,2,0,L|337:292,1,85,0|4,1:0|0:3,0:0:0:0:
148,262,77084,5,0,1:0:0:0:
182,185,77194,1,4,0:3:0:0:
250,136,77304,1,0,0:0:0:0:
334,129,77414,1,0,0:0:0:0:
243,51,77526,2,0,P|119:71|40:229,1,255.000009727478,2|0,0:3|0:0,0:0:0:0:
342,374,77967,6,0,L|439:366,1,85,4|0,0:1|0:0,0:0:0:0:
365,296,78187,1,4,0:3:0:0:
276,271,78298,2,0,P|195:274|115:220,1,170,4|0,0:3|0:0,0:0:0:0:
213,188,78629,1,4,0:3:0:0:
407,126,78849,2,0,P|263:65|221:61,2,170,4|0|4,1:2|0:0|0:0,0:0:0:0:
321,251,79511,1,0,0:0:0:0:
20,306,79731,6,0,P|55:256|184:201,1,170,4|0,0:0|0:0,0:0:0:0:
317,114,80173,2,0,L|125:71,1,170,4|4,0:0|0:3,0:0:0:0:
83,93,80504,1,4,0:3:0:0:
286,218,80614,2,0,P|303:262|251:373,1,170,4|0,0:0|0:0,0:0:0:0:
26,159,81055,2,0,P|9:115|61:4,1,170,0|4,1:0|0:3,0:0:0:0:
395,119,81496,6,0,L|231:176,1,170,4|4,0:1|0:3,0:0:0:0:
328,162,81827,2,0,P|420:184|488:245,1,170,4|0,0:3|0:0,0:0:0:0:
379,258,82158,1,4,0:3:0:0:
173,252,82379,2,0,L|368:370,2,212.5,4|0|0,1:2|0:0|0:0,0:0:0:0:
438,244,83261,5,4,0:0:0:0:
296,176,83481,1,4,0:3:0:0:
333,23,83702,1,4,0:0:0:0:
490,29,83922,1,4,0:3:0:0:
167,149,84143,6,0,L|55:151,2,85,0|0|4,1:0|1:0|0:3,0:0:0:0:
315,211,84584,1,0,1:0:0:0:
248,263,84694,1,0,1:0:0:0:
169,293,84804,1,0,1:0:0:0:
261,336,84914,1,0,0:0:0:0:
465,338,85026,6,0,P|481:282|415:195,1,170,4|0,0:0|1:0,0:0:0:0:
315,211,85356,2,0,P|317:151|396:71,1,170,4|4,0:3|0:3,0:0:0:0:
481,62,85687,1,0,1:0:0:0:
260,324,85908,1,0,0:0:0:0:
343,306,86018,1,4,0:3:0:0:
426,288,86128,5,0,1:0:0:0:
235,209,86349,1,4,0:3:0:0:
156,193,86459,1,4,0:3:0:0:
143,114,86569,1,0,1:0:0:0:
350,118,86790,5,4,0:3:0:0:
429,102,86900,1,4,0:3:0:0:
442,23,87010,1,0,1:0:0:0:
351,2,87121,2,0,L|180:-25,1,170,4|4,0:3|0:3,0:0:0:0:
279,60,87452,1,0,1:0:0:0:
450,197,87673,6,0,P|448:295|381:332,1,170,0|0,0:0|1:3,0:0:0:0:
222,355,88114,2,0,L|247:273,1,85,4|4,0:3|0:3,0:0:0:0:
338,243,88334,1,0,1:0:0:0:
30,156,88555,6,0,L|217:105,2,170,4|0|0,0:0|1:0|0:0,0:0:0:0:
85,218,89106,1,4,0:3:0:0:
166,236,89216,1,0,1:0:0:0:
464,303,89437,5,4,0:3:0:0:
409,365,89546,1,4,0:3:0:0:
328,383,89656,1,0,1:0:0:0:
134,382,89879,2,0,L|249:357,1,85,0|0,1:0|1:0,0:0:0:0:
133,290,90099,2,0,L|45:266,1,85,0|0,1:0|1:0,0:0:0:0:
359,210,90320,5,2,0:3:0:0:
256,192,90430,12,4,91643,0:3:0:0:
35,262,92084,6,0,P|67:180|186:140,1,204,4|0,0:1|1:0,0:0:0:0:
257,102,92526,1,4,1:2:0:0:
168,55,92636,1,4,0:3:0:0:
407,140,92746,2,0,P|463:195|463:272,1,136,0|0,0:0|1:0,0:0:0:0:
392,225,93077,1,0,0:0:0:0:
312,242,93187,2,0,L|145:264,1,136,4|4,0:3|0:3,0:0:0:0:
356,342,93629,1,4,0:3:0:0:
47,357,93849,6,0,L|50:282,1,68,4|0,0:0|0:0,0:0:0:0:
102,222,94070,2,0,P|153:186|243:197,1,136,0|0,0:0|0:0,0:0:0:0:
176,140,94400,1,0,1:0:0:0:
113,114,94510,1,4,0:3:0:0:
46,113,94620,1,0,0:0:0:0:
227,42,94731,2,0,L|373:13,1,136,4|4,1:2|0:3,0:0:0:0:
177,259,95173,2,0,L|31:230,1,136,4|4,0:3|0:3,0:0:0:0:
341,187,95614,6,0,L|190:154,1,136,4|0,0:1|0:0,0:0:0:0:
278,252,95945,1,4,0:3:0:0:
359,322,96055,2,0,L|497:355,1,136,2|4,0:0|0:3,0:0:0:0:
432,265,96386,2,0,L|275:298,1,136,0|0,0:0|0:0,0:0:0:0:
383,345,96717,5,4,0:3:0:0:
437,307,96827,1,0,0:0:0:0:
445,242,96937,1,4,0:3:0:0:
401,193,97047,1,0,0:0:0:0:
335,194,97158,2,0,L|414:168,1,68,4|0,0:3|0:0,0:0:0:0:
202,119,97379,6,0,L|45:99,2,136,4|4|0,0:0|0:3|1:0,0:0:0:0:
283,133,97930,1,0,1:0:0:0:
214,204,98040,1,2,0:3:0:0:
180,209,98095,1,0,0:0:0:0:
146,214,98150,1,2,0:3:0:0:
370,310,98261,5,2,1:3:0:0:
186,339,98481,1,4,0:3:0:0:
338,214,98702,2,0,L|423:202,1,68,0|0,1:0|0:0,0:0:0:0:
316,121,98923,2,0,L|221:111,1,68,4|0,0:3|0:1,0:0:0:0:
459,292,99143,5,4,0:1:0:0:
423,234,99253,1,0,0:0:0:0:
375,186,99363,1,0,0:0:0:0:
316,152,99473,1,0,0:0:0:0:
250,134,99584,1,2,0:0:0:0:
183,133,99695,1,0,0:0:0:0:
249,118,99805,1,4,0:3:0:0:
315,104,99915,1,0,0:0:0:0:
123,155,100026,6,0,P|100:241|136:291,1,136,0|4,1:0|0:3,0:0:0:0:
290,351,100467,1,0,0:0:0:0:
124,361,100687,2,0,L|36:366,1,68,4|0,0:3|0:0,0:0:0:0:
290,266,100908,6,0,L|370:250,1,68,4|0,0:0|0:0,0:0:0:0:
287,180,101129,2,0,L|204:196,1,68,0|4,0:0|0:3,0:0:0:0:
295,95,101349,2,0,L|378:106,1,68,0|0,0:0|1:0,0:0:0:0:
283,12,101570,2,0,L|200:28,1,68,4|0,0:3|0:0,0:0:0:0:
417,29,101790,6,0,P|455:69|494:159,1,136,0|0,1:0|1:0,0:0:0:0:
469,167,102066,1,0,1:0:0:0:
442,188,102121,1,0,1:0:0:0:
411,203,102176,1,0,1:0:0:0:
378,209,102231,1,8,0:3:0:0:
268,270,102342,2,0,L|356:301,2,68,8|0|4,0:3|0:0|0:3,0:0:0:0:
112,213,102673,6,0,L|250:169,1,136,4|0,0:1|0:0,0:0:0:0:
329,132,103004,1,0,0:0:0:0:
120,116,103114,2,0,P|166:72|247:53,1,136,4|0,1:2|0:0,0:0:0:0:
33,202,103555,6,0,P|61:272|144:289,1,136,4|4,0:3|0:3,0:0:0:0:
272,356,103996,1,0,1:0:0:0:
117,381,104217,1,4,0:3:0:0:
430,322,104437,6,0,P|468:273|448:176,1,136,4|4,0:3|0:3,0:0:0:0:
288,142,104879,2,0,L|128:122,1,136,0|4,1:0|0:3,0:0:0:0:
462,68,105320,6,0,L|366:57,2,90.6666666666667,0|0|0,1:0|1:0|1:0,0:0:0:0:
309,243,105761,2,0,L|203:263,2,90.6666666666667,0|0|0,1:0|1:0|1:0,0:0:0:0:
45,118,106202,6,0,P|81:68|185:24,1,170,4|0,1:2|0:0,0:0:0:0:
263,37,106533,1,0,0:0:0:0:
345,86,106643,1,4,1:2:0:0:
138,188,106864,1,0,0:0:0:0:
459,307,107084,5,2,1:2:0:0:
285,279,107305,2,0,P|310:233|428:196,1,170,0|4,0:0|0:3,0:0:0:0:
259,123,107746,1,0,0:0:0:0:
345,86,107856,1,0,0:0:0:0:
95,196,107967,6,0,P|99:298|174:344,1,170,4|0,1:2|0:0,0:0:0:0:
241,340,108298,1,0,0:0:0:0:
337,275,108408,2,0,L|150:247,1,170,2|0,1:2|0:0,0:0:0:0:
474,184,108849,5,4,1:2:0:0:
305,125,109070,2,0,L|125:92,1,170,0|4,0:0|0:3,0:0:0:0:
337,275,109511,1,0,0:0:0:0:
251,312,109621,1,0,0:0:0:0:
474,237,109731,6,0,P|481:180|420:78,1,170,4|0,1:2|0:0,0:0:0:0:
329,59,110062,1,0,0:0:0:0:
221,157,110173,2,0,L|394:184,1,170,2|0,1:2|0:0,0:0:0:0:
56,343,110614,5,4,1:2:0:0:
260,318,110834,2,0,P|260:264|216:149,1,170,0|4,0:0|0:3,0:0:0:0:
39,106,111276,1,0,0:0:0:0:
355,26,111496,6,0,P|437:15|506:91,1,170,4|0,1:2|0:0,0:0:0:0:
409,106,111827,1,0,0:0:0:0:
370,177,111937,1,2,1:2:0:0:
411,247,112047,1,0,0:0:0:0:
492,247,112157,1,0,0:0:0:0:
171,342,112379,5,4,1:2:0:0:
340,310,112599,1,0,0:0:0:0:
169,188,112820,2,0,L|9:92,1,170,2|0,1:2|0:0,0:0:0:0:
358,179,113261,6,0,L|197:275,1,170,4|0,1:2|0:0,0:0:0:0:
292,253,113591,1,0,0:0:0:0:
326,178,113701,1,2,1:2:0:0:
282,109,113811,1,0,0:0:0:0:
201,107,113923,6,0,L|399:86,1,170,0|4,0:0|1:2,0:0:0:0:
62,0,114364,1,4,0:3:0:0:
283,192,114584,1,4,0:3:0:0:
54,384,114805,1,4,0:3:0:0:
453,348,115026,6,0,P|468:270|394:211,1,170,4|0,1:2|0:0,0:0:0:0:
299,195,115356,1,0,0:0:0:0:
196,155,115467,2,0,P|143:131|129:21,1,170,2|0,1:2|0:0,0:0:0:0:
427,37,115908,6,0,L|255:0,2,170,4|0|2,1:2|0:0|1:2,0:0:0:0:
322,198,116570,1,0,0:0:0:0:
23,283,116790,5,4,1:2:0:0:
194,228,117011,2,0,L|108:195,1,85,0|0,0:0|0:0,0:0:0:0:
29,157,117231,2,0,L|115:133,1,85,2|0,1:2|0:0,0:0:0:0:
193,122,117452,1,0,0:0:0:0:
499,250,117673,5,4,1:2:0:0:
345,208,117893,2,0,L|161:234,1,170,0|4,0:0|0:3,0:0:0:0:
404,111,118334,1,0,0:0:0:0:
74,100,118555,5,4,1:2:0:0:
249,344,118776,1,0,0:0:0:0:
164,352,118886,1,0,0:0:0:0:
79,361,118996,1,4,1:2:0:0:
256,252,119217,2,0,L|171:244,1,85,0|0,0:0|0:0,0:0:0:0:
411,211,119437,6,0,P|384:164|267:128,1,170,4|0,1:2|0:0,0:0:0:0:
487,198,119879,1,4,1:2:0:0:
470,116,119989,1,0,0:0:0:0:
408,60,120099,1,0,0:0:0:0:
325,53,120209,1,0,0:0:0:0:
58,247,120320,5,4,1:2:0:0:
155,382,120540,1,0,0:0:0:0:
315,429,120761,1,0,1:0:0:0:
469,367,120981,1,0,0:0:0:0:
148,242,121202,6,0,L|245:224,1,85,0|0,1:0|1:0,0:0:0:0:
305,209,121423,2,0,L|405:206,1,85,0|0,1:0|1:0,0:0:0:0:
283,130,121643,2,0,L|188:114,1,85,0|0,1:0|1:0,0:0:0:0:
408,47,121864,2,0,L|519:35,1,85,0|0,1:0|1:0,0:0:0:0:
172,232,122084,5,4,0:3:0:0:
256,192,122195,12,0,129143,0:0:0:0:
