osu file format v14

[General]
AudioFilename: audio.mp3
AudioLeadIn: 0
PreviewTime: 90265
Countdown: 0
SampleSet: Soft
StackLeniency: 0.7
Mode: 2
LetterboxInBreaks: 0
WidescreenStoryboard: 0

[Editor]
Bookmarks: 122305
DistanceSpacing: 1.2
BeatDivisor: 4
GridSize: 32
TimelineZoom: 2.5

[Metadata]
Title:The Divine Zero
TitleUnicode:The Divine Zero
Artist:Pierce The Veil
ArtistUnicode:Pierce The Veil
Creator:AJamez
Version:Desperation
Source:
Tags:pishifat ptv divinezero misadventures post hardcore alternative rock metal emo
BeatmapID:1749190
BeatmapSetID:835135

[Difficulty]
HPDrainRate:7
CircleSize:4
OverallDifficulty:9.5
ApproachRate:9.5
SliderMultiplier:1.9
SliderTickRate:1

[Events]
//Background and Video events
0,0,"Glowing-Highway.jpg",0,0
//Break Periods
//Storyboard Layer 0 (Background)
//Storyboard Layer 1 (Fail)
//Storyboard Layer 2 (Pass)
//Storyboard Layer 3 (Foreground)
//Storyboard Sound Samples

[TimingPoints]
7379,220.588235294118,4,2,1,40,1,0
7379,-133.333333333333,4,2,1,70,0,0
7709,-133.333333333333,4,2,1,70,0,0
7930,-133.333333333333,4,2,1,40,0,0
10908,-133.333333333333,4,2,1,70,0,0
11349,-133.333333333333,4,2,1,40,0,0
14437,-133.333333333333,4,2,1,70,0,0
14823,-133.333333333333,4,2,1,40,0,0
17967,-133.333333333333,4,2,1,70,0,0
21496,-133.333333333333,4,2,1,80,0,0
22158,-100,4,2,1,70,0,0
25026,-100,4,2,1,80,0,0
25687,-100,4,2,1,70,0,0
28555,-100,4,2,1,80,0,0
29217,-100,4,2,1,70,0,0
32084,-100,4,2,1,80,0,0
35614,-100,4,2,1,80,0,0
48849,-100,4,2,1,75,0,0
49731,-125,4,2,1,70,0,1
56570,-125,4,2,1,70,0,1
56790,-125,4,2,1,70,0,1
63849,-142.857142857143,4,2,1,70,0,0
64290,-142.857142857143,4,2,1,50,0,0
66496,-142.857142857143,4,2,1,60,0,0
67379,-125,4,2,1,80,0,0
67985,-125,4,2,1,70,0,0
71570,-125,4,2,1,30,0,0
73114,-125,4,2,1,35,0,0
73334,-125,4,2,1,40,0,0
73555,-125,4,2,1,45,0,0
73776,-125,4,2,1,50,0,0
73996,-125,4,2,1,60,0,0
74217,-125,4,2,1,70,0,0
74437,-100,4,2,1,85,0,0
74768,-100,4,2,1,85,0,0
76202,-100,4,2,1,85,0,0
77526,-28.5714285714286,4,2,1,85,0,0
77912,-100,4,2,1,44,0,0
77967,-100,4,2,1,70,0,0
78408,-100,4,2,1,50,0,0
78849,-100,4,2,1,50,0,0
80614,-100,4,2,1,60,0,0
81276,-100,4,2,1,60,0,0
81496,-100,4,2,1,70,0,0
81937,-100,4,2,1,50,0,0
82379,-100,4,2,1,50,0,0
83261,-100,4,2,1,60,0,0
84364,-100,4,2,1,60,0,0
85026,-100,4,2,1,80,0,0
85687,-100,4,2,1,70,0,0
88334,-100,4,2,1,70,0,0
88555,-100,4,2,1,75,0,0
91643,-100,4,2,1,80,0,0
92029,-100,4,2,1,5,0,0
92084,-125,4,2,1,70,0,1
98923,-125,4,2,1,70,0,1
99143,-125,4,2,1,70,0,1
105320,-125,4,2,1,70,0,1
106202,-100,4,2,1,70,0,0
122415,-100,4,2,1,50,0,0
122967,-100,4,2,1,40,0,0
123849,-100,4,2,1,30,0,0
124731,-100,4,2,1,20,0,0
125614,-100,4,2,1,15,0,0
126496,-100,4,2,1,12,0,0
127379,-100,4,2,1,10,0,0
128261,-100,4,2,1,5,0,0
129143,-100,4,2,1,15,0,0

[Colours]
Combo1 : 255,255,128
Combo2 : 138,142,49
Combo3 : 255,128,128
Combo4 : 252,136,67

[HitObjects]
107,101,6496,5,2,0:3:0:0:
186,230,6717,1,2,0:3:0:0:
297,299,6937,1,2,0:3:0:0:
424,322,7158,1,2,0:3:0:0:
65,360,7378,5,0,1:0:0:0:
165,230,7489,1,0,1:0:0:0:
65,256,7599,1,0,1:0:0:0:
165,230,7709,2,0,P|166:175|102:102,1,142.500005435944,0|0,1:0|0:0,0:0:0:0:
414,268,8261,6,0,L|248:279,1,142.500005435944,0|0,0:0|0:0,0:0:0:0:
357,179,8702,1,0,0:0:0:0:
470,136,8923,1,0,0:0:0:0:
245,80,9143,2,0,L|97:97,1,142.500005435944,0|0,0:0|0:0,0:0:0:0:
188,142,9474,2,0,L|337:162,1,142.500005435944,0|0,0:0|0:0,0:0:0:0:
404,193,9805,1,0,0:0:0:0:
183,238,10026,5,0,0:0:0:0:
303,287,10246,1,0,0:0:0:0:
272,414,10467,1,0,0:0:0:0:
142,402,10687,1,0,0:0:0:0:
454,313,10908,5,0,1:0:0:0:
346,183,11019,1,0,1:0:0:0:
454,209,11129,1,0,1:0:0:0:
346,183,11239,2,0,P|345:128|409:55,1,142.500005435944,0|0,1:0|0:0,0:0:0:0:
93,173,11790,6,0,L|117:326,1,142.500005435944,0|0,0:0|0:0,0:0:0:0:
323,71,12231,2,0,L|299:224,1,142.500005435944,0|0,0:0|0:0,0:0:0:0:
97,150,12673,2,0,L|264:127,1,142.500005435944,0|0,0:0|0:0,0:0:0:0:
457,334,13114,2,0,L|308:309,1,142.500005435944,0|0,0:0|0:0,0:0:0:0:
144,191,13555,5,0,0:0:0:0:
24,240,13775,1,0,0:0:0:0:
55,367,13996,1,0,0:0:0:0:
185,355,14216,1,0,0:0:0:0:
483,211,14437,5,0,1:0:0:0:
423,172,14547,1,0,1:0:0:0:
356,148,14657,1,0,1:0:0:0:
285,141,14768,2,0,L|431:113,1,142.500005435944,0|0,1:0|0:0,0:0:0:0:
153,204,15320,6,0,L|171:278,1,71.2500027179719,0|0,0:0|0:0,0:0:0:0:
250,318,15540,2,0,L|414:342,2,142.500005435944,0|0|0,0:0|0:0|0:0,0:0:0:0:
15,240,16202,2,0,L|170:199,1,142.500005435944,0|0,0:0|0:0,0:0:0:0:
322,140,16643,1,0,0:0:0:0:
152,93,16864,1,0,0:0:0:0:
425,260,17084,2,0,L|391:407,1,142.500005435944,0|0,0:0|0:0,0:0:0:0:
198,344,17526,2,0,L|351:311,1,142.500005435944,0|0,0:0|0:0,0:0:0:0:
33,233,17967,5,0,1:0:0:0:
103,224,18077,1,0,1:0:0:0:
161,183,18187,1,0,1:0:0:0:
194,121,18298,2,0,P|185:58|115:-3,1,142.500005435944,0|0,1:0|0:0,0:0:0:0:
59,15,18629,1,0,1:0:0:0:
305,66,18739,2,0,L|406:96,2,71.2500027179719,0|0|0,1:0|1:0|1:0,0:0:0:0:
194,121,19070,6,0,P|216:175|312:210,1,142.500005435944,0|8,0:0|1:3,0:0:0:0:
361,223,19401,1,8,0:3:0:0:
154,302,19511,1,4,1:3:0:0:
227,309,19621,1,4,0:3:0:0:
482,322,19731,5,2,1:3:0:0:
419,281,19787,2,0,P|410:199|474:44,1,249.375009512902,0|0,0:0|0:0,0:0:0:0:
243,71,20614,1,0,0:0:0:0:
15,164,21055,2,0,P|34:249|131:353,1,213.750008153916,0|0,0:0|0:0,0:0:0:0:
414,255,21496,6,0,L|269:229,1,142.500005435944,4|0,0:0|1:0,0:0:0:0:
134,157,21827,2,0,L|282:116,1,142.500005435944,4|4,0:3|0:3,0:0:0:0:
367,93,22158,1,0,1:0:0:0:
121,316,22379,1,0,0:0:0:0:
235,325,22489,1,4,0:3:0:0:
349,347,22599,1,0,1:0:0:0:
88,209,22820,5,4,0:3:0:0:
26,143,22930,1,4,0:3:0:0:
56,58,23040,1,0,1:0:0:0:
146,46,23150,1,0,0:0:0:0:
389,168,23261,2,0,L|280:192,2,95,4|4|0,0:3|0:3|1:0,0:0:0:0:
251,278,23592,2,0,P|293:326|430:338,1,190,4|4,0:3|0:3,0:0:0:0:
494,276,23923,1,0,1:0:0:0:
85,115,24143,5,4,0:3:0:0:
178,100,24253,1,4,0:3:0:0:
272,86,24363,1,0,1:0:0:0:
68,211,24584,2,0,L|103:331,1,95,4|4,0:3|0:3,0:0:0:0:
228,369,24805,2,0,L|99:370,1,95,0|0,1:0|0:0,0:0:0:0:
408,297,25026,5,4,0:0:0:0:
296,292,25136,1,0,0:0:0:0:
408,209,25246,1,0,1:0:0:0:
310,176,25356,2,0,L|195:171,1,95,4|0,0:3|0:0,0:0:0:0:
459,89,25687,1,0,1:0:0:0:
248,63,25908,5,0,0:0:0:0:
153,54,26018,1,4,0:3:0:0:
58,46,26128,1,0,1:0:0:0:
280,224,26349,1,4,0:3:0:0:
185,215,26459,1,4,0:3:0:0:
90,207,26570,2,0,L|197:215,1,95,0|0,1:0|0:0,0:0:0:0:
430,317,26790,6,0,L|295:340,2,95,4|4|0,0:3|0:3|1:0,0:0:0:0:
306,249,27121,2,0,P|257:214|134:174,1,190,4|4,0:3|0:3,0:0:0:0:
227,153,27452,2,0,L|330:141,1,95,0|0,1:0|0:0,0:0:0:0:
59,64,27673,2,0,L|195:49,1,95,4|0,0:3|0:0,0:0:0:0:
279,86,27893,2,0,L|179:105,1,95,0|0,1:0|0:0,0:0:0:0:
94,149,28114,2,0,P|19:232|136:330,1,285,4|0,0:3|0:0,0:0:0:0:
400,331,28555,5,4,0:0:0:0:
281,293,28665,1,0,0:0:0:0:
411,233,28776,2,0,P|470:198|406:100,1,190,0|0,1:0|0:0,0:0:0:0:
312,80,29106,1,4,0:3:0:0:
192,82,29217,5,0,1:0:0:0:
477,13,29658,1,0,1:0:0:0:
136,215,30099,1,0,1:0:0:0:
309,218,30320,2,0,L|326:327,1,95,4|4,0:3|0:3,0:0:0:0:
34,104,30540,6,0,L|74:-18,1,95,0|4,1:0|0:3,0:0:0:0:
266,35,30871,1,4,0:3:0:0:
171,78,30981,2,0,L|167:194,1,95,0|0,1:0|0:0,0:0:0:0:
426,279,31202,2,0,L|292:288,1,95,4|4,0:3|0:3,0:0:0:0:
221,292,31423,2,0,P|285:217|395:203,1,190,0|4,1:0|0:3,0:0:0:0:
280,160,31754,1,4,0:3:0:0:
31,171,31864,1,0,1:0:0:0:
400,66,32084,5,4,0:0:0:0:
272,40,32195,1,0,0:0:0:0:
402,171,32305,2,0,L|404:277,1,95,0|4,1:0|0:3,0:0:0:0:
156,352,32636,1,4,0:3:0:0:
278,276,32746,6,0,L|168:255,1,95,0|0,1:0|0:0,0:0:0:0:
313,188,32967,2,0,L|200:160,1,95,0|4,0:0|0:3,0:0:0:0:
458,98,33187,1,0,1:0:0:0:
148,96,33408,2,0,L|256:67,1,95,4|4,0:3|0:3,0:0:0:0:
121,186,33629,2,0,L|26:170,1,95,0|0,1:0|0:0,0:0:0:0:
313,188,33849,6,0,L|350:301,1,95,6|0,0:3|0:0,0:0:0:0:
222,303,34070,2,0,L|201:407,1,95,0|4,1:0|0:3,0:0:0:0:
324,384,34290,1,4,0:3:0:0:
383,316,34400,1,4,0:3:0:0:
347,234,34510,1,0,1:0:0:0:
257,232,34620,1,4,1:3:0:0:
28,206,34731,5,0,1:0:0:0:
142,178,34842,1,0,1:0:0:0:
27,120,34952,1,0,1:0:0:0:
141,90,35062,1,0,1:0:0:0:
414,96,35173,2,0,L|288:81,1,95,0|0,1:0|1:0,0:0:0:0:
105,18,35393,2,0,L|219:0,1,95,0|0,1:0|1:0,0:0:0:0:
471,246,35614,5,4,0:0:0:0:
269,357,35834,2,0,L|478:385,1,190,0|4,1:0|0:3,0:0:0:0:
471,246,36165,1,4,0:3:0:0:
337,245,36276,1,0,1:0:0:0:
306,113,36386,1,0,0:0:0:0:
161,109,36496,2,0,L|180:1,1,95,4|0,0:3|0:0,0:0:0:0:
267,5,36717,1,0,1:0:0:0:
25,249,36827,2,0,L|143:276,1,95,4|4,0:3|0:3,0:0:0:0:
217,287,37048,1,4,0:3:0:0:
116,365,37158,2,0,L|12:349,1,95,0|0,1:0|0:0,0:0:0:0:
298,199,37379,6,0,L|330:99,1,95,4|0,0:3|0:0,0:0:0:0:
233,58,37599,2,0,L|131:46,1,95,0|4,1:0|0:3,0:0:0:0:
309,370,37820,2,0,L|357:256,1,95,4|4,0:3|0:3,0:0:0:0:
207,235,38040,2,0,L|320:211,1,95,0|0,1:0|0:0,0:0:0:0:
105,335,38261,6,0,P|55:306|30:255,1,95,4|0,0:3|0:0,0:0:0:0:
39,184,38481,1,0,1:0:0:0:
237,126,38592,2,0,L|226:19,1,95,4|4,0:3|0:3,0:0:0:0:
77,260,38812,2,0,L|183:271,1,95,0|0,0:0|1:0,0:0:0:0:
75,181,39033,1,0,1:0:0:0:
380,328,39143,6,0,P|289:312|230:214,1,190,4|0,0:0|1:0,0:0:0:0:
482,194,39584,2,0,L|377:163,1,95,4|4,0:3|0:3,0:0:0:0:
292,157,39805,2,0,L|394:130,1,95,0|0,1:0|0:0,0:0:0:0:
138,52,40026,1,4,0:3:0:0:
232,87,40136,2,0,P|231:163|198:195,1,95,0|0,0:0|1:0,0:0:0:0:
94,219,40356,2,0,P|81:273|120:329,1,95,4|4,0:3|0:3,0:0:0:0:
333,347,40577,1,4,0:3:0:0:
237,273,40687,2,0,L|338:257,1,95,0|0,1:0|0:0,0:0:0:0:
53,105,40908,6,0,P|145:118|237:198,1,190,4|0,0:3|1:0,0:0:0:0:
28,319,41349,2,0,L|137:333,1,95,4|0,0:3|0:0,0:0:0:0:
225,295,41570,2,0,L|239:179,1,95,0|4,1:0|0:3,0:0:0:0:
22,126,41790,2,0,L|124:142,1,95,4|4,0:3|0:3,0:0:0:0:
354,89,42011,2,0,L|259:70,1,95,0|0,1:0|0:0,0:0:0:0:
472,303,42231,5,0,1:0:0:0:
425,207,42341,1,0,1:0:0:0:
335,131,42451,1,0,1:0:0:0:
217,121,42561,1,0,1:0:0:0:
466,344,42673,6,0,L|362:337,1,95,4|0,0:0|0:0,0:0:0:0:
377,158,42893,2,0,L|499:147,1,95,0|4,1:0|0:3,0:0:0:0:
184,339,43114,2,0,L|291:320,1,95,4|4,0:3|0:3,0:0:0:0:
137,249,43334,2,0,L|109:151,1,95,0|0,1:0|0:0,0:0:0:0:
380,198,43555,5,4,0:3:0:0:
159,358,43776,2,0,L|364:378,1,190,0|4,1:0|0:3,0:0:0:0:
268,302,44106,1,4,0:3:0:0:
170,267,44216,1,0,1:0:0:0:
314,240,44326,1,0,0:0:0:0:
69,257,44437,6,0,P|63:201|153:101,1,190,4|0,0:3|1:0,0:0:0:0:
246,95,44768,1,4,0:3:0:0:
24,53,44879,2,0,L|50:158,1,95,4|4,0:3|0:3,0:0:0:0:
195,208,45099,2,0,L|169:313,1,95,0|4,1:0|0:3,0:0:0:0:
433,97,45320,2,0,L|459:204,1,95,0|4,0:0|0:3,0:0:0:0:
318,254,45540,2,0,L|346:358,1,95,0|0,1:0|0:0,0:0:0:0:
479,279,45761,2,0,L|370:257,1,95,4|4,0:3|0:3,0:0:0:0:
489,185,45981,1,0,1:0:0:0:
110,139,46202,5,4,0:3:0:0:
293,236,46423,2,0,L|96:268,1,190,0|4,1:0|0:3,0:0:0:0:
127,364,46754,1,0,0:0:0:0:
248,120,46864,2,0,L|219:20,1,95,0|0,1:1|0:0,0:0:0:0:
466,121,47084,1,4,0:3:0:0:
363,175,47195,2,0,L|379:280,1,95,0|0,0:0|1:0,0:0:0:0:
486,309,47415,1,4,0:3:0:0:
232,350,47526,1,4,0:3:0:0:
327,347,47636,1,0,0:0:0:0:
422,363,47746,1,0,1:0:0:0:
62,264,47967,6,0,L|260:231,1,190,4|0,0:3|1:0,0:0:0:0:
139,201,48298,2,0,L|23:224,1,95,0|4,0:0|0:3,0:0:0:0:
170,334,48518,1,4,0:3:0:0:
414,332,48629,1,0,1:0:0:0:
321,310,48739,1,0,0:0:0:0:
71,353,48849,5,0,1:0:0:0:
146,305,48959,1,0,1:0:0:0:
126,218,49069,1,0,1:0:0:0:
38,207,49179,1,0,1:0:0:0:
249,232,49290,1,8,0:3:0:0:
152,122,49401,1,8,0:3:0:0:
278,140,49511,1,4,0:3:0:0:
179,29,49621,1,4,0:3:0:0:
431,192,49731,6,0,P|328:211|313:344,1,228,4|0,0:1|0:0,0:0:0:0:
390,366,50173,2,0,L|473:360,1,76,0|0,1:0|0:0,0:0:0:0:
202,356,50393,1,0,0:0:0:0:
398,284,50614,2,0,P|294:258|223:250,2,152,2|0|0,0:0|0:0|1:0,0:0:0:0:
477,282,51165,1,4,0:3:0:0:
142,214,51386,1,0,1:0:0:0:
32,175,51496,6,0,P|94:125|183:117,1,152,4|0,0:0|0:0,0:0:0:0:
257,123,51827,1,0,0:0:0:0:
363,274,51937,2,0,L|192:308,1,152,0|0,1:0|0:0,0:0:0:0:
431,186,52379,1,2,0:0:0:0:
343,205,52489,1,0,0:0:0:0:
361,289,52599,1,0,0:0:0:0:
445,291,52709,1,0,0:0:0:0:
247,213,52820,1,0,1:0:0:0:
432,109,52930,2,0,L|358:47,1,76,4|0,0:3|0:0,0:0:0:0:
271,49,53151,1,0,1:0:0:0:
21,319,53261,6,0,L|200:367,1,152,4|0,0:1|0:0,0:0:0:0:
260,332,53592,1,0,0:0:0:0:
105,257,53702,2,0,P|183:236|261:231,1,152,0|0,1:0|0:0,0:0:0:0:
172,208,54033,1,0,0:0:0:0:
471,76,54143,2,0,P|387:28|311:16,1,152,2|0,0:0|0:0,0:0:0:0:
122,116,54474,2,0,L|214:111,1,76
391,133,54695,1,4,0:3:0:0:
281,194,54805,1,0,0:0:0:0:
392,259,54915,1,0,1:0:0:0:
128,173,55026,6,0,P|121:113|165:19,1,152,4|0,0:0|0:0,0:0:0:0:
267,29,55356,1,0,0:0:0:0:
164,257,55467,2,0,L|56:288,1,76,0|0,0:0|0:0,0:0:0:0:
384,358,55687,1,2,0:3:0:0:
335,346,55742,1,0,0:0:0:0:
283,329,55798,1,2,0:3:0:0:
401,270,55908,2,0,L|245:228,1,152,2|0,0:3|1:0,0:0:0:0:
457,185,56349,1,0,1:0:0:0:
67,112,56570,2,0,L|21:99,2,38,4|0|2,0:3|0:0|0:1,0:0:0:0:
389,380,56790,6,0,L|296:368,1,76,4|0,0:1|0:0,0:0:0:0:
201,311,57011,2,0,L|285:293,1,76
370,213,57231,2,0,L|291:202,1,76,4|0,0:0|0:0,0:0:0:0:
90,163,57452,2,0,L|182:139,1,76,4|4,0:3|0:3,0:0:0:0:
423,151,57673,6,0,L|271:117,1,152,4|0,1:2|0:0,0:0:0:0:
130,299,58004,2,0,L|284:256,1,152,4|0,0:3|0:0,0:0:0:0:
183,208,58334,1,4,0:3:0:0:
305,125,58445,1,0,0:0:0:0:
65,360,58555,5,4,0:1:0:0:
165,284,58665,2,0,L|144:188,1,76,0|0,0:0|0:0,0:0:0:0:
42,159,58886,1,0,0:0:0:0:
243,308,58996,2,0,L|226:390,1,76,4|0,0:0|0:0,0:0:0:0:
34,370,59217,2,0,L|121:368,1,76,4|4,0:3|0:3,0:0:0:0:
376,162,59437,5,4,1:2:0:0:
252,143,59548,1,0,0:0:0:0:
285,160,59603,1,0,0:0:0:0:
304,192,59658,1,0,1:0:0:0:
304,229,59713,1,0,1:0:0:0:
284,261,59768,1,0,1:0:0:0:
250,277,59823,1,0,1:0:0:0:
213,273,59878,5,8,0:3:0:0:
110,263,59989,1,8,0:3:0:0:
215,361,60099,1,4,0:3:0:0:
109,368,60209,1,4,0:3:0:0:
357,48,60320,5,4,0:1:0:0:
139,148,60540,1,0,0:0:0:0:
419,282,60761,2,0,L|503:296,1,76,4|0,1:2|0:0,0:0:0:0:
357,328,60981,2,0,P|324:272|407:221,1,152,0|4,0:0|0:3,0:0:0:0:
465,162,61312,1,0,0:0:0:0:
355,125,61423,1,0,0:0:0:0:
40,122,61643,1,0,1:0:0:0:
229,88,61864,2,0,L|319:76,1,76,0|0,0:0|0:0,0:0:0:0:
80,359,62084,5,4,0:3:0:0:
262,262,62305,1,4,0:3:0:0:
54,207,62526,2,0,L|36:47,1,152,0|4,1:0|0:3,0:0:0:0:
322,42,62967,1,6,0:3:0:0:
132,35,63187,1,4,0:3:0:0:
343,172,63408,2,0,P|430:186|501:214,1,152,0|4,1:0|0:3,0:0:0:0:
88,359,63849,5,0,1:0:0:0:
189,317,63959,1,0,1:0:0:0:
88,261,64069,1,0,1:0:0:0:
188,45,64180,2,0,P|231:124|156:176,1,199.499993911743,0|0,1:0|0:0,0:0:0:0:
302,109,64731,1,2,0:0:0:0:
440,153,64952,5,4,0:3:0:0:
250,272,65173,2,0,L|107:272,1,132.999995941162,4|0,0:3|0:0,0:0:0:0:
108,321,65504,1,0,1:0:0:0:
101,366,65614,1,2,0:0:0:0:
273,370,65834,1,0,1:0:0:0:
41,170,66055,1,8,1:3:0:0:
87,123,66165,1,8,0:3:0:0:
148,97,66275,1,4,0:3:0:0:
214,96,66385,1,4,0:3:0:0:
453,218,66496,6,0,L|309:233,1,132.999995941162,2|0,0:0|1:0,0:0:0:0:
114,262,66827,1,0,1:0:0:0:
185,264,66937,1,0,1:0:0:0:
113,338,67047,1,4,0:3:0:0:
224,350,67158,1,4,0:3:0:0:
343,337,67268,1,4,0:3:0:0:
74,246,67379,5,4,0:0:0:0:
253,171,67599,2,0,P|206:139|95:111,1,152,0|0,1:0|0:0,0:0:0:0:
349,75,68040,1,0,1:0:0:0:
88,274,68261,2,0,L|234:339,1,152,0|0,0:0|1:0,0:0:0:0:
414,219,68702,1,0,0:0:0:0:
310,190,68812,1,0,0:0:0:0:
207,162,68922,1,0,1:0:0:0:
447,96,69143,5,4,0:3:0:0:
378,126,69253,1,4,0:3:0:0:
341,190,69363,1,0,1:0:0:0:
349,265,69473,1,4,0:3:0:0:
400,319,69584,1,0,0:0:0:0:
474,333,69695,2,0,L|371:346,1,76,4|0,0:3|1:0,0:0:0:0:
59,351,70026,5,4,0:3:0:0:
251,308,70246,1,0,1:0:0:0:
18,203,70467,1,4,0:3:0:0:
92,140,70577,1,4,0:3:0:0:
184,108,70687,1,0,1:0:0:0:
494,315,70908,5,0,1:0:0:0:
297,231,71018,1,0,1:0:0:0:
496,227,71129,1,0,1:0:0:0:
383,187,71239,6,0,P|332:126|185:97,1,228,0|0,1:0|0:0,0:0:0:0:
312,181,71790,1,0,0:0:0:0:
338,324,72011,1,0,0:0:0:0:
227,416,72231,1,0,0:0:0:0:
91,364,72452,1,0,0:0:0:0:
214,252,72673,1,0,0:0:0:0:
351,189,72893,1,0,0:0:0:0:
489,166,73114,1,0,0:0:0:0:
286,103,73334,1,0,0:0:0:0:
459,66,73555,1,0,0:0:0:0:
203,33,73776,1,0,0:0:0:0:
388,0,73997,1,0,0:0:0:0:
59,77,74217,6,0,L|65:181,1,76,0|0,1:0|0:0,0:0:0:0:
375,276,74437,6,0,P|300:286|251:405,1,190,4|0,0:1|1:0,0:0:0:0:
350,364,74768,1,4,0:3:0:0:
233,260,74879,2,0,L|130:240,1,95,0|0,0:0|1:0,0:0:0:0:
369,176,75099,2,0,P|280:149|181:145,1,190,4|0,1:2|0:0,0:0:0:0:
301,111,75430,1,0,0:0:0:0:
73,84,75540,2,0,L|48:182,1,95,0|0,1:0|0:0,0:0:0:0:
243,275,75761,2,0,L|271:403,1,95,4|4,0:3|0:3,0:0:0:0:
479,124,75981,2,0,L|457:224,1,95,0|0,1:0|0:0,0:0:0:0:
217,192,76202,6,0,L|321:204,1,95,0|0,1:0|1:0,0:0:0:0:
188,108,76423,2,0,L|306:118,1,95,0|8,0:3|0:3,0:0:0:0:
31,46,76643,2,0,L|126:36,1,95,4|4,0:3|0:3,0:0:0:0:
239,270,76864,2,0,L|107:290,1,95,0|4,1:0|0:3,0:0:0:0:
374,344,77084,1,0,1:0:0:0:
257,351,77195,1,4,0:3:0:0:
480,261,77305,1,0,0:0:0:0:
353,235,77415,1,0,0:0:0:0:
30,152,77526,6,0,B|52:100|52:100|60:101|60:101|58:89|58:89|59:79|59:79|65:91|65:91|67:81|67:81|74:75|74:75|76:69|76:69|68:71|68:71|70:66|70:66|77:60|77:60|74:55|74:55|86:52|86:52|94:46|94:46|107:38|107:38|119:36|119:36|82:42|82:42|90:34|90:34|97:24|97:24|111:16|111:16|130:-3|130:-3|165:42|165:42|137:69|137:69|199:240|199:240|371:62|371:62|492:200,1,997.500009512901,2|0,0:3|0:0,0:0:0:0:
236,342,77967,2,0,L|128:366,2,95,4|0|4,0:1|0:0|0:3,0:0:0:0:
374,292,78298,2,0,P|334:229|135:168,1,285,4|4,0:3|0:3,0:0:0:0:
445,106,78849,2,0,P|384:49|245:27,1,190,4|0,1:2|0:0,0:0:0:0:
450,230,79290,2,0,P|473:296|390:388,1,190,4|0,0:0|0:0,0:0:0:0:
79,148,79731,6,0,L|332:279,1,285,4|0,0:0|0:0,0:0:0:0:
95,348,80173,2,0,L|221:344,1,95,4|0,0:0|0:0,0:0:0:0:
74,262,80393,2,0,L|196:257,1,95,4|4,0:3|0:3,0:0:0:0:
385,173,80614,2,0,P|442:142|382:55,1,190,4|0,0:0|0:0,0:0:0:0:
152,355,81055,2,0,L|361:347,1,190,0|4,1:0|0:3,0:0:0:0:
332,251,81386,1,4,0:3:0:0:
51,176,81496,6,0,L|169:159,2,95,4|0|4,0:1|0:0|0:3,0:0:0:0:
297,250,81827,2,0,P|279:306|141:354,1,190,4|0,0:3|0:0,0:0:0:0:
77,320,82158,1,4,0:3:0:0:
344,162,82379,2,0,L|130:113,1,190,4|0,1:2|0:0,0:0:0:0:
426,73,82820,2,0,L|214:29,1,190,4|0,0:0|0:0,0:0:0:0:
143,75,83151,1,0,0:0:0:0:
445,299,83261,5,4,0:0:0:0:
313,294,83481,1,4,0:3:0:0:
179,311,83702,1,4,0:0:0:0:
45,376,83923,1,4,0:3:0:0:
427,327,84143,5,0,1:0:0:0:
326,300,84253,1,0,1:0:0:0:
331,199,84363,1,4,0:3:0:0:
429,177,84473,1,0,0:0:0:0:
159,134,84584,2,0,L|270:110,1,95,0|0,1:0|1:0,0:0:0:0:
31,256,84805,2,0,L|151:274,1,95,0|0,1:0|1:0,0:0:0:0:
390,269,85026,6,0,P|419:150|391:82,1,190,4|0,0:0|1:0,0:0:0:0:
159,134,85356,2,0,P|204:188|355:170,1,190,4|4,0:3|0:3,0:0:0:0:
34,356,85687,1,0,1:0:0:0:
234,289,85908,1,0,0:0:0:0:
153,240,86018,1,4,0:3:0:0:
59,225,86128,1,0,1:0:0:0:
312,180,86349,2,0,L|277:87,1,95,4|4,0:3|0:3,0:0:0:0:
161,49,86570,1,0,1:0:0:0:
401,150,86790,5,4,0:3:0:0:
314,166,86900,1,4,0:3:0:0:
305,254,87010,1,0,1:0:0:0:
388,287,87120,1,4,0:3:0:0:
172,380,87342,2,0,L|297:371,1,95,4|0,0:3|1:0,0:0:0:0:
48,287,87673,5,0,0:0:0:0:
68,194,87783,1,4,0:3:0:0:
89,101,87893,1,0,1:3:0:0:
314,80,88114,2,0,L|413:64,1,95,4|4,0:3|0:3,0:0:0:0:
210,30,88334,2,0,L|83:6,1,95,0|0,1:0|0:0,0:0:0:0:
415,248,88555,6,0,L|308:237,2,95,4|0|0,0:0|0:0|1:0,0:0:0:0:
177,364,88886,2,0,P|244:330|378:337,1,190,4|4,0:3|0:3,0:0:0:0:
250,302,89217,1,0,1:0:0:0:
356,329,89327,1,0,0:0:0:0:
152,240,89437,5,4,0:3:0:0:
256,193,89547,1,4,0:3:0:0:
150,159,89657,1,0,1:0:0:0:
52,65,89768,2,0,L|145:80,1,95,0|0,0:0|1:0,0:0:0:0:
468,75,89989,1,0,1:0:0:0:
260,206,90099,1,0,1:0:0:0:
52,258,90209,1,0,1:0:0:0:
161,342,90320,6,0,P|192:262|57:17,1,380,2|0,0:3|0:0,0:0:0:0:
267,100,90981,2,0,L|67:140,2,190,0|0|0,0:0|0:0|0:0,0:0:0:0:
485,129,91643,2,0,P|489:236|428:407,1,285,4|0,0:3|0:0,0:0:0:0:
90,345,92084,6,0,P|151:295|316:255,1,228,4|0,0:1|1:0,0:0:0:0:
216,197,92526,1,4,1:2:0:0:
122,187,92636,1,4,0:3:0:0:
399,83,92746,2,0,L|300:71,1,76,0|4,0:0|0:3,0:0:0:0:
74,127,92967,6,0,P|71:188|142:273,1,152,0|4,1:0|0:3,0:0:0:0:
199,281,93298,1,0,0:0:0:0:
429,310,93408,2,0,P|326:246|275:239,1,152,4|4,0:3|0:3,0:0:0:0:
386,210,93739,1,0,0:0:0:0:
175,122,93849,2,0,L|266:102,1,76,4|0,0:0|0:0,0:0:0:0:
34,118,94070,6,0,P|33:190|94:265,1,152,0|0,0:0|0:0,0:0:0:0:
163,273,94401,1,0,1:0:0:0:
255,242,94511,1,4,0:3:0:0:
146,187,94621,1,0,0:0:0:0:
421,194,94731,1,4,1:2:0:0:
240,113,94952,2,0,L|144:87,1,76,4|0,0:3|0:0,0:0:0:0:
421,194,95173,2,0,L|410:273,1,76,4|0,0:3|0:0,0:0:0:0:
277,351,95393,2,0,L|352:338,1,76,4|0,0:3|0:0,0:0:0:0:
42,338,95614,6,0,P|86:292|196:250,1,152,4|0,0:1|0:0,0:0:0:0:
242,248,95945,1,4,0:3:0:0:
126,174,96055,2,0,L|121:83,1,76,2|0,0:0|0:0,0:0:0:0:
341,103,96276,2,0,L|240:91,1,76,4|0,0:3|0:0,0:0:0:0:
360,2,96496,1,4,1:2:0:0:
102,117,96606,5,0,0:0:0:0:
210,128,96716,1,4,0:3:0:0:
102,117,96826,1,0,0:0:0:0:
210,180,96936,1,4,0:3:0:0:
114,338,97047,1,0,0:0:0:0:
38,349,97158,2,0,L|132:334,1,76,4|0,0:3|0:0,0:0:0:0:
372,290,97379,6,0,L|266:267,1,76,4|0,0:0|0:0,0:0:0:0:
383,209,97599,2,0,L|474:186,1,76,4|4,0:3|0:3,0:0:0:0:
202,183,97820,2,0,L|185:91,1,76,0|0,1:0|1:0,0:0:0:0:
325,49,98040,1,2,0:3:0:0:
288,40,98095,1,0,0:0:0:0:
251,31,98150,1,2,0:3:0:0:
486,20,98261,5,2,1:3:0:0:
133,218,98481,1,4,0:3:0:0:
332,293,98702,2,0,P|371:251|391:211,1,76,0|0,1:0|0:0,0:0:0:0:
68,122,98923,2,0,P|29:80|9:40,1,76,4|0,0:3|0:1,0:0:0:0:
370,27,99143,6,0,L|288:69,1,76,4|0,0:1|0:0,0:0:0:0:
228,76,99364,2,0,L|144:94,1,76,0|4,0:0|0:3,0:0:0:0:
381,151,99584,2,0,L|305:140,1,76,2|0,0:0|0:0,0:0:0:0:
415,248,99805,2,0,L|328:236,1,76,4|0,0:3|0:0,0:0:0:0:
95,305,100026,6,0,L|258:353,1,152,0|4,1:0|0:3,0:0:0:0:
384,300,100356,2,0,L|228:365,1,152,0|0,0:0|0:0,0:0:0:0:
34,308,100687,1,4,0:3:0:0:
114,317,100798,1,0,0:0:0:0:
342,211,100908,6,0,L|440:204,1,76,4|0,0:0|0:0,0:0:0:0:
208,107,101129,1,0,0:0:0:0:
306,58,101239,2,0,L|394:44,1,76,4|0,0:3|0:0,0:0:0:0:
179,340,101459,1,4,0:0:0:0:
303,351,101570,2,0,L|379:354,1,76,0|0,1:0|0:3,0:0:0:0:
86,320,101790,6,0,P|77:269|157:205,1,152,0|0,1:0|1:0,0:0:0:0:
180,197,102066,1,0,1:0:0:0:
203,168,102121,1,0,1:0:0:0:
203,131,102176,1,0,1:0:0:0:
178,103,102231,1,8,0:3:0:0:
76,77,102341,1,8,0:3:0:0:
305,240,102457,1,0,0:0:0:0:
189,287,102562,1,4,0:3:0:0:
414,308,102673,6,0,P|449:263|432:162,1,152,4|0,0:1|0:0,0:0:0:0:
341,133,103004,1,0,0:0:0:0:
226,128,103114,2,0,L|396:100,1,152,4|0,1:2|0:0,0:0:0:0:
71,105,103555,2,0,P|32:159|111:199,1,152,4|4,0:3|0:3,0:0:0:0:
286,264,103996,1,0,1:0:0:0:
77,333,104217,1,4,0:3:0:0:
455,347,104437,5,4,0:3:0:0:
250,155,104658,1,4,0:3:0:0:
452,111,104879,1,0,1:0:0:0:
125,45,105099,1,4,0:3:0:0:
307,50,105320,5,0,1:0:0:0:
68,192,105467,1,0,1:0:0:0:
312,321,105614,1,0,1:0:0:0:
55,353,105761,1,0,1:0:0:0:
185,284,105908,1,0,1:0:0:0:
48,186,106055,1,0,1:0:0:0:
373,166,106202,6,0,P|345:118|218:74,1,190,4|0,1:2|0:0,0:0:0:0:
142,92,106533,1,0,0:0:0:0:
352,274,106643,2,0,L|259:308,1,95,4|0,1:2|0:0,0:0:0:0:
178,337,106864,1,0,0:0:0:0:
485,236,107084,2,0,L|461:138,1,95,2|0,1:2|0:0,0:0:0:0:
368,100,107305,2,0,L|250:71,1,95,0|0,0:0|0:0,0:0:0:0:
389,8,107526,2,0,L|490:2,1,95,4|0,0:3|0:0,0:0:0:0:
254,238,107746,2,0,L|390:255,1,95,0|0,0:0|0:0,0:0:0:0:
141,344,107967,6,0,P|88:290|137:178,1,190,4|0,1:2|0:0,0:0:0:0:
208,146,108298,1,0,0:0:0:0:
443,255,108408,2,0,L|337:249,1,95,2|0,1:2|0:0,0:0:0:0:
197,304,108629,2,0,L|321:323,1,95,2|0,0:0|0:0,0:0:0:0:
21,288,108849,6,0,P|123:355|207:373,2,190,4|0|4,1:2|0:0|0:3,0:0:0:0:
205,209,109511,2,0,L|88:179,1,95,0|0,0:0|0:0,0:0:0:0:
356,110,109731,2,0,P|245:65|166:49,1,190,4|0,1:2|0:0,0:0:0:0:
262,36,110062,1,0,0:0:0:0:
477,224,110173,2,0,L|375:242,2,95,2|0|0,1:2|0:0|0:0,0:0:0:0:
147,193,110614,2,0,L|334:143,1,190,4|0,1:2|0:0,0:0:0:0:
108,76,111055,1,4,0:3:0:0:
359,38,111276,1,0,0:0:0:0:
25,222,111496,6,0,P|43:342|108:370,1,190,4|0,1:2|0:0,0:0:0:0:
183,348,111827,1,0,0:0:0:0:
392,270,111937,2,0,L|276:252,1,95,2|0,1:2|0:0,0:0:0:0:
168,133,112158,2,0,L|268:113,1,95,0|0,0:0|0:0,0:0:0:0:
490,42,112379,2,0,P|455:-21|339:-22,1,190,4|0,1:2|0:0,0:0:0:0:
49,269,112820,1,2,1:2:0:0:
406,304,113040,1,0,0:0:0:0:
27,158,113261,6,0,L|230:113,1,190,4|0,1:2|0:0,0:0:0:0:
104,146,113591,1,0,0:0:0:0:
220,179,113701,1,2,1:2:0:0:
116,221,113811,1,0,0:0:0:0:
333,321,113923,1,0,0:0:0:0:
219,335,114033,1,0,0:0:0:0:
448,364,114143,6,0,P|491:317|444:196,1,190,4|4,1:2|0:3,0:0:0:0:
70,152,114584,5,4,0:3:0:0:
476,7,114805,5,4,0:3:0:0:
110,61,115026,6,0,P|71:138|149:206,1,190,4|0,1:2|0:0,0:0:0:0:
228,215,115356,1,0,0:0:0:0:
140,304,115467,2,0,L|17:331,1,95,2|0,1:2|0:0,0:0:0:0:
366,345,115687,1,0,0:0:0:0:
50,181,115908,1,4,1:2:0:0:
363,108,116129,1,0,0:0:0:0:
147,211,116349,2,0,L|262:225,1,95,2|0,1:2|0:0,0:0:0:0:
343,339,116570,2,0,L|225:355,1,95,0|0,0:0|0:0,0:0:0:0:
480,231,116790,6,0,L|365:218,1,95,4|0,1:2|0:0,0:0:0:0:
269,123,117011,2,0,L|366:107,1,95,0|0,0:0|0:0,0:0:0:0:
169,65,117231,1,2,1:2:0:0:
135,150,117341,1,0,0:0:0:0:
184,227,117451,1,0,0:0:0:0:
275,234,117561,1,0,0:0:0:0:
52,365,117673,2,0,P|17:283|93:223,1,190,4|0,1:2|0:0,0:0:0:0:
380,129,118114,1,4,0:3:0:0:
69,97,118334,1,0,0:0:0:0:
443,186,118555,5,4,1:2:0:0:
353,203,118665,1,0,0:0:0:0:
318,287,118775,1,0,0:0:0:0:
370,362,118885,1,0,0:0:0:0:
461,360,118996,2,0,L|350:364,1,95,4|0,1:2|0:0,0:0:0:0:
259,293,119217,2,0,L|364:279,1,95,0|0,0:0|0:0,0:0:0:0:
133,200,119437,6,0,L|26:186,1,95,4|0,1:2|0:0,0:0:0:0:
173,115,119658,2,0,L|70:98,1,95,0|0,0:0|0:0,0:0:0:0:
198,29,119879,2,0,L|303:11,1,95,4|0,1:2|0:0,0:0:0:0:
179,288,120099,2,0,L|54:280,1,95,0|0,0:0|0:0,0:0:0:0:
335,210,120320,6,0,L|224:204,1,95,4|0,1:2|0:0,0:0:0:0:
37,199,120540,2,0,L|146:187,1,95
334,67,120761,2,0,L|234:50,1,95,0|0,1:0|0:0,0:0:0:0:
39,19,120981,2,0,L|152:-2,1,95,0|0,0:0|0:0,0:0:0:0:
432,197,121202,6,0,L|494:290,1,95,0|0,1:0|1:0,0:0:0:0:
288,278,121423,2,0,L|383:339,1,95,0|0,1:0|1:0,0:0:0:0:
166,364,121643,2,0,L|297:391,1,95,0|0,1:0|1:0,0:0:0:0:
42,302,121864,2,0,L|152:273,1,95,0|0,1:0|1:0,0:0:0:0:
432,197,122084,5,4,0:3:0:0:
32,134,122305,1,0,0:0:0:0:
256,192,122415,12,0,129143,0:0:0:0:
