osu file format v14

[General]
AudioFilename: audio.mp3
AudioLeadIn: 0
PreviewTime: 21117
Countdown: 0
SampleSet: None
StackLeniency: 0.7
Mode: 3
LetterboxInBreaks: 0
SpecialStyle: 0
WidescreenStoryboard: 0

[Editor]
DistanceSpacing: 0.8
BeatDivisor: 4
GridSize: 8
TimelineZoom: 1.9

[Metadata]
Title:Texas Is Forever
TitleUnicode:Texas Is Forever
Artist:Pierce The Veil
ArtistUnicode:Pierce The Veil
Creator:puxtu
Version:MX
Source:
Tags:Kaifin pishifat Milan- pkhg fieryrage Bakari PXT PTV Misadventures Vic Fuentes Equal Vision Fearless Records Post-hardcore Progressive Punk Alternative Rock
BeatmapID:967643
BeatmapSetID:451070

[Difficulty]
HPDrainRate:8.8
CircleSize:4
OverallDifficulty:8.5
ApproachRate:5
SliderMultiplier:1.4
SliderTickRate:1

[Events]
//Background and Video events
0,0,"12412846_p0.jpg",0,0
//Break Periods
//Storyboard Layer 0 (Background)
//Storyboard Layer 1 (Fail)
//Storyboard Layer 2 (Pass)
//Storyboard Layer 3 (Foreground)
//Storyboard Sound Samples

[TimingPoints]
4275,263.157894736842,4,3,1,50,1,0
12696,-100,4,3,1,50,0,1
19011,-100,4,3,1,50,0,0
50590,-100,4,3,1,50,0,1
67169,-100,4,3,1,50,0,0
109538,-100,4,3,1,50,0,1
117959,-100,4,3,1,50,0,0
119011,-100,4,3,1,50,0,1
126380,-100,4,3,1,50,0,0

[HitObjects]
448,192,4274,5,0,0:0:0:0:
320,192,4274,1,8,0:0:0:0:
64,192,4274,1,4,0:0:0:0:
320,192,4406,1,8,0:0:0:0:
448,192,4406,1,0,0:0:0:0:
64,192,4406,1,4,0:0:0:0:
64,192,6380,1,4,0:0:0:0:
192,192,6380,1,8,0:0:0:0:
448,192,6380,1,0,0:0:0:0:
64,192,6511,1,4,0:0:0:0:
448,192,6511,1,0,0:0:0:0:
192,192,6511,1,8,0:0:0:0:
448,192,8485,1,0,0:0:0:0:
192,192,8485,1,4,0:0:0:0:
64,192,8485,1,2,0:0:0:0:
320,192,8551,1,0,0:0:0:0:
192,192,8617,1,0,0:0:0:0:
448,192,8682,1,0,0:0:0:0:
320,192,8748,1,4,0:0:0:0:
64,192,8748,1,8,0:0:0:0:
192,192,8814,1,0,0:0:0:0:
448,192,8880,1,0,0:0:0:0:
320,192,8946,1,0,0:0:0:0:
192,192,9011,1,4,0:0:0:0:
64,192,9011,1,8,0:0:0:0:
448,192,9077,1,0,0:0:0:0:
320,192,9143,1,0,0:0:0:0:
64,192,9209,1,0,0:0:0:0:
192,192,9274,1,8,0:0:0:0:
448,192,9274,1,4,0:0:0:0:
320,192,9340,1,0,0:0:0:0:
64,192,9406,1,0,0:0:0:0:
192,192,9472,1,0,0:0:0:0:
320,192,9538,1,4,0:0:0:0:
448,192,9538,1,8,0:0:0:0:
64,192,9603,1,0,0:0:0:0:
192,192,9669,1,0,0:0:0:0:
320,192,9735,1,0,0:0:0:0:
64,192,9801,1,4,0:0:0:0:
448,192,9801,1,8,0:0:0:0:
192,192,9867,1,0,0:0:0:0:
320,192,9932,1,0,0:0:0:0:
448,192,9998,1,0,0:0:0:0:
192,192,10064,1,4,0:0:0:0:
64,192,10064,1,8,0:0:0:0:
320,192,10130,1,0,0:0:0:0:
448,192,10196,1,0,0:0:0:0:
192,192,10261,1,0,0:0:0:0:
64,192,10327,1,8,0:0:0:0:
320,192,10327,1,4,0:0:0:0:
448,192,10393,1,0,0:0:0:0:
192,192,10459,1,0,0:0:0:0:
64,192,10524,1,0,0:0:0:0:
448,192,10590,1,8,0:0:0:0:
320,192,10590,1,4,0:0:0:0:
192,192,10722,1,4,0:0:0:0:
64,192,10722,1,8,0:0:0:0:
320,192,10853,1,4,0:0:0:0:
448,192,10853,1,0,0:0:0:0:
192,192,10919,1,4,0:0:0:0:
64,192,10985,1,4,0:0:0:0:
448,192,10985,1,8,0:0:0:0:
320,192,11117,1,4,0:0:0:0:
192,192,11117,1,0,0:0:0:0:
192,192,11248,1,4,0:0:0:0:
448,192,11248,1,8,0:0:0:0:
64,192,11380,1,4,0:0:0:0:
320,192,11380,1,0,0:0:0:0:
192,192,11446,1,4,0:0:0:0:
320,192,11511,1,4,0:0:0:0:
448,192,11511,1,8,0:0:0:0:
64,192,11643,1,4,0:0:0:0:
192,192,11643,1,0,0:0:0:0:
320,192,11774,1,0,0:0:0:0:
448,192,11774,1,0,0:0:0:0:
192,192,11840,1,0,0:0:0:0:
64,192,11906,1,0,0:0:0:0:
448,192,11906,1,4,0:0:0:0:
320,192,12038,1,4,0:0:0:0:
192,192,12038,1,0,0:0:0:0:
320,192,12169,1,4,0:0:0:0:
64,192,12169,1,8,0:0:0:0:
448,192,12169,1,0,0:0:0:0:
192,192,12432,1,0,2:0:0:0:
448,192,12696,1,0,0:0:0:0:
192,192,12696,1,4,0:0:0:0:
64,192,12696,1,2,0:0:0:0:
320,192,12827,1,8,0:0:0:0:
448,192,12827,1,4,0:0:0:0:
192,192,12959,1,4,0:0:0:0:
64,192,12959,1,0,0:0:0:0:
320,192,13024,1,4,0:0:0:0:
448,192,13090,1,4,0:0:0:0:
64,192,13090,1,8,0:0:0:0:
192,192,13222,1,4,0:0:0:0:
320,192,13222,1,0,0:0:0:0:
320,192,13353,1,4,0:0:0:0:
64,192,13353,1,8,0:0:0:0:
448,192,13485,1,4,0:0:0:0:
192,192,13485,1,0,0:0:0:0:
320,192,13551,1,4,0:0:0:0:
64,192,13617,1,8,0:0:0:0:
192,192,13617,1,4,0:0:0:0:
448,192,13748,1,4,0:0:0:0:
320,192,13748,1,0,0:0:0:0:
320,192,13880,1,4,0:0:0:0:
64,192,13880,1,8,0:0:0:0:
192,192,14011,1,4,0:0:0:0:
448,192,14011,1,0,0:0:0:0:
320,192,14077,1,4,0:0:0:0:
448,192,14143,1,4,0:0:0:0:
64,192,14143,1,8,0:0:0:0:
192,192,14274,1,4,0:0:0:0:
64,192,14274,1,0,0:0:0:0:
448,192,14406,1,8,0:0:0:0:
320,192,14406,1,4,0:0:0:0:
64,192,14538,1,4,0:0:0:0:
448,192,14538,1,0,0:0:0:0:
192,192,14603,1,4,0:0:0:0:
320,192,14669,1,8,0:0:0:0:
448,192,14669,1,4,0:0:0:0:
64,192,14801,1,4,0:0:0:0:
192,192,14801,1,0,0:0:0:0:
320,192,14932,1,4,0:0:0:0:
192,192,14932,1,8,0:0:0:0:
448,192,15064,1,4,0:0:0:0:
64,192,15064,1,0,0:0:0:0:
320,192,15130,1,4,0:0:0:0:
192,192,15196,1,4,0:0:0:0:
64,192,15196,1,8,0:0:0:0:
448,192,15327,1,4,0:0:0:0:
192,192,15327,1,0,0:0:0:0:
64,192,15459,1,8,0:0:0:0:
320,192,15459,1,4,0:0:0:0:
192,192,15590,1,4,0:0:0:0:
448,192,15590,1,0,0:0:0:0:
320,192,15656,1,4,0:0:0:0:
64,192,15722,1,8,0:0:0:0:
192,192,15722,1,4,0:0:0:0:
448,192,15853,1,4,0:0:0:0:
64,192,15853,1,0,0:0:0:0:
320,192,15985,1,4,0:0:0:0:
448,192,15985,1,8,0:0:0:0:
64,192,16117,1,4,0:0:0:0:
192,192,16117,1,0,0:0:0:0:
320,192,16182,1,4,0:0:0:0:
448,192,16248,1,4,0:0:0:0:
192,192,16248,1,8,0:0:0:0:
320,192,16380,1,4,0:0:0:0:
64,192,16380,1,0,0:0:0:0:
192,192,16511,1,8,0:0:0:0:
320,192,16511,1,4,0:0:0:0:
64,192,16643,1,4,0:0:0:0:
448,192,16643,1,0,0:0:0:0:
192,192,16709,1,4,0:0:0:0:
320,192,16774,1,8,0:0:0:0:
448,192,16774,1,4,0:0:0:0:
64,192,16906,1,4,0:0:0:0:
192,192,16906,1,0,0:0:0:0:
448,192,16906,1,2,0:0:0:0:
192,192,17038,1,0,0:0:0:0:
320,192,17038,1,8,0:0:0:0:
64,192,17169,1,4,0:0:0:0:
448,192,17169,1,0,0:0:0:0:
192,192,17235,1,4,0:0:0:0:
320,192,17301,1,8,0:0:0:0:
64,192,17301,1,4,0:0:0:0:
448,192,17432,1,0,0:0:0:0:
192,192,17432,1,4,0:0:0:0:
320,192,17564,1,4,0:0:0:0:
64,192,17564,1,8,0:0:0:0:
192,192,17696,1,0,0:0:0:0:
448,192,17696,1,4,0:0:0:0:
320,192,17761,1,4,0:0:0:0:
448,192,17827,1,4,0:0:0:0:
64,192,17827,1,8,0:0:0:0:
320,192,17959,1,0,0:0:0:0:
192,192,17959,1,4,0:0:0:0:
448,192,18090,1,8,0:0:0:0:
64,192,18090,1,4,0:0:0:0:
320,192,18222,1,4,0:0:0:0:
192,192,18222,1,0,0:0:0:0:
64,192,18288,1,4,0:0:0:0:
320,192,18353,1,4,0:0:0:0:
448,192,18353,1,8,0:0:0:0:
192,192,18485,1,4,0:0:0:0:
64,192,18485,1,0,0:0:0:0:
320,192,18617,1,4,0:0:0:0:
448,192,18617,1,8,0:0:0:0:
192,192,18748,1,4,0:0:0:0:
64,192,18748,1,0,0:0:0:0:
320,192,18814,1,4,0:0:0:0:
448,192,18880,1,4,0:0:0:0:
64,192,18880,1,8,0:0:0:0:
320,192,19011,1,4,2:0:0:0:
192,192,19011,1,0,0:0:0:0:
448,192,19011,1,4,0:0:0:0:
192,192,19274,1,4,0:0:0:0:
64,192,19274,1,0,0:0:0:0:
192,192,19538,1,4,0:0:0:0:
320,192,19538,1,0,0:0:0:0:
320,192,19801,1,0,0:0:0:0:
448,192,19801,1,4,0:0:0:0:
192,192,19932,1,8,0:0:0:0:
64,192,19932,1,4,0:0:0:0:
320,192,19998,1,8,0:0:0:0:
64,192,20064,1,4,0:0:0:0:
192,192,20064,1,8,0:0:0:0:
448,192,20064,128,4,21117:2:0:0:0:
192,192,21117,1,2,0:0:0:0:
320,192,21117,1,4,0:0:0:0:
64,192,21117,1,0,0:0:0:0:
448,192,21248,1,4,0:0:0:0:
64,192,21248,1,8,0:0:0:0:
320,192,21380,1,4,0:0:0:0:
192,192,21380,1,0,0:0:0:0:
64,192,21446,1,4,0:0:0:0:
192,192,21511,1,4,0:0:0:0:
448,192,21511,1,8,0:0:0:0:
320,192,21643,1,4,0:0:0:0:
64,192,21643,1,0,0:0:0:0:
448,192,21774,1,4,0:0:0:0:
192,192,21774,1,8,0:0:0:0:
64,192,21906,1,4,0:0:0:0:
448,192,21906,1,0,0:0:0:0:
320,192,21972,1,4,0:0:0:0:
192,192,22038,1,4,0:0:0:0:
64,192,22038,1,8,0:0:0:0:
448,192,22169,1,4,0:0:0:0:
320,192,22169,1,0,0:0:0:0:
320,192,22301,1,4,0:0:0:0:
192,192,22301,1,8,0:0:0:0:
64,192,22432,1,4,0:0:0:0:
448,192,22432,1,0,0:0:0:0:
192,192,22498,1,4,0:0:0:0:
448,192,22564,1,8,0:0:0:0:
320,192,22564,1,4,0:0:0:0:
64,192,22696,1,4,0:0:0:0:
192,192,22696,1,0,0:0:0:0:
192,192,22827,1,4,0:0:0:0:
448,192,22827,1,8,0:0:0:0:
320,192,22959,1,4,0:0:0:0:
64,192,22959,1,0,0:0:0:0:
192,192,23024,1,4,0:0:0:0:
64,192,23090,1,4,0:0:0:0:
448,192,23090,1,8,0:0:0:0:
320,192,23222,1,4,0:0:0:0:
192,192,23222,1,0,0:0:0:0:
448,192,23353,1,4,0:0:0:0:
64,192,23353,1,8,0:0:0:0:
320,192,23485,1,4,0:0:0:0:
192,192,23485,1,0,0:0:0:0:
448,192,23551,1,4,0:0:0:0:
192,192,23617,1,8,0:0:0:0:
64,192,23617,1,4,0:0:0:0:
320,192,23748,1,4,0:0:0:0:
448,192,23748,1,0,0:0:0:0:
192,192,23880,1,4,0:0:0:0:
64,192,23880,1,8,0:0:0:0:
320,192,24011,1,4,0:0:0:0:
448,192,24011,1,0,0:0:0:0:
192,192,24077,1,4,0:0:0:0:
64,192,24143,1,4,0:0:0:0:
448,192,24143,1,8,0:0:0:0:
320,192,24274,1,0,0:0:0:0:
192,192,24274,1,4,0:0:0:0:
448,192,24406,1,8,0:0:0:0:
64,192,24406,1,4,0:0:0:0:
192,192,24538,1,0,0:0:0:0:
320,192,24538,1,4,0:0:0:0:
448,192,24603,1,4,0:0:0:0:
192,192,24669,1,4,0:0:0:0:
64,192,24669,1,8,0:0:0:0:
320,192,24801,1,4,0:0:0:0:
448,192,24801,1,0,0:0:0:0:
192,192,24932,1,4,0:0:0:0:
64,192,24932,1,8,0:0:0:0:
320,192,25064,1,4,0:0:0:0:
448,192,25064,1,0,0:0:0:0:
192,192,25130,1,4,0:0:0:0:
64,192,25196,1,8,0:0:0:0:
320,192,25196,1,4,0:0:0:0:
192,192,25327,1,0,0:0:0:0:
448,192,25327,1,4,0:0:0:0:
320,192,25459,1,4,0:0:0:0:
64,192,25459,1,8,0:0:0:0:
448,192,25590,1,4,0:0:0:0:
320,192,25590,1,0,0:0:0:0:
192,192,25656,1,4,0:0:0:0:
448,192,25722,1,4,0:0:0:0:
64,192,25722,1,8,0:0:0:0:
192,192,25853,1,4,0:0:0:0:
320,192,25853,1,0,0:0:0:0:
64,192,25985,1,4,0:0:0:0:
448,192,25985,1,8,0:0:0:0:
320,192,26117,1,4,0:0:0:0:
64,192,26117,1,0,0:0:0:0:
192,192,26182,1,4,0:0:0:0:
320,192,26248,1,4,0:0:0:0:
448,192,26248,1,8,0:0:0:0:
64,192,26380,1,4,0:0:0:0:
448,192,26380,1,0,0:0:0:0:
192,192,26511,1,4,0:0:0:0:
320,192,26511,1,8,0:0:0:0:
448,192,26643,1,4,0:0:0:0:
64,192,26643,1,0,0:0:0:0:
320,192,26709,1,4,0:0:0:0:
64,192,26774,1,8,0:0:0:0:
192,192,26774,1,4,0:0:0:0:
448,192,26906,1,4,0:0:0:0:
192,192,26906,1,0,0:0:0:0:
320,192,27038,1,4,0:0:0:0:
64,192,27038,1,8,0:0:0:0:
192,192,27169,1,4,0:0:0:0:
448,192,27169,1,0,0:0:0:0:
320,192,27235,1,4,0:0:0:0:
448,192,27301,1,4,0:0:0:0:
64,192,27301,1,8,0:0:0:0:
192,192,27432,1,4,0:0:0:0:
320,192,27432,1,0,0:0:0:0:
64,192,27564,1,4,0:0:0:0:
448,192,27564,1,8,0:0:0:0:
192,192,27696,1,4,0:0:0:0:
320,192,27696,1,0,0:0:0:0:
64,192,27761,1,4,0:0:0:0:
192,192,27827,1,8,0:0:0:0:
448,192,27827,1,4,0:0:0:0:
320,192,27959,1,4,0:0:0:0:
64,192,27959,1,0,0:0:0:0:
192,192,28090,1,4,0:0:0:0:
448,192,28090,1,8,0:0:0:0:
320,192,28222,1,4,0:0:0:0:
64,192,28222,1,0,0:0:0:0:
192,192,28288,1,4,0:0:0:0:
448,192,28353,1,4,0:0:0:0:
320,192,28353,1,8,0:0:0:0:
192,192,28485,1,0,0:0:0:0:
64,192,28485,1,4,0:0:0:0:
320,192,28617,1,8,0:0:0:0:
448,192,28617,1,4,0:0:0:0:
64,192,28748,1,0,0:0:0:0:
192,192,28748,1,4,0:0:0:0:
320,192,28814,1,4,0:0:0:0:
64,192,28880,1,4,0:0:0:0:
448,192,28880,1,8,0:0:0:0:
192,192,29011,1,4,0:0:0:0:
448,192,29143,1,8,0:0:0:0:
320,192,29143,1,4,0:0:0:0:
320,192,29274,1,4,0:0:0:0:
448,192,29274,1,8,0:0:0:0:
320,192,29406,1,4,0:0:0:0:
448,192,29406,1,8,0:0:0:0:
448,192,29538,1,2,0:0:0:0:
64,192,29538,1,4,0:0:0:0:
192,192,29538,1,0,0:0:0:0:
320,192,29669,1,4,0:0:0:0:
64,192,29669,1,8,0:0:0:0:
192,192,29801,1,4,0:0:0:0:
448,192,29801,1,0,0:0:0:0:
320,192,29867,1,4,0:0:0:0:
448,192,29932,1,4,0:0:0:0:
64,192,29932,1,8,0:0:0:0:
192,192,30064,1,4,0:0:0:0:
320,192,30064,1,0,0:0:0:0:
64,192,30196,1,4,0:0:0:0:
448,192,30196,1,8,0:0:0:0:
320,192,30327,1,4,0:0:0:0:
192,192,30327,1,0,0:0:0:0:
64,192,30393,1,4,0:0:0:0:
320,192,30459,1,4,0:0:0:0:
448,192,30459,1,8,0:0:0:0:
64,192,30590,1,4,0:0:0:0:
192,192,30590,1,0,0:0:0:0:
448,192,30722,1,4,0:0:0:0:
320,192,30722,1,8,0:0:0:0:
192,192,30853,1,4,0:0:0:0:
64,192,30853,1,0,0:0:0:0:
448,192,30919,1,4,0:0:0:0:
320,192,30985,1,8,0:0:0:0:
192,192,30985,1,4,0:0:0:0:
448,192,31117,1,4,0:0:0:0:
64,192,31117,1,0,0:0:0:0:
320,192,31248,1,4,0:0:0:0:
192,192,31248,1,8,0:0:0:0:
64,192,31380,1,4,0:0:0:0:
448,192,31380,1,0,0:0:0:0:
320,192,31446,1,4,0:0:0:0:
448,192,31511,1,4,0:0:0:0:
192,192,31511,1,8,0:0:0:0:
192,192,31643,1,4,0:0:0:0:
320,192,31643,1,2,0:0:0:0:
64,192,31643,1,0,0:0:0:0:
64,192,31774,1,4,0:0:0:0:
448,192,31774,1,8,0:0:0:0:
320,192,31774,1,0,0:0:0:0:
64,192,32038,1,8,0:0:0:0:
320,192,32038,1,4,0:0:0:0:
448,192,32038,1,0,0:0:0:0:
320,192,32301,1,4,0:0:0:0:
448,192,32301,1,8,0:0:0:0:
64,192,32301,1,0,0:0:0:0:
320,192,32564,1,4,0:0:0:0:
64,192,32564,1,8,0:0:0:0:
448,192,32564,1,0,0:0:0:0:
192,192,32696,1,4,0:0:0:0:
320,192,32827,1,4,2:0:0:0:
64,192,32827,1,8,0:0:0:0:
448,192,32827,1,4,0:0:0:0:
64,192,32959,1,4,0:0:0:0:
192,192,33090,1,8,0:0:0:0:
448,192,33090,1,4,0:0:0:0:
320,192,33090,1,4,2:0:0:0:
448,192,33222,1,4,0:0:0:0:
320,192,33353,1,4,2:0:0:0:
192,192,33353,1,4,0:0:0:0:
64,192,33353,1,8,0:0:0:0:
64,192,33617,1,8,0:0:0:0:
320,192,33617,1,4,0:0:0:0:
448,192,33617,1,4,2:0:0:0:
192,192,33682,1,0,0:0:0:0:
448,192,33748,1,2,0:0:0:0:
64,192,33748,1,4,0:0:0:0:
320,192,33748,1,0,0:0:0:0:
320,192,33880,1,4,0:0:0:0:
192,192,33880,1,8,0:0:0:0:
64,192,34011,1,4,0:0:0:0:
448,192,34011,1,0,0:0:0:0:
192,192,34077,1,4,0:0:0:0:
320,192,34143,1,4,0:0:0:0:
448,192,34143,1,8,0:0:0:0:
64,192,34274,1,4,0:0:0:0:
192,192,34274,1,0,0:0:0:0:
192,192,34406,1,4,0:0:0:0:
448,192,34406,1,8,0:0:0:0:
320,192,34538,1,4,0:0:0:0:
64,192,34538,1,0,0:0:0:0:
192,192,34603,1,4,0:0:0:0:
320,192,34669,1,4,0:0:0:0:
448,192,34669,1,8,0:0:0:0:
64,192,34801,1,4,0:0:0:0:
192,192,34801,1,2,0:0:0:0:
192,192,34932,1,4,0:0:0:0:
320,192,34932,1,8,0:0:0:0:
448,192,35064,1,4,0:0:0:0:
64,192,35064,1,0,0:0:0:0:
320,192,35130,1,4,0:0:0:0:
64,192,35196,1,8,0:0:0:0:
192,192,35196,1,4,0:0:0:0:
448,192,35327,1,4,0:0:0:0:
192,192,35327,1,0,0:0:0:0:
320,192,35459,1,4,0:0:0:0:
64,192,35459,1,8,0:0:0:0:
192,192,35590,1,4,0:0:0:0:
448,192,35590,1,0,0:0:0:0:
320,192,35656,1,4,0:0:0:0:
448,192,35722,1,4,0:0:0:0:
64,192,35722,1,8,0:0:0:0:
192,192,35853,1,4,0:0:0:0:
320,192,35853,1,2,0:0:0:0:
448,192,35853,1,0,0:0:0:0:
64,192,36117,1,0,0:0:0:0:
320,192,36117,1,4,0:0:0:0:
192,192,36182,1,4,0:0:0:0:
320,192,36248,1,4,0:0:0:0:
448,192,36248,1,8,0:0:0:0:
192,192,36380,1,4,0:0:0:0:
320,192,36511,1,4,0:0:0:0:
64,192,36511,1,8,0:0:0:0:
448,192,36643,1,4,0:0:0:0:
320,192,36774,1,4,0:0:0:0:
192,192,36774,1,8,0:0:0:0:
64,192,36774,1,4,2:0:0:0:
448,192,37959,1,0,0:0:0:0:
192,192,37959,1,4,0:0:0:0:
64,192,37959,1,2,0:0:0:0:
448,192,38090,1,8,0:0:0:0:
320,192,38090,1,4,0:0:0:0:
192,192,38222,1,4,0:0:0:0:
64,192,38222,1,0,0:0:0:0:
320,192,38288,1,4,0:0:0:0:
448,192,38353,1,8,0:0:0:0:
192,192,38353,1,4,0:0:0:0:
320,192,38485,1,0,0:0:0:0:
64,192,38485,1,4,0:0:0:0:
192,192,38617,1,4,0:0:0:0:
448,192,38617,1,8,0:0:0:0:
320,192,38748,1,4,0:0:0:0:
64,192,38748,1,0,0:0:0:0:
192,192,38814,1,4,0:0:0:0:
448,192,38880,1,8,0:0:0:0:
64,192,38880,1,4,0:0:0:0:
192,192,39011,1,4,0:0:0:0:
320,192,39011,1,0,0:0:0:0:
64,192,39143,1,4,0:0:0:0:
448,192,39143,1,8,0:0:0:0:
320,192,39274,1,0,0:0:0:0:
192,192,39274,1,4,0:0:0:0:
448,192,39340,1,4,0:0:0:0:
64,192,39406,1,4,0:0:0:0:
192,192,39406,1,8,0:0:0:0:
320,192,39538,1,0,0:0:0:0:
448,192,39538,1,4,0:0:0:0:
64,192,39669,1,8,0:0:0:0:
192,192,39669,1,4,0:0:0:0:
320,192,39801,1,4,0:0:0:0:
448,192,39801,1,0,0:0:0:0:
192,192,39867,1,4,0:0:0:0:
64,192,39932,1,8,0:0:0:0:
320,192,39932,1,4,0:0:0:0:
192,192,40064,1,0,0:0:0:0:
448,192,40064,1,4,0:0:0:0:
320,192,40196,1,4,0:0:0:0:
64,192,40196,1,8,0:0:0:0:
192,192,40327,1,4,0:0:0:0:
448,192,40327,1,0,0:0:0:0:
320,192,40393,1,4,0:0:0:0:
64,192,40459,1,8,0:0:0:0:
448,192,40459,1,4,0:0:0:0:
320,192,40590,1,4,0:0:0:0:
192,192,40590,1,0,0:0:0:0:
448,192,40722,1,4,0:0:0:0:
64,192,40722,1,8,0:0:0:0:
192,192,40853,1,0,0:0:0:0:
320,192,40853,1,4,0:0:0:0:
64,192,40919,1,4,0:0:0:0:
448,192,40985,1,4,0:0:0:0:
320,192,40985,1,8,0:0:0:0:
192,192,41117,1,0,0:0:0:0:
64,192,41117,1,4,0:0:0:0:
448,192,41248,1,8,0:0:0:0:
320,192,41248,1,4,0:0:0:0:
192,192,41380,1,4,0:0:0:0:
64,192,41380,1,0,0:0:0:0:
320,192,41446,1,4,0:0:0:0:
448,192,41511,1,8,0:0:0:0:
192,192,41511,1,4,0:0:0:0:
320,192,41643,1,0,0:0:0:0:
64,192,41643,1,4,0:0:0:0:
192,192,41774,1,4,0:0:0:0:
448,192,41774,1,8,0:0:0:0:
320,192,41906,1,4,0:0:0:0:
64,192,41906,1,0,0:0:0:0:
192,192,41972,1,4,0:0:0:0:
448,192,42038,1,8,0:0:0:0:
64,192,42038,1,4,0:0:0:0:
192,192,42169,1,4,0:0:0:0:
320,192,42169,1,0,0:0:0:0:
64,192,42301,1,4,0:0:0:0:
448,192,42301,1,8,0:0:0:0:
320,192,42432,1,0,0:0:0:0:
192,192,42432,1,4,0:0:0:0:
448,192,42498,1,4,0:0:0:0:
64,192,42564,1,4,0:0:0:0:
192,192,42564,1,8,0:0:0:0:
320,192,42696,1,0,0:0:0:0:
448,192,42696,1,4,0:0:0:0:
64,192,42827,1,8,0:0:0:0:
192,192,42827,1,4,0:0:0:0:
320,192,42959,1,4,0:0:0:0:
448,192,42959,1,0,0:0:0:0:
192,192,43024,1,4,0:0:0:0:
64,192,43090,1,8,0:0:0:0:
320,192,43090,1,4,0:0:0:0:
192,192,43222,1,0,0:0:0:0:
448,192,43222,1,4,0:0:0:0:
320,192,43353,1,4,0:0:0:0:
64,192,43353,1,8,0:0:0:0:
192,192,43485,1,4,0:0:0:0:
448,192,43485,1,0,0:0:0:0:
320,192,43551,1,4,0:0:0:0:
64,192,43617,1,8,0:0:0:0:
448,192,43617,1,4,0:0:0:0:
320,192,43748,1,4,0:0:0:0:
192,192,43748,1,0,0:0:0:0:
448,192,43880,1,4,0:0:0:0:
64,192,43880,1,8,0:0:0:0:
192,192,44011,1,0,0:0:0:0:
320,192,44011,1,4,0:0:0:0:
64,192,44077,1,4,0:0:0:0:
448,192,44143,1,4,0:0:0:0:
320,192,44143,1,8,0:0:0:0:
192,192,44274,1,0,0:0:0:0:
64,192,44274,1,4,0:0:0:0:
448,192,44406,1,8,0:0:0:0:
320,192,44406,1,4,0:0:0:0:
64,192,44538,1,0,0:0:0:0:
192,192,44538,1,4,0:0:0:0:
320,192,44603,1,4,0:0:0:0:
448,192,44669,1,8,0:0:0:0:
192,192,44669,1,4,0:0:0:0:
320,192,44801,1,0,0:0:0:0:
64,192,44801,1,4,0:0:0:0:
192,192,44932,1,4,0:0:0:0:
448,192,44932,1,8,0:0:0:0:
320,192,45064,1,4,0:0:0:0:
64,192,45064,1,0,0:0:0:0:
192,192,45130,1,4,0:0:0:0:
448,192,45196,1,8,0:0:0:0:
64,192,45196,1,4,0:0:0:0:
192,192,45327,1,4,0:0:0:0:
320,192,45327,1,0,0:0:0:0:
64,192,45459,1,4,0:0:0:0:
448,192,45459,1,8,0:0:0:0:
320,192,45590,1,0,0:0:0:0:
192,192,45590,1,4,0:0:0:0:
448,192,45656,1,4,0:0:0:0:
64,192,45722,1,4,0:0:0:0:
192,192,45722,1,8,0:0:0:0:
320,192,45853,1,2,0:0:0:0:
448,192,45853,1,4,0:0:0:0:
64,192,45985,1,8,0:0:0:0:
192,192,45985,1,4,0:0:0:0:
320,192,46117,1,4,0:0:0:0:
448,192,46117,1,8,0:0:0:0:
192,192,46248,1,4,0:0:0:0:
64,192,46248,1,8,0:0:0:0:
448,192,46380,1,2,0:0:0:0:
320,192,46380,1,4,0:0:0:0:
64,192,46380,1,0,0:0:0:0:
448,192,46511,1,4,0:0:0:0:
320,192,46643,1,8,0:0:0:0:
192,192,46643,1,4,0:0:0:0:
64,192,46643,1,0,0:0:0:0:
448,192,46774,1,4,0:0:0:0:
192,192,46906,1,4,0:0:0:0:
320,192,46906,1,0,0:0:0:0:
192,192,47038,1,4,0:0:0:0:
320,192,47169,1,8,0:0:0:0:
64,192,47169,1,0,0:0:0:0:
448,192,47169,1,4,0:0:0:0:
192,192,47301,1,4,0:0:0:0:
64,192,47432,1,4,0:0:0:0:
320,192,47432,1,0,0:0:0:0:
320,192,47564,1,4,0:0:0:0:
448,192,47696,1,8,0:0:0:0:
192,192,47696,1,0,0:0:0:0:
64,192,47696,1,4,0:0:0:0:
320,192,47827,1,4,0:0:0:0:
448,192,47959,1,0,0:0:0:0:
64,192,47959,1,4,0:0:0:0:
64,192,48090,1,4,0:0:0:0:
192,192,48222,1,4,0:0:0:0:
448,192,48222,1,0,0:0:0:0:
320,192,48222,1,8,0:0:0:0:
64,192,48353,1,4,0:0:0:0:
320,192,48485,1,0,0:0:0:0:
448,192,48485,1,4,0:0:0:0:
320,192,48617,1,0,0:0:0:0:
64,192,48748,1,0,0:0:0:0:
64,192,48880,1,0,0:0:0:0:
192,192,49143,1,0,0:0:0:0:
320,192,49209,1,0,0:0:0:0:
192,192,49274,1,0,0:0:0:0:
448,192,49406,1,0,0:0:0:0:
192,192,49538,1,0,0:0:0:0:
320,192,49538,1,8,0:0:0:0:
64,192,49538,1,4,0:0:0:0:
448,192,49669,1,4,0:0:0:0:
320,192,49735,1,4,0:0:0:0:
192,192,49801,1,4,0:0:0:0:
448,192,49932,1,0,0:0:0:0:
64,192,50064,1,4,0:0:0:0:
320,192,50064,1,8,0:0:0:0:
192,192,50196,1,0,0:0:0:0:
320,192,50327,1,4,2:0:0:0:
64,192,50327,1,8,0:0:0:0:
448,192,50327,1,4,0:0:0:0:
192,192,50590,1,4,0:0:0:0:
64,192,50590,1,4,2:0:0:0:
448,192,50590,1,2,0:0:0:0:
192,192,50853,1,4,0:0:0:0:
320,192,50853,1,0,0:0:0:0:
320,192,50985,1,0,0:0:0:0:
192,192,50985,1,4,0:0:0:0:
64,192,51117,1,4,2:0:0:0:
448,192,51117,1,0,0:0:0:0:
320,192,51248,1,0,0:0:0:0:
192,192,51248,1,4,0:0:0:0:
320,192,51380,1,0,0:0:0:0:
192,192,51380,1,4,0:0:0:0:
64,192,51643,1,4,2:0:0:0:
448,192,51643,1,4,0:0:0:0:
192,192,51643,1,8,0:0:0:0:
320,192,51906,1,0,0:0:0:0:
64,192,52169,1,4,2:0:0:0:
448,192,52169,1,0,0:0:0:0:
192,192,52432,1,0,0:0:0:0:
64,192,52696,1,4,2:0:0:0:
320,192,52696,1,0,0:0:0:0:
192,192,52959,1,4,0:0:0:0:
448,192,52959,1,0,0:0:0:0:
448,192,53090,1,0,0:0:0:0:
192,192,53090,1,4,0:0:0:0:
64,192,53222,1,4,2:0:0:0:
320,192,53222,1,0,0:0:0:0:
192,192,53353,1,4,0:0:0:0:
448,192,53353,1,0,0:0:0:0:
448,192,53485,1,0,0:0:0:0:
192,192,53485,1,4,0:0:0:0:
64,192,53748,1,4,2:0:0:0:
320,192,53748,1,4,0:0:0:0:
448,192,53748,1,8,0:0:0:0:
192,192,54011,1,0,0:0:0:0:
320,192,54011,1,4,0:0:0:0:
64,192,54274,1,4,2:0:0:0:
448,192,54274,1,4,0:0:0:0:
320,192,54538,1,4,0:0:0:0:
64,192,54538,1,0,0:0:0:0:
192,192,54801,1,4,2:0:0:0:
320,192,54801,1,4,0:0:0:0:
448,192,55064,1,4,0:0:0:0:
64,192,55064,1,0,0:0:0:0:
448,192,55196,1,4,0:0:0:0:
64,192,55196,1,0,0:0:0:0:
192,192,55327,1,4,2:0:0:0:
320,192,55327,1,0,0:0:0:0:
448,192,55459,1,4,0:0:0:0:
64,192,55459,1,0,0:0:0:0:
64,192,55590,1,0,0:0:0:0:
448,192,55590,1,4,0:0:0:0:
192,192,55853,1,4,2:0:0:0:
320,192,55853,1,4,0:0:0:0:
448,192,55853,1,8,0:0:0:0:
320,192,56117,1,0,0:0:0:0:
64,192,56380,1,4,2:0:0:0:
192,192,56380,1,0,0:0:0:0:
448,192,56643,1,4,0:0:0:0:
192,192,56643,1,0,0:0:0:0:
320,192,56906,1,4,2:0:0:0:
448,192,56906,1,0,0:0:0:0:
192,192,57169,1,0,0:0:0:0:
64,192,57169,1,4,0:0:0:0:
64,192,57301,1,4,0:0:0:0:
192,192,57301,1,0,0:0:0:0:
448,192,57432,1,4,2:0:0:0:
320,192,57432,1,0,0:0:0:0:
192,192,57564,1,8,0:0:0:0:
64,192,57564,1,4,0:0:0:0:
320,192,57696,1,4,0:0:0:0:
448,192,57696,1,0,0:0:0:0:
448,192,57827,1,0,0:0:0:0:
320,192,57827,1,4,0:0:0:0:
64,192,57959,1,4,2:0:0:0:
320,192,57959,1,4,0:0:0:0:
448,192,57959,1,8,0:0:0:0:
320,192,58090,1,8,0:0:0:0:
448,192,58090,1,4,0:0:0:0:
192,192,58156,1,8,0:0:0:0:
64,192,58222,1,8,0:0:0:0:
448,192,58222,1,4,0:0:0:0:
320,192,58353,1,4,0:0:0:0:
192,192,58353,1,8,0:0:0:0:
64,192,58485,1,4,0:0:0:0:
192,192,58551,1,4,0:0:0:0:
448,192,58617,1,4,0:0:0:0:
320,192,58682,1,4,0:0:0:0:
192,192,58748,1,4,0:0:0:0:
64,192,58748,1,8,0:0:0:0:
320,192,58880,1,4,0:0:0:0:
448,192,58880,1,8,0:0:0:0:
192,192,59011,1,4,0:0:0:0:
64,192,59011,1,2,0:0:0:0:
448,192,59011,1,0,0:0:0:0:
320,192,59274,1,8,0:0:0:0:
448,192,59274,1,0,0:0:0:0:
64,192,59274,1,4,0:0:0:0:
192,192,59538,1,4,0:0:0:0:
448,192,59538,1,0,0:0:0:0:
320,192,59669,1,4,0:0:0:0:
192,192,59801,1,4,0:0:0:0:
64,192,59801,1,8,0:0:0:0:
448,192,59801,1,0,0:0:0:0:
320,192,59932,1,0,0:0:0:0:
64,192,60064,1,0,0:0:0:0:
192,192,60064,1,4,0:0:0:0:
448,192,60196,1,4,0:0:0:0:
64,192,60327,1,8,0:0:0:0:
192,192,60327,1,4,0:0:0:0:
320,192,60327,1,0,0:0:0:0:
64,192,60590,1,4,0:0:0:0:
448,192,60590,1,0,0:0:0:0:
192,192,60722,1,4,0:0:0:0:
320,192,60853,1,4,0:0:0:0:
64,192,60853,1,8,0:0:0:0:
448,192,60985,1,4,0:0:0:0:
192,192,60985,1,8,0:0:0:0:
320,192,61117,1,0,0:0:0:0:
64,192,61117,1,4,0:0:0:0:
448,192,61248,1,4,0:0:0:0:
64,192,61380,1,8,0:0:0:0:
320,192,61380,1,4,0:0:0:0:
192,192,61380,1,0,0:0:0:0:
192,192,61643,1,4,0:0:0:0:
448,192,61643,1,0,0:0:0:0:
320,192,61774,1,4,0:0:0:0:
448,192,61906,1,0,0:0:0:0:
192,192,61906,1,4,0:0:0:0:
64,192,61906,1,8,0:0:0:0:
448,192,62169,1,0,0:0:0:0:
320,192,62169,1,4,0:0:0:0:
64,192,62301,1,4,0:0:0:0:
320,192,62432,1,8,0:0:0:0:
192,192,62432,1,4,0:0:0:0:
448,192,62432,1,0,0:0:0:0:
448,192,62696,1,4,0:0:0:0:
64,192,62696,1,0,0:0:0:0:
320,192,62827,1,4,0:0:0:0:
64,192,62893,1,8,0:0:0:0:
192,192,62893,1,4,0:0:0:0:
448,192,62959,1,8,0:0:0:0:
320,192,62959,1,4,0:0:0:0:
192,192,63090,1,4,0:0:0:0:
64,192,63090,1,8,0:0:0:0:
448,192,63222,1,4,0:0:0:0:
320,192,63222,1,2,0:0:0:0:
64,192,63222,1,0,0:0:0:0:
192,192,63485,1,0,0:0:0:0:
320,192,63485,1,8,0:0:0:0:
448,192,63485,1,4,0:0:0:0:
64,192,63748,1,0,0:0:0:0:
192,192,63748,1,4,0:0:0:0:
320,192,63880,1,4,0:0:0:0:
64,192,64011,1,8,0:0:0:0:
192,192,64011,1,4,0:0:0:0:
448,192,64011,1,0,0:0:0:0:
320,192,64274,1,4,0:0:0:0:
448,192,64274,1,0,0:0:0:0:
64,192,64406,1,0,0:0:0:0:
192,192,64472,1,0,0:0:0:0:
320,192,64538,1,0,0:0:0:0:
64,192,64538,1,4,0:0:0:0:
448,192,64669,1,0,0:0:0:0:
192,192,64801,1,0,0:0:0:0:
64,192,64801,1,4,0:0:0:0:
320,192,64932,1,0,0:0:0:0:
448,192,65064,1,4,2:0:0:0:
192,192,65064,1,4,0:0:0:0:
64,192,65064,1,8,0:0:0:0:
320,192,65327,1,4,0:0:0:0:
64,192,65327,128,0,66380:0:0:0:0:
448,192,65327,128,2,66314:0:0:0:0:
192,192,65327,1,4,2:0:0:0:
320,192,66380,1,8,0:0:0:0:
448,192,66380,1,0,0:0:0:0:
192,192,66446,1,8,0:0:0:0:
64,192,66446,1,4,0:0:0:0:
448,192,66511,1,4,0:0:0:0:
64,192,66577,1,4,0:0:0:0:
320,192,66643,1,4,0:0:0:0:
192,192,66709,1,4,0:0:0:0:
448,192,66774,1,4,0:0:0:0:
320,192,66774,1,8,0:0:0:0:
192,192,66840,1,8,0:0:0:0:
64,192,66840,1,4,0:0:0:0:
448,192,66906,1,4,0:0:0:0:
320,192,66906,1,8,0:0:0:0:
64,192,66972,1,4,0:0:0:0:
192,192,66972,1,8,0:0:0:0:
448,192,67038,1,0,0:0:0:0:
64,192,67103,1,4,0:0:0:0:
320,192,67169,1,4,0:0:0:0:
448,192,67169,1,8,0:0:0:0:
192,192,67301,1,4,0:0:0:0:
64,192,67301,1,8,0:0:0:0:
192,192,67432,1,2,0:0:0:0:
320,192,67432,1,4,0:0:0:0:
448,192,67432,1,0,0:0:0:0:
320,192,67564,1,8,0:0:0:0:
64,192,67564,1,4,0:0:0:0:
192,192,67696,1,4,0:0:0:0:
448,192,67696,1,0,0:0:0:0:
320,192,67761,1,4,0:0:0:0:
448,192,67827,1,4,0:0:0:0:
64,192,67827,1,8,0:0:0:0:
320,192,67959,1,4,0:0:0:0:
192,192,67959,1,0,0:0:0:0:
64,192,68090,1,4,0:0:0:0:
448,192,68090,1,8,0:0:0:0:
192,192,68222,1,4,0:0:0:0:
320,192,68222,1,0,0:0:0:0:
64,192,68288,1,4,0:0:0:0:
448,192,68353,1,8,0:0:0:0:
320,192,68353,1,4,0:0:0:0:
64,192,68485,1,4,0:0:0:0:
192,192,68485,1,0,0:0:0:0:
192,192,68617,1,4,0:0:0:0:
448,192,68617,1,8,0:0:0:0:
320,192,68748,1,4,0:0:0:0:
64,192,68748,1,0,0:0:0:0:
192,192,68814,1,4,0:0:0:0:
64,192,68880,1,4,0:0:0:0:
448,192,68880,1,8,0:0:0:0:
320,192,69011,1,4,0:0:0:0:
192,192,69011,1,0,0:0:0:0:
64,192,69143,1,8,0:0:0:0:
192,192,69143,1,4,0:0:0:0:
448,192,69274,1,4,0:0:0:0:
320,192,69274,1,0,0:0:0:0:
192,192,69340,1,4,0:0:0:0:
448,192,69406,1,8,0:0:0:0:
64,192,69406,1,4,0:0:0:0:
192,192,69538,1,2,0:0:0:0:
320,192,69538,1,4,0:0:0:0:
448,192,69669,1,4,0:0:0:0:
64,192,69669,1,8,0:0:0:0:
320,192,69801,1,4,0:0:0:0:
64,192,69801,1,0,0:0:0:0:
192,192,69867,1,4,0:0:0:0:
320,192,69932,1,4,0:0:0:0:
448,192,69932,1,8,0:0:0:0:
64,192,70064,1,4,0:0:0:0:
192,192,70064,1,0,0:0:0:0:
448,192,70196,1,8,0:0:0:0:
320,192,70196,1,4,0:0:0:0:
192,192,70327,1,4,0:0:0:0:
64,192,70327,1,0,0:0:0:0:
320,192,70393,1,4,0:0:0:0:
448,192,70459,1,8,0:0:0:0:
64,192,70459,1,4,0:0:0:0:
320,192,70590,1,4,0:0:0:0:
192,192,70590,1,0,0:0:0:0:
192,192,70722,1,4,0:0:0:0:
448,192,70722,1,8,0:0:0:0:
320,192,70853,1,4,0:0:0:0:
64,192,70853,1,0,0:0:0:0:
448,192,70919,1,4,0:0:0:0:
192,192,70985,1,4,0:0:0:0:
320,192,70985,1,8,0:0:0:0:
64,192,71117,1,4,0:0:0:0:
448,192,71117,1,0,0:0:0:0:
320,192,71248,1,8,0:0:0:0:
192,192,71248,1,4,0:0:0:0:
448,192,71380,1,4,0:0:0:0:
64,192,71380,1,0,0:0:0:0:
192,192,71446,1,4,0:0:0:0:
448,192,71511,1,8,0:0:0:0:
320,192,71511,1,4,0:0:0:0:
320,192,71643,1,4,0:0:0:0:
64,192,71643,1,2,0:0:0:0:
192,192,71774,1,8,0:0:0:0:
448,192,71774,1,4,0:0:0:0:
64,192,71906,1,0,0:0:0:0:
320,192,71906,1,4,0:0:0:0:
192,192,71972,1,4,0:0:0:0:
320,192,72038,1,8,0:0:0:0:
448,192,72038,1,4,0:0:0:0:
64,192,72169,1,0,0:0:0:0:
448,192,72169,1,4,0:0:0:0:
192,192,72301,1,4,0:0:0:0:
64,192,72301,1,8,0:0:0:0:
320,192,72432,1,0,0:0:0:0:
448,192,72432,1,4,0:0:0:0:
192,192,72498,1,4,0:0:0:0:
64,192,72564,1,4,0:0:0:0:
448,192,72564,1,8,0:0:0:0:
192,192,72696,1,0,0:0:0:0:
320,192,72696,1,4,0:0:0:0:
64,192,72827,1,8,0:0:0:0:
448,192,72827,1,4,0:0:0:0:
192,192,72959,1,4,0:0:0:0:
320,192,72959,1,0,0:0:0:0:
448,192,73024,1,4,0:0:0:0:
192,192,73090,1,4,0:0:0:0:
64,192,73090,1,8,0:0:0:0:
320,192,73222,1,4,0:0:0:0:
448,192,73222,1,0,0:0:0:0:
192,192,73353,1,4,0:0:0:0:
64,192,73353,1,8,0:0:0:0:
320,192,73485,1,4,0:0:0:0:
448,192,73485,1,0,0:0:0:0:
64,192,73617,1,4,0:0:0:0:
192,192,73617,1,8,0:0:0:0:
448,192,73748,1,4,2:0:0:0:
320,192,73748,1,0,0:0:0:0:
64,192,73748,1,4,0:0:0:0:
448,192,73880,1,0,0:0:0:0:
192,192,73880,1,4,0:0:0:0:
448,192,74143,1,0,0:0:0:0:
192,192,74143,1,4,0:0:0:0:
64,192,74143,1,8,0:0:0:0:
320,192,74406,1,4,0:0:0:0:
64,192,74406,1,0,0:0:0:0:
448,192,74669,1,0,0:0:0:0:
64,192,74669,1,4,0:0:0:0:
448,192,74801,1,0,0:0:0:0:
320,192,74801,1,4,0:0:0:0:
192,192,74801,1,8,0:0:0:0:
64,192,75853,1,2,0:0:0:0:
192,192,75853,1,4,0:0:0:0:
448,192,75853,1,0,0:0:0:0:
320,192,75985,1,4,0:0:0:0:
448,192,75985,1,8,0:0:0:0:
192,192,76117,1,4,0:0:0:0:
64,192,76117,1,0,0:0:0:0:
448,192,76182,1,4,0:0:0:0:
320,192,76248,1,4,0:0:0:0:
64,192,76248,1,8,0:0:0:0:
192,192,76380,1,4,0:0:0:0:
320,192,76380,1,0,0:0:0:0:
64,192,76511,1,4,0:0:0:0:
448,192,76511,1,8,0:0:0:0:
320,192,76643,1,4,0:0:0:0:
64,192,76643,1,0,0:0:0:0:
192,192,76709,1,4,0:0:0:0:
320,192,76774,1,4,0:0:0:0:
448,192,76774,1,8,0:0:0:0:
64,192,76906,1,4,0:0:0:0:
192,192,76906,1,0,0:0:0:0:
192,192,77038,1,4,0:0:0:0:
320,192,77038,1,8,0:0:0:0:
448,192,77169,1,4,0:0:0:0:
64,192,77169,1,0,0:0:0:0:
320,192,77235,1,4,0:0:0:0:
64,192,77301,1,8,0:0:0:0:
192,192,77301,1,4,0:0:0:0:
448,192,77432,1,4,0:0:0:0:
192,192,77432,1,0,0:0:0:0:
320,192,77564,1,4,0:0:0:0:
64,192,77564,1,8,0:0:0:0:
192,192,77696,1,4,0:0:0:0:
448,192,77696,1,0,0:0:0:0:
320,192,77761,1,4,0:0:0:0:
448,192,77827,1,4,0:0:0:0:
64,192,77827,1,8,0:0:0:0:
192,192,77959,1,4,0:0:0:0:
320,192,77959,1,2,0:0:0:0:
448,192,78090,1,4,0:0:0:0:
64,192,78090,1,8,0:0:0:0:
320,192,78222,1,4,0:0:0:0:
192,192,78222,1,0,0:0:0:0:
64,192,78288,1,4,0:0:0:0:
192,192,78353,1,4,0:0:0:0:
448,192,78353,1,8,0:0:0:0:
320,192,78485,1,4,0:0:0:0:
64,192,78485,1,0,0:0:0:0:
448,192,78617,1,4,0:0:0:0:
192,192,78617,1,8,0:0:0:0:
64,192,78748,1,4,0:0:0:0:
320,192,78748,1,0,0:0:0:0:
192,192,78814,1,4,0:0:0:0:
448,192,78880,1,4,0:0:0:0:
320,192,78880,1,8,0:0:0:0:
64,192,79011,1,4,0:0:0:0:
192,192,79011,1,0,0:0:0:0:
320,192,79143,1,4,0:0:0:0:
192,192,79143,1,8,0:0:0:0:
448,192,79274,1,4,0:0:0:0:
64,192,79274,1,0,0:0:0:0:
192,192,79340,1,4,0:0:0:0:
64,192,79406,1,8,0:0:0:0:
320,192,79406,1,4,0:0:0:0:
192,192,79538,1,4,0:0:0:0:
448,192,79538,1,0,0:0:0:0:
64,192,79669,1,4,0:0:0:0:
320,192,79669,1,8,0:0:0:0:
448,192,79801,1,4,0:0:0:0:
192,192,79801,1,0,0:0:0:0:
320,192,79867,1,4,0:0:0:0:
64,192,79932,1,4,0:0:0:0:
448,192,79932,1,8,0:0:0:0:
192,192,80064,1,4,0:0:0:0:
320,192,80064,1,2,0:0:0:0:
64,192,80196,1,4,0:0:0:0:
448,192,80196,1,8,0:0:0:0:
192,192,80327,1,4,0:0:0:0:
320,192,80327,1,0,0:0:0:0:
64,192,80393,1,4,0:0:0:0:
320,192,80459,1,8,0:0:0:0:
448,192,80459,1,4,0:0:0:0:
192,192,80590,1,4,0:0:0:0:
64,192,80590,1,0,0:0:0:0:
320,192,80722,1,4,0:0:0:0:
448,192,80722,1,8,0:0:0:0:
192,192,80853,1,4,0:0:0:0:
64,192,80853,1,0,0:0:0:0:
320,192,80919,1,4,0:0:0:0:
448,192,80985,1,4,0:0:0:0:
64,192,80985,1,8,0:0:0:0:
192,192,81117,1,0,0:0:0:0:
320,192,81117,1,4,0:0:0:0:
64,192,81248,1,8,0:0:0:0:
448,192,81248,1,4,0:0:0:0:
320,192,81380,1,0,0:0:0:0:
192,192,81380,1,4,0:0:0:0:
64,192,81446,1,4,0:0:0:0:
320,192,81511,1,4,0:0:0:0:
448,192,81511,1,8,0:0:0:0:
192,192,81643,1,4,0:0:0:0:
64,192,81643,1,0,0:0:0:0:
320,192,81774,1,4,0:0:0:0:
448,192,81774,1,8,0:0:0:0:
192,192,81906,1,4,0:0:0:0:
64,192,81906,1,0,0:0:0:0:
320,192,81972,1,4,0:0:0:0:
448,192,82038,1,8,0:0:0:0:
192,192,82038,1,4,0:0:0:0:
320,192,82169,1,2,0:0:0:0:
64,192,82169,1,4,0:0:0:0:
448,192,82301,1,4,0:0:0:0:
192,192,82301,1,8,0:0:0:0:
320,192,82432,1,4,0:0:0:0:
64,192,82432,1,0,0:0:0:0:
448,192,82498,1,4,0:0:0:0:
192,192,82564,1,8,0:0:0:0:
64,192,82564,1,4,0:0:0:0:
320,192,82696,1,4,0:0:0:0:
448,192,82696,1,0,0:0:0:0:
192,192,82827,1,4,0:0:0:0:
64,192,82827,1,8,0:0:0:0:
448,192,82959,1,4,0:0:0:0:
64,192,82959,1,0,0:0:0:0:
320,192,83090,1,4,0:0:0:0:
192,192,83090,1,8,0:0:0:0:
448,192,83222,1,4,0:0:0:0:
192,192,83222,1,0,0:0:0:0:
64,192,83222,1,8,0:0:0:0:
192,192,83485,1,4,0:0:0:0:
320,192,83485,1,8,0:0:0:0:
64,192,83551,1,12,0:0:0:0:
320,192,83617,1,4,0:0:0:0:
448,192,83617,1,8,0:0:0:0:
192,192,83682,1,12,0:0:0:0:
448,192,83748,1,4,2:0:0:0:
64,192,83748,1,4,0:0:0:0:
320,192,83748,1,0,0:0:0:0:
192,192,83946,1,4,0:0:0:0:
448,192,83946,1,0,0:0:0:0:
64,192,84143,1,4,0:0:0:0:
448,192,84143,1,8,0:0:0:0:
192,192,84274,1,2,0:0:0:0:
320,192,84274,1,4,0:0:0:0:
64,192,84274,1,0,0:0:0:0:
192,192,84406,1,4,0:0:0:0:
448,192,84406,1,8,0:0:0:0:
320,192,84538,1,4,0:0:0:0:
448,192,84538,1,0,0:0:0:0:
64,192,84603,1,4,0:0:0:0:
192,192,84669,1,4,0:0:0:0:
320,192,84669,1,8,0:0:0:0:
448,192,84801,1,4,0:0:0:0:
64,192,84801,1,0,0:0:0:0:
320,192,84932,1,4,0:0:0:0:
192,192,84932,1,8,0:0:0:0:
64,192,85064,1,4,0:0:0:0:
448,192,85064,1,0,0:0:0:0:
320,192,85130,1,4,0:0:0:0:
192,192,85196,1,4,0:0:0:0:
64,192,85196,1,8,0:0:0:0:
448,192,85327,1,4,0:0:0:0:
320,192,85327,1,0,0:0:0:0:
64,192,85459,1,4,0:0:0:0:
192,192,85459,1,8,0:0:0:0:
320,192,85590,1,4,0:0:0:0:
448,192,85590,1,0,0:0:0:0:
64,192,85656,1,4,0:0:0:0:
448,192,85722,1,8,0:0:0:0:
192,192,85722,1,4,0:0:0:0:
64,192,85853,1,4,0:0:0:0:
320,192,85853,1,0,0:0:0:0:
192,192,85985,1,4,0:0:0:0:
448,192,85985,1,8,0:0:0:0:
320,192,86117,1,4,0:0:0:0:
64,192,86117,1,0,0:0:0:0:
192,192,86182,1,4,0:0:0:0:
64,192,86248,1,4,0:0:0:0:
448,192,86248,1,8,0:0:0:0:
320,192,86380,1,4,0:0:0:0:
192,192,86380,1,0,0:0:0:0:
64,192,86511,1,4,0:0:0:0:
448,192,86511,1,8,0:0:0:0:
192,192,86643,1,4,0:0:0:0:
320,192,86643,1,0,0:0:0:0:
448,192,86709,1,4,0:0:0:0:
320,192,86774,1,4,0:0:0:0:
64,192,86774,1,8,0:0:0:0:
192,192,86906,1,4,0:0:0:0:
448,192,86906,1,0,0:0:0:0:
64,192,87038,1,4,0:0:0:0:
320,192,87038,1,8,0:0:0:0:
448,192,87169,1,4,0:0:0:0:
192,192,87169,1,0,0:0:0:0:
320,192,87235,1,4,0:0:0:0:
64,192,87301,1,4,0:0:0:0:
192,192,87301,1,8,0:0:0:0:
448,192,87432,1,4,0:0:0:0:
64,192,87432,1,0,0:0:0:0:
192,192,87564,1,4,0:0:0:0:
320,192,87564,1,8,0:0:0:0:
64,192,87696,1,4,0:0:0:0:
320,192,87696,1,0,0:0:0:0:
448,192,87827,1,8,0:0:0:0:
192,192,87827,1,4,0:0:0:0:
320,192,87959,1,4,0:0:0:0:
64,192,87959,1,0,0:0:0:0:
448,192,87959,1,4,2:0:0:0:
320,192,88222,1,4,0:0:0:0:
448,192,88222,1,4,2:0:0:0:
64,192,88222,1,0,0:0:0:0:
192,192,88485,1,2,0:0:0:0:
64,192,88485,1,4,2:0:0:0:
320,192,88485,1,4,0:0:0:0:
448,192,88617,1,4,0:0:0:0:
64,192,88617,1,8,0:0:0:0:
320,192,88748,1,4,0:0:0:0:
192,192,88748,1,0,0:0:0:0:
448,192,88814,1,4,0:0:0:0:
192,192,88880,1,8,0:0:0:0:
64,192,88880,1,4,0:0:0:0:
320,192,89011,1,4,0:0:0:0:
448,192,89011,1,0,0:0:0:0:
192,192,89143,1,4,0:0:0:0:
64,192,89143,1,8,0:0:0:0:
320,192,89274,1,4,0:0:0:0:
448,192,89274,1,0,0:0:0:0:
192,192,89340,1,4,0:0:0:0:
64,192,89406,1,4,0:0:0:0:
448,192,89406,1,8,0:0:0:0:
320,192,89538,1,0,0:0:0:0:
192,192,89538,1,4,0:0:0:0:
448,192,89669,1,8,0:0:0:0:
64,192,89669,1,4,0:0:0:0:
192,192,89801,1,0,0:0:0:0:
320,192,89801,1,4,0:0:0:0:
448,192,89867,1,4,0:0:0:0:
192,192,89932,1,4,0:0:0:0:
64,192,89932,1,8,0:0:0:0:
320,192,90064,1,4,0:0:0:0:
448,192,90064,1,0,0:0:0:0:
192,192,90196,1,4,0:0:0:0:
64,192,90196,1,8,0:0:0:0:
320,192,90327,1,4,0:0:0:0:
448,192,90327,1,0,0:0:0:0:
192,192,90393,1,4,0:0:0:0:
64,192,90459,1,8,0:0:0:0:
320,192,90459,1,4,0:0:0:0:
448,192,90590,1,4,0:0:0:0:
192,192,90590,1,0,0:0:0:0:
64,192,90722,1,4,0:0:0:0:
320,192,90722,1,8,0:0:0:0:
192,192,90853,1,4,0:0:0:0:
448,192,90853,1,0,0:0:0:0:
64,192,90919,1,4,0:0:0:0:
320,192,90985,1,8,0:0:0:0:
192,192,90985,1,4,0:0:0:0:
448,192,91117,1,4,0:0:0:0:
64,192,91117,1,0,0:0:0:0:
320,192,91248,1,4,0:0:0:0:
192,192,91248,1,8,0:0:0:0:
64,192,91380,1,4,0:0:0:0:
448,192,91380,1,0,0:0:0:0:
320,192,91446,1,4,0:0:0:0:
64,192,91511,1,4,0:0:0:0:
192,192,91511,1,8,0:0:0:0:
320,192,91643,1,4,0:0:0:0:
448,192,91643,1,8,0:0:0:0:
192,192,91709,1,8,0:0:0:0:
64,192,91709,1,4,0:0:0:0:
320,192,91774,1,4,0:0:0:0:
448,192,91774,1,8,0:0:0:0:
64,192,91840,1,0,0:0:0:0:
192,192,91906,1,8,0:0:0:0:
320,192,91906,1,4,0:0:0:0:
448,192,91972,1,0,0:0:0:0:
64,192,92038,1,0,0:0:0:0:
192,192,92103,1,0,0:0:0:0:
320,192,92169,1,8,0:0:0:0:
448,192,92169,1,4,0:0:0:0:
64,192,92235,1,0,0:0:0:0:
192,192,92301,1,0,0:0:0:0:
448,192,92367,1,0,0:0:0:0:
320,192,92432,1,4,0:0:0:0:
64,192,92432,1,8,0:0:0:0:
192,192,92498,1,0,0:0:0:0:
448,192,92564,1,0,0:0:0:0:
320,192,92630,1,0,0:0:0:0:
64,192,92696,1,0,0:0:0:0:
192,192,92696,1,8,0:0:0:0:
448,192,92696,1,4,0:0:0:0:
192,192,92827,1,8,0:0:0:0:
320,192,92827,1,4,0:0:0:0:
64,192,92827,1,0,0:0:0:0:
64,192,94801,1,0,0:0:0:0:
320,192,94801,1,4,0:0:0:0:
192,192,94801,1,8,0:0:0:0:
192,192,94932,1,8,0:0:0:0:
320,192,94932,1,4,0:0:0:0:
64,192,94932,1,0,0:0:0:0:
64,192,96906,1,0,0:0:0:0:
320,192,96906,1,4,0:0:0:0:
448,192,96906,1,8,0:0:0:0:
448,192,97038,1,8,0:0:0:0:
320,192,97038,1,4,0:0:0:0:
64,192,97038,1,0,0:0:0:0:
320,192,99011,1,4,0:0:0:0:
192,192,99011,1,0,0:0:0:0:
192,192,99274,1,0,0:0:0:0:
320,192,99274,1,4,0:0:0:0:
192,192,99538,1,0,0:0:0:0:
320,192,99538,1,4,0:0:0:0:
192,192,99801,1,0,0:0:0:0:
448,192,99801,1,4,0:0:0:0:
64,192,99801,1,0,3:0:0:0:
448,192,100064,1,4,0:0:0:0:
192,192,100064,1,0,0:0:0:0:
64,192,100064,1,0,3:0:0:0:
192,192,100327,1,0,0:0:0:0:
64,192,100327,1,4,0:0:0:0:
448,192,100327,1,0,3:0:0:0:
64,192,100590,1,0,0:0:0:0:
448,192,100590,1,4,0:0:0:0:
192,192,100656,1,0,0:0:0:0:
320,192,100722,1,0,0:0:0:0:
448,192,100722,1,4,0:0:0:0:
192,192,100853,1,8,0:0:0:0:
64,192,100853,1,4,0:0:0:0:
320,192,100853,1,4,2:0:0:0:
64,192,101117,1,2,0:0:0:0:
192,192,101117,1,4,0:0:0:0:
448,192,101117,1,0,0:0:0:0:
320,192,101248,1,4,0:0:0:0:
192,192,101380,1,8,0:0:0:0:
64,192,101380,1,4,0:0:0:0:
448,192,101380,1,4,2:0:0:0:
320,192,101511,1,4,0:0:0:0:
64,192,101643,1,4,0:0:0:0:
448,192,101643,1,0,0:0:0:0:
192,192,101774,1,4,0:0:0:0:
320,192,101906,1,8,0:0:0:0:
448,192,101906,1,4,2:0:0:0:
64,192,101906,1,4,0:0:0:0:
192,192,102038,1,4,0:0:0:0:
448,192,102169,1,4,0:0:0:0:
320,192,102169,1,0,0:0:0:0:
64,192,102301,1,4,0:0:0:0:
192,192,102432,1,8,0:0:0:0:
320,192,102432,1,4,2:0:0:0:
448,192,102432,1,4,0:0:0:0:
64,192,102564,1,4,0:0:0:0:
192,192,102696,1,0,0:0:0:0:
320,192,102696,1,4,0:0:0:0:
448,192,102827,1,4,0:0:0:0:
320,192,102959,1,4,0:0:0:0:
64,192,102959,1,4,2:0:0:0:
192,192,102959,1,8,0:0:0:0:
448,192,103090,1,4,0:0:0:0:
320,192,103222,1,8,0:0:0:0:
64,192,103222,1,4,0:0:0:0:
448,192,103222,1,4,2:0:0:0:
192,192,103353,1,4,0:0:0:0:
64,192,103485,1,4,0:0:0:0:
448,192,103485,1,4,2:0:0:0:
192,192,103485,1,8,0:0:0:0:
320,192,103617,1,4,0:0:0:0:
320,192,103748,1,8,0:0:0:0:
448,192,103748,1,4,2:0:0:0:
192,192,103748,1,4,0:0:0:0:
64,192,103880,1,4,0:0:0:0:
320,192,104011,1,4,0:0:0:0:
192,192,104011,1,4,2:0:0:0:
64,192,104011,1,8,0:0:0:0:
448,192,104143,1,4,0:0:0:0:
64,192,104274,1,8,0:0:0:0:
448,192,104274,1,4,2:0:0:0:
320,192,104274,1,4,0:0:0:0:
192,192,104406,1,4,0:0:0:0:
64,192,104538,1,4,0:0:0:0:
448,192,104538,1,4,2:0:0:0:
192,192,104538,1,8,0:0:0:0:
320,192,104669,1,4,0:0:0:0:
192,192,104801,1,8,0:0:0:0:
320,192,104801,1,4,2:0:0:0:
448,192,104801,1,4,0:0:0:0:
64,192,104932,1,4,0:0:0:0:
64,192,105064,1,4,0:0:0:0:
320,192,105064,1,4,2:0:0:0:
192,192,105064,1,8,0:0:0:0:
448,192,105196,1,4,0:0:0:0:
192,192,105327,1,8,0:0:0:0:
448,192,105327,1,4,2:0:0:0:
64,192,105327,1,4,0:0:0:0:
320,192,105590,1,0,0:0:0:0:
320,192,105722,1,0,0:0:0:0:
64,192,105985,1,0,0:0:0:0:
64,192,106117,1,0,0:0:0:0:
448,192,106380,1,0,0:0:0:0:
320,192,106643,1,0,0:0:0:0:
320,192,106774,1,0,0:0:0:0:
320,192,106906,1,0,0:0:0:0:
192,192,107169,1,0,0:0:0:0:
64,192,107235,1,0,0:0:0:0:
448,192,107301,1,0,0:0:0:0:
320,192,107367,1,0,0:0:0:0:
192,192,107432,1,0,0:0:0:0:
192,192,107564,1,0,0:0:0:0:
448,192,107696,1,0,0:0:0:0:
448,192,107827,1,0,0:0:0:0:
64,192,108090,1,0,0:0:0:0:
64,192,108222,1,0,0:0:0:0:
320,192,108485,5,0,0:0:0:0:
320,192,108617,1,0,0:0:0:0:
64,192,108748,1,0,0:0:0:0:
64,192,109011,1,0,0:0:0:0:
64,192,109274,1,0,0:0:0:0:
192,192,109538,5,4,0:0:0:0:
448,192,109538,1,4,2:0:0:0:
64,192,109538,1,2,0:0:0:0:
320,192,109801,1,4,0:0:0:0:
192,192,109801,1,0,0:0:0:0:
192,192,109932,1,0,0:0:0:0:
320,192,109932,1,4,0:0:0:0:
448,192,110064,1,4,2:0:0:0:
64,192,110064,1,0,0:0:0:0:
192,192,110196,1,0,0:0:0:0:
320,192,110196,1,4,0:0:0:0:
192,192,110327,1,0,0:0:0:0:
320,192,110327,1,4,0:0:0:0:
448,192,110590,1,4,2:0:0:0:
64,192,110590,1,4,0:0:0:0:
320,192,110590,1,8,0:0:0:0:
192,192,110853,1,0,0:0:0:0:
448,192,111117,1,4,2:0:0:0:
64,192,111117,1,0,0:0:0:0:
320,192,111380,1,0,0:0:0:0:
448,192,111643,1,4,2:0:0:0:
192,192,111643,1,0,0:0:0:0:
320,192,111906,1,4,0:0:0:0:
64,192,111906,1,0,0:0:0:0:
64,192,112038,1,0,0:0:0:0:
320,192,112038,1,4,0:0:0:0:
448,192,112169,1,4,2:0:0:0:
192,192,112169,1,0,0:0:0:0:
320,192,112301,1,4,0:0:0:0:
64,192,112301,1,0,0:0:0:0:
64,192,112432,1,0,0:0:0:0:
320,192,112432,1,4,0:0:0:0:
64,192,112564,1,0,0:0:0:0:
320,192,112564,1,4,0:0:0:0:
448,192,112696,1,4,2:0:0:0:
192,192,112696,1,4,0:0:0:0:
64,192,112696,1,8,0:0:0:0:
320,192,112959,1,0,0:0:0:0:
192,192,112959,1,4,0:0:0:0:
448,192,113222,1,4,2:0:0:0:
64,192,113222,1,4,0:0:0:0:
192,192,113485,1,4,0:0:0:0:
448,192,113485,1,0,0:0:0:0:
320,192,113748,1,4,2:0:0:0:
192,192,113748,1,4,0:0:0:0:
64,192,114011,1,4,0:0:0:0:
448,192,114011,1,0,0:0:0:0:
64,192,114143,1,4,0:0:0:0:
448,192,114143,1,0,0:0:0:0:
320,192,114274,1,4,2:0:0:0:
192,192,114274,1,0,0:0:0:0:
64,192,114406,1,4,0:0:0:0:
448,192,114406,1,0,0:0:0:0:
448,192,114538,1,0,0:0:0:0:
64,192,114538,1,4,0:0:0:0:
320,192,114801,1,4,2:0:0:0:
192,192,114801,1,4,0:0:0:0:
64,192,114801,1,8,0:0:0:0:
192,192,115064,1,0,0:0:0:0:
448,192,115327,1,4,2:0:0:0:
320,192,115327,1,0,0:0:0:0:
64,192,115590,1,4,0:0:0:0:
320,192,115590,1,0,0:0:0:0:
448,192,115853,1,4,2:0:0:0:
192,192,115853,1,0,0:0:0:0:
320,192,116117,1,0,0:0:0:0:
64,192,116117,1,4,0:0:0:0:
64,192,116248,1,4,0:0:0:0:
320,192,116248,1,0,0:0:0:0:
448,192,116380,1,4,2:0:0:0:
192,192,116380,1,0,0:0:0:0:
320,192,116511,1,8,0:0:0:0:
64,192,116511,1,4,0:0:0:0:
192,192,116643,1,4,0:0:0:0:
448,192,116643,1,0,0:0:0:0:
448,192,116774,1,0,0:0:0:0:
192,192,116774,1,4,0:0:0:0:
448,192,116906,1,4,2:0:0:0:
320,192,116906,1,4,0:0:0:0:
64,192,116906,1,8,0:0:0:0:
320,192,117169,1,0,0:0:0:0:
192,192,117169,1,4,0:0:0:0:
448,192,117432,1,4,0:0:0:0:
64,192,117432,1,4,2:0:0:0:
192,192,117696,1,4,0:0:0:0:
320,192,117696,1,0,0:0:0:0:
320,192,117959,1,4,0:0:0:0:
64,192,117959,1,0,0:0:0:0:
64,192,119011,1,4,2:0:0:0:
320,192,119011,1,4,0:0:0:0:
448,192,119011,1,0,0:0:0:0:
192,192,119274,1,0,0:0:0:0:
64,192,119538,1,4,2:0:0:0:
448,192,119538,1,4,0:0:0:0:
320,192,119801,1,4,0:0:0:0:
64,192,119801,1,0,0:0:0:0:
192,192,120064,1,4,2:0:0:0:
320,192,120064,1,4,0:0:0:0:
448,192,120327,1,4,0:0:0:0:
64,192,120327,1,0,0:0:0:0:
448,192,120459,1,4,0:0:0:0:
64,192,120459,1,0,0:0:0:0:
192,192,120590,1,4,2:0:0:0:
320,192,120590,1,0,0:0:0:0:
448,192,120722,1,4,0:0:0:0:
64,192,120722,1,0,0:0:0:0:
64,192,120853,1,0,0:0:0:0:
448,192,120853,1,4,0:0:0:0:
192,192,121117,1,4,2:0:0:0:
320,192,121117,1,4,0:0:0:0:
448,192,121117,1,8,0:0:0:0:
320,192,121380,1,0,0:0:0:0:
64,192,121380,1,4,0:0:0:0:
64,192,121643,1,4,2:0:0:0:
192,192,121643,1,0,0:0:0:0:
448,192,121906,1,4,0:0:0:0:
192,192,121906,1,0,0:0:0:0:
64,192,122169,1,4,2:0:0:0:
320,192,122169,1,4,0:0:0:0:
192,192,122169,1,8,0:0:0:0:
192,192,122432,1,0,0:0:0:0:
448,192,122432,1,4,0:0:0:0:
448,192,122564,1,4,0:0:0:0:
192,192,122564,1,0,0:0:0:0:
64,192,122696,1,4,2:0:0:0:
320,192,122696,1,0,0:0:0:0:
192,192,122827,1,0,0:0:0:0:
448,192,122827,1,4,0:0:0:0:
448,192,122959,1,4,0:0:0:0:
192,192,122959,1,0,0:0:0:0:
64,192,123222,1,4,2:0:0:0:
192,192,123222,1,4,0:0:0:0:
448,192,123222,1,8,0:0:0:0:
192,192,123485,1,0,0:0:0:0:
320,192,123485,1,4,0:0:0:0:
64,192,123748,1,4,0:0:0:0:
448,192,123748,1,4,2:0:0:0:
320,192,124011,1,4,0:0:0:0:
192,192,124011,1,0,0:0:0:0:
448,192,124274,1,0,0:0:0:0:
192,192,124274,1,4,0:0:0:0:
64,192,124406,1,4,0:0:0:0:
320,192,124406,1,0,0:0:0:0:
192,192,124538,1,0,0:0:0:0:
448,192,124669,1,0,0:0:0:0:
64,192,124801,1,0,0:0:0:0:
320,192,124932,1,4,0:0:0:0:
448,192,124932,1,0,0:0:0:0:
64,192,125064,1,8,0:0:0:0:
192,192,125064,1,4,0:0:0:0:
448,192,125196,1,0,0:0:0:0:
320,192,125196,1,4,0:0:0:0:
64,192,125327,1,0,0:0:0:0:
320,192,125459,1,0,0:0:0:0:
192,192,125590,1,0,0:0:0:0:
64,192,125722,1,4,0:0:0:0:
448,192,125722,1,0,0:0:0:0:
320,192,125853,1,8,0:0:0:0:
192,192,125853,1,4,0:0:0:0:
448,192,125853,128,0,126380:0:0:0:0:
64,192,126117,1,4,0:0:0:0:
192,192,126380,1,4,2:0:0:0:
320,192,126380,1,4,0:0:0:0:
64,192,126380,1,2,0:0:0:0:
448,192,126511,1,0,0:0:0:0:
320,192,126643,1,0,0:0:0:0:
64,192,126643,1,4,0:0:0:0:
320,192,126774,1,4,0:0:0:0:
64,192,126774,1,0,0:0:0:0:
192,192,126906,1,4,2:0:0:0:
448,192,126906,1,0,0:0:0:0:
320,192,127038,1,4,0:0:0:0:
64,192,127038,1,0,0:0:0:0:
320,192,127169,1,0,0:0:0:0:
64,192,127169,1,4,0:0:0:0:
192,192,127301,1,0,0:0:0:0:
448,192,127432,1,4,2:0:0:0:
320,192,127432,1,4,0:0:0:0:
64,192,127432,1,8,0:0:0:0:
192,192,127564,1,0,0:0:0:0:
448,192,127696,1,0,0:0:0:0:
192,192,127827,1,0,0:0:0:0:
64,192,127959,1,4,2:0:0:0:
320,192,127959,1,0,0:0:0:0:
448,192,128090,1,0,0:0:0:0:
192,192,128222,1,0,0:0:0:0:
320,192,128353,1,0,0:0:0:0:
448,192,128485,1,4,2:0:0:0:
192,192,128485,1,0,0:0:0:0:
64,192,128617,1,0,0:0:0:0:
320,192,128748,1,0,0:0:0:0:
192,192,128748,1,4,0:0:0:0:
192,192,128880,1,4,0:0:0:0:
320,192,128880,1,0,0:0:0:0:
448,192,129011,1,4,2:0:0:0:
64,192,129011,1,0,0:0:0:0:
320,192,129143,1,0,0:0:0:0:
192,192,129143,1,4,0:0:0:0:
192,192,129274,1,4,0:0:0:0:
320,192,129274,1,0,0:0:0:0:
448,192,129406,1,0,0:0:0:0:
320,192,129538,1,4,2:0:0:0:
192,192,129538,1,8,0:0:0:0:
64,192,129538,1,4,0:0:0:0:
448,192,129669,1,0,0:0:0:0:
64,192,129801,1,4,0:0:0:0:
320,192,129801,1,0,0:0:0:0:
192,192,129932,1,0,0:0:0:0:
448,192,130064,1,4,2:0:0:0:
64,192,130064,1,4,0:0:0:0:
320,192,130196,1,0,0:0:0:0:
64,192,130327,1,4,0:0:0:0:
192,192,130327,1,0,0:0:0:0:
320,192,130459,1,0,0:0:0:0:
448,192,130590,1,4,2:0:0:0:
64,192,130590,1,0,0:0:0:0:
192,192,130590,1,4,0:0:0:0:
320,192,130722,1,0,0:0:0:0:
64,192,130853,1,4,0:0:0:0:
448,192,130853,1,0,0:0:0:0:
448,192,130985,1,0,0:0:0:0:
64,192,130985,1,4,0:0:0:0:
320,192,131117,1,4,2:0:0:0:
192,192,131117,1,0,0:0:0:0:
64,192,131248,1,4,0:0:0:0:
448,192,131248,1,0,0:0:0:0:
448,192,131380,1,0,0:0:0:0:
64,192,131380,1,4,0:0:0:0:
320,192,131511,1,0,0:0:0:0:
448,192,131643,1,4,2:0:0:0:
192,192,131643,1,4,0:0:0:0:
64,192,131643,1,8,0:0:0:0:
320,192,131774,1,0,0:0:0:0:
64,192,131906,1,0,0:0:0:0:
448,192,132038,1,0,0:0:0:0:
320,192,132169,1,4,2:0:0:0:
192,192,132169,1,0,0:0:0:0:
64,192,132301,1,0,0:0:0:0:
448,192,132432,1,0,0:0:0:0:
192,192,132564,1,0,0:0:0:0:
320,192,132696,1,4,2:0:0:0:
64,192,132696,1,0,0:0:0:0:
448,192,132827,1,0,0:0:0:0:
320,192,132959,1,0,0:0:0:0:
192,192,132959,1,4,0:0:0:0:
192,192,133090,1,4,0:0:0:0:
320,192,133090,1,0,0:0:0:0:
448,192,133222,1,4,2:0:0:0:
64,192,133222,1,0,0:0:0:0:
320,192,133353,1,0,0:0:0:0:
192,192,133353,1,4,0:0:0:0:
192,192,133485,1,4,0:0:0:0:
320,192,133485,1,0,0:0:0:0:
448,192,133617,1,0,0:0:0:0:
320,192,133748,1,4,2:0:0:0:
64,192,133748,1,8,0:0:0:0:
192,192,133748,1,4,0:0:0:0:
448,192,133880,1,0,0:0:0:0:
64,192,134011,1,4,0:0:0:0:
192,192,134011,1,0,0:0:0:0:
320,192,134143,1,0,0:0:0:0:
64,192,134274,1,4,2:0:0:0:
448,192,134274,1,4,0:0:0:0:
192,192,134406,1,0,0:0:0:0:
64,192,134538,1,4,0:0:0:0:
448,192,134538,1,0,0:0:0:0:
320,192,134669,1,0,0:0:0:0:
448,192,134801,1,4,2:0:0:0:
64,192,134801,1,0,0:0:0:0:
192,192,134801,1,4,0:0:0:0:
320,192,134867,1,0,0:0:0:0:
192,192,134932,1,0,0:0:0:0:
448,192,134998,1,0,0:0:0:0:
320,192,135064,1,4,0:0:0:0:
64,192,135064,1,8,0:0:0:0:
192,192,135130,1,0,0:0:0:0:
448,192,135196,1,0,0:0:0:0:
320,192,135261,1,0,0:0:0:0:
192,192,135327,1,4,0:0:0:0:
64,192,135327,1,8,0:0:0:0:
448,192,135393,1,0,0:0:0:0:
320,192,135459,1,0,0:0:0:0:
64,192,135524,1,0,0:0:0:0:
448,192,135590,1,8,0:0:0:0:
192,192,135590,1,4,0:0:0:0:
320,192,135656,1,0,0:0:0:0:
64,192,135722,1,0,0:0:0:0:
192,192,135788,1,0,0:0:0:0:
320,192,135853,1,4,0:0:0:0:
448,192,135853,1,8,0:0:0:0:
64,192,135919,1,0,0:0:0:0:
192,192,135985,1,0,0:0:0:0:
320,192,136051,1,0,0:0:0:0:
448,192,136117,1,4,0:0:0:0:
64,192,136117,1,8,0:0:0:0:
192,192,136182,1,0,0:0:0:0:
320,192,136248,1,0,0:0:0:0:
448,192,136314,1,0,0:0:0:0:
192,192,136380,1,4,0:0:0:0:
64,192,136380,1,8,0:0:0:0:
320,192,136446,1,0,0:0:0:0:
448,192,136511,1,0,0:0:0:0:
192,192,136577,1,0,0:0:0:0:
320,192,136643,1,8,0:0:0:0:
64,192,136643,1,4,0:0:0:0:
448,192,136709,1,0,0:0:0:0:
192,192,136774,1,0,0:0:0:0:
64,192,136840,1,0,0:0:0:0:
320,192,136906,1,4,0:0:0:0:
448,192,136906,1,8,0:0:0:0:
192,192,136972,1,0,0:0:0:0:
64,192,137038,1,0,0:0:0:0:
448,192,137103,1,0,0:0:0:0:
320,192,137169,1,4,0:0:0:0:
192,192,137169,1,8,0:0:0:0:
64,192,137235,1,0,0:0:0:0:
448,192,137301,1,0,0:0:0:0:
320,192,137367,1,0,0:0:0:0:
192,192,137432,1,4,0:0:0:0:
64,192,137432,1,8,0:0:0:0:
448,192,137498,1,0,0:0:0:0:
320,192,137564,1,0,0:0:0:0:
64,192,137630,1,0,0:0:0:0:
448,192,137696,1,8,0:0:0:0:
192,192,137696,1,4,0:0:0:0:
320,192,137761,1,0,0:0:0:0:
64,192,137827,1,0,0:0:0:0:
192,192,137893,1,0,0:0:0:0:
320,192,137959,1,4,0:0:0:0:
448,192,137959,1,8,0:0:0:0:
64,192,138024,1,0,0:0:0:0:
192,192,138090,1,0,0:0:0:0:
320,192,138156,1,0,0:0:0:0:
448,192,138222,1,4,0:0:0:0:
64,192,138222,1,8,0:0:0:0:
192,192,138288,1,0,0:0:0:0:
320,192,138353,1,0,0:0:0:0:
448,192,138419,1,0,0:0:0:0:
192,192,138485,1,4,0:0:0:0:
64,192,138485,1,8,0:0:0:0:
320,192,138551,1,0,0:0:0:0:
448,192,138617,1,0,0:0:0:0:
192,192,138682,1,0,0:0:0:0:
320,192,138748,1,8,0:0:0:0:
64,192,138748,1,4,0:0:0:0:
448,192,138814,1,0,0:0:0:0:
192,192,138880,1,0,0:0:0:0:
64,192,138946,1,0,0:0:0:0:
320,192,139011,1,2,0:0:0:0:
448,192,139011,1,12,0:0:0:0:
192,192,139077,1,0,0:0:0:0:
64,192,139143,1,0,0:0:0:0:
448,192,139209,1,0,0:0:0:0:
320,192,139274,1,4,0:0:0:0:
192,192,139274,1,8,0:0:0:0:
64,192,139340,1,0,0:0:0:0:
448,192,139406,1,0,0:0:0:0:
320,192,139472,1,0,0:0:0:0:
192,192,139538,1,4,0:0:0:0:
64,192,139538,1,8,0:0:0:0:
448,192,139603,1,0,0:0:0:0:
320,192,139669,1,0,0:0:0:0:
64,192,139735,1,0,0:0:0:0:
448,192,139801,1,8,0:0:0:0:
192,192,139801,1,4,0:0:0:0:
320,192,139867,1,0,0:0:0:0:
64,192,139932,1,0,0:0:0:0:
192,192,139998,1,0,0:0:0:0:
320,192,140064,1,12,0:0:0:0:
448,192,140064,1,4,2:0:0:0:
64,192,140130,1,0,0:0:0:0:
192,192,140196,1,0,0:0:0:0:
320,192,140261,1,0,0:0:0:0:
448,192,140327,1,4,0:0:0:0:
64,192,140327,1,8,0:0:0:0:
192,192,140393,1,0,0:0:0:0:
320,192,140459,1,0,0:0:0:0:
448,192,140524,1,0,0:0:0:0:
192,192,140590,1,4,0:0:0:0:
64,192,140590,1,8,0:0:0:0:
320,192,140656,1,0,0:0:0:0:
448,192,140722,1,0,0:0:0:0:
192,192,140788,1,0,0:0:0:0:
320,192,140853,1,8,0:0:0:0:
64,192,140853,1,4,0:0:0:0:
448,192,140919,1,0,0:0:0:0:
192,192,140985,1,0,0:0:0:0:
64,192,141051,1,0,0:0:0:0:
320,192,141117,1,12,0:0:0:0:
448,192,141117,1,2,0:0:0:0:
192,192,141182,1,0,0:0:0:0:
64,192,141248,1,0,0:0:0:0:
448,192,141314,1,0,0:0:0:0:
320,192,141380,1,4,0:0:0:0:
192,192,141380,1,8,0:0:0:0:
64,192,141446,1,0,0:0:0:0:
448,192,141511,1,0,0:0:0:0:
320,192,141577,1,0,0:0:0:0:
192,192,141643,1,4,0:0:0:0:
64,192,141643,1,8,0:0:0:0:
448,192,141709,1,0,0:0:0:0:
320,192,141774,1,0,0:0:0:0:
64,192,141840,1,0,0:0:0:0:
448,192,141906,1,8,0:0:0:0:
192,192,141906,1,4,0:0:0:0:
320,192,141972,1,0,0:0:0:0:
64,192,142038,1,0,0:0:0:0:
192,192,142103,1,0,0:0:0:0:
320,192,142169,1,4,0:0:0:0:
448,192,142169,1,8,0:0:0:0:
64,192,142235,1,0,0:0:0:0:
192,192,142301,1,0,0:0:0:0:
448,192,142367,1,0,0:0:0:0:
320,192,142432,1,4,0:0:0:0:
64,192,142432,1,8,0:0:0:0:
192,192,142498,1,0,0:0:0:0:
448,192,142564,1,0,0:0:0:0:
320,192,142630,1,0,0:0:0:0:
192,192,142696,1,4,0:0:0:0:
64,192,142696,1,8,0:0:0:0:
448,192,142761,1,0,0:0:0:0:
320,192,142827,1,0,0:0:0:0:
64,192,142893,1,0,0:0:0:0:
448,192,142959,1,8,0:0:0:0:
192,192,142959,1,4,0:0:0:0:
320,192,143024,1,0,0:0:0:0:
64,192,143090,1,0,0:0:0:0:
192,192,143156,1,0,0:0:0:0:
320,192,143222,1,4,0:0:0:0:
448,192,143222,1,8,0:0:0:0:
64,192,143222,1,4,2:0:0:0:
