osu file format v14

[General]
AudioFilename: audio.mp3
AudioLeadIn: 0
PreviewTime: 209301
Countdown: 0
SampleSet: Soft
StackLeniency: 0.4
Mode: 0
LetterboxInBreaks: 0
WidescreenStoryboard: 1

[Editor]
DistanceSpacing: 0.9
BeatDivisor: 2
GridSize: 32
TimelineZoom: 1.199999

[Metadata]
Title:Southern Constellations & The Boy Who Could Fly
TitleUnicode:Southern Constellations & The Boy Who Could Fly
Artist:Pierce The Veil
ArtistUnicode:Pierce The Veil
Creator:Ruiz Duchamp
Version:Normal
Source:
Tags:selfish machines english alternative punk rock post hardcore
BeatmapID:4005496
BeatmapSetID:1867138

[Difficulty]
HPDrainRate:4
CircleSize:3.5
OverallDifficulty:5
ApproachRate:6
SliderMultiplier:1
SliderTickRate:0.5

[Events]
//Background and Video events
0,0,"IJnLGgqk6Uc.jpg",0,0
//Break Periods
2,61948,64234
2,123867,130617
2,196975,208332
//Storyboard Layer 0 (Background)
//Storyboard Layer 1 (Fail)
//Storyboard Layer 2 (Pass)
//Storyboard Layer 3 (Foreground)
//Storyboard Layer 4 (Overlay)
//Storyboard Sound Samples

[TimingPoints]
1383,571.428571428571,4,2,1,20,1,0
12811,-100,4,2,1,30,0,0
13953,-100,4,2,1,10,0,0
15097,-100,4,2,1,30,0,0
16240,-100,4,2,1,20,0,0
17382,-100,4,2,1,30,0,0
20811,-100,4,2,1,20,0,0
21954,-100,4,2,1,30,0,0
23087,576.923076923077,4,2,1,20,1,0
23663,566.037735849057,4,2,1,20,1,0
24229,576.923076923077,4,2,1,30,1,0
24805,582.52427184466,4,2,1,20,1,0
25387,550.45871559633,4,2,1,30,1,0
25937,-100,4,2,1,20,0,0
26487,588.235294117647,4,2,1,30,1,0
27663,-100,4,2,1,20,0,0
28839,540.540540540541,4,2,1,15,1,0
29379,571.428571428571,4,2,1,20,1,0
29521,-100,4,2,1,30,0,0
29949,-100,4,2,1,20,0,0
31093,571.428571428571,4,2,1,30,1,0
32235,-100,4,2,1,20,0,0
33949,-100,4,2,1,10,0,0
34521,560.747663551402,4,2,1,20,1,0
35642,594.059405940594,4,2,1,30,1,0
36830,-100,4,2,1,20,0,0
37424,521.739130434783,4,2,1,20,1,0
37945,571.428571428571,4,2,1,30,1,0
39659,-100,4,2,1,20,0,0
40230,-100,4,2,1,30,0,0
41372,-100,4,2,1,20,0,0
41945,-100,4,2,1,30,0,0
42516,-100,4,2,1,20,0,0
44230,-100,4,2,1,10,0,0
44802,-100,4,2,1,30,0,0
45944,-100,4,2,1,20,0,0
48230,600,4,2,1,20,1,0
49430,571.428571428571,4,2,1,30,1,0
50572,-100,4,2,1,15,0,0
52858,-100,4,2,1,30,0,0
55143,-100,4,2,2,20,0,0
55715,-100,4,2,1,15,0,0
56287,-100,4,2,1,30,0,0
57430,545.454545454546,4,2,1,30,1,0
58520,571.428571428571,4,2,1,30,1,0
61377,-100,4,2,1,10,0,0
65383,285.714285714286,4,2,1,80,1,0
66525,-100,4,2,1,70,0,0
85954,-111.111111111111,4,2,1,60,0,0
95097,-111.111111111111,4,2,1,50,0,0
96240,-111.111111111111,4,2,1,55,0,0
97383,-111.111111111111,4,2,1,60,0,0
98525,-111.111111111111,4,2,1,65,0,0
99668,-111.111111111111,4,2,1,40,0,0
99953,-111.111111111111,4,2,1,45,0,0
100240,-111.111111111111,4,2,1,50,0,0
100525,-111.111111111111,4,2,1,55,0,0
100811,-111.111111111111,4,2,1,60,0,0
101383,-111.111111111111,4,2,1,65,0,0
101954,-111.111111111111,4,2,1,70,0,0
103097,-111.111111111111,4,2,2,70,0,0
103382,-111.111111111111,4,2,1,60,0,0
103668,-111.111111111111,4,2,1,70,0,0
103953,-111.111111111111,4,2,1,80,0,0
104240,571.428571428571,4,2,2,70,1,0
104240,-62.5,4,2,2,70,0,0
112240,-62.5,4,2,1,70,0,0
113382,-62.5,4,2,2,70,0,0
121382,-62.5,4,2,1,70,0,0
122525,285.714285714286,4,2,1,70,1,0
123667,-100,4,2,1,75,0,0
131667,-111.111111111111,4,2,1,65,0,0
149953,-111.111111111111,4,2,1,55,0,0
167667,-111.111111111111,4,2,2,40,0,0
168240,571.428571428571,4,2,2,70,1,0
168240,-62.5,4,2,2,70,0,0
176240,-62.5,4,2,1,70,0,0
177382,-62.5,4,2,2,70,0,0
186525,-71.4285714285714,4,2,1,70,0,0
187096,-71.4285714285714,4,2,2,40,0,0
191097,285.714285714286,4,2,2,40,1,0
196775,-100,4,2,2,20,0,0
209382,-100,4,2,1,60,0,0
209668,-125,4,2,1,60,0,0
227668,-100,4,2,1,80,0,1
231097,-100,4,2,1,40,0,0
231668,-125,4,2,1,65,0,0
241954,-125,4,2,1,30,0,0
244811,-125,4,2,1,60,0,0
245954,571.428571428571,4,2,2,60,1,0
245954,-71.4285714285714,4,2,2,60,0,0
264239,-62.5,4,2,1,80,0,0
264810,-62.5,4,2,1,60,0,0
266525,-62.5,4,2,1,80,0,0
267096,-62.5,4,2,1,60,0,0
267382,-62.5,4,2,1,80,0,0
267953,-62.5,4,2,1,60,0,0
268239,-62.5,4,2,1,80,0,0
270239,-62.5,4,2,1,60,0,0
270525,-62.5,4,2,1,80,0,0
270810,-62.5,4,2,1,60,0,0
271096,-62.5,4,2,1,80,0,0
271667,-62.5,4,2,1,60,0,0
273382,-62.5,4,2,1,80,0,0
273953,-62.5,4,2,1,60,0,0
274239,-62.5,4,2,1,80,0,0
274810,-62.5,4,2,1,60,0,0
275096,-62.5,4,2,1,80,0,0
275381,-62.5,4,2,1,60,0,0
275668,-71.4285714285714,4,2,1,60,0,0
284811,-62.5,4,2,2,70,0,0
293954,-62.5,4,2,2,65,0,0
301954,-62.5,4,2,1,65,0,0
303096,-62.5,4,2,2,60,0,0
311096,-62.5,4,2,1,60,0,0
312239,-62.5,4,2,2,55,0,0
319096,-62.5,4,2,2,70,0,0

[Colours]
Combo1 : 250,147,107
Combo2 : 179,227,227
Combo3 : 255,196,155
Combo4 : 173,199,231

[HitObjects]
355,117,12811,6,0,P|352:212|332:314,1,200,2|0,2:0|2:0,2:0:0:0:
332,315,15097,2,0,P|299:305|162:303,1,150,2|0,2:0|2:0,2:0:0:0:
141,312,16240,2,0,L|133:366,2,50,2|0|2,2:0|2:0|2:0,2:0:0:0:
72,254,17382,1,2,2:0:0:0:
72,254,20240,1,2,2:0:0:0:
13,185,20811,1,0,2:0:0:0:
61,109,21382,1,0,2:0:0:0:
124,173,21954,6,0,P|240:168|327:181,1,198.425,2|0,2:0|2:0,2:0:0:0:
409,205,23663,1,0,2:0:0:0:
479,148,24229,2,0,P|468:90|465:35,1,100,2|0,2:0|2:0,2:0:0:0:
377,1,25387,2,0,P|372:50|363:99,1,100,0|0,2:0|2:0,2:0:0:0:
323,180,26487,1,2,2:0:0:0:
169,86,27663,1,0,2:0:0:0:
64,232,28839,1,0,2:0:0:0:
141,277,29379,1,2,2:1:0:0:
141,277,29521,2,0,P|195:271|222:261,1,75,2|0,2:0|2:0,2:0:0:0:
293,307,30521,1,0,2:0:0:0:
354,241,31093,6,0,P|342:197|336:137,1,100,2|0,2:0|2:0,2:0:0:0:
418,106,32235,2,0,P|430:150|436:210,1,100,0|0,2:0|2:0,2:0:0:0:
421,292,33378,2,0,P|337:332|319:355,1,100,2|0,2:0|2:0,2:0:0:0:
246,359,34521,2,0,P|206:328|158:314,1,100,2|0,2:0|2:0,2:0:0:0:
68,316,35642,1,2,2:0:0:0:
68,316,36830,1,0,2:0:0:0:
3,253,37424,1,0,2:0:0:0:
71,194,37945,2,0,P|108:154|145:95,1,100,2|0,2:0|2:0,2:0:0:0:
183,41,39087,1,0,2:0:0:0:
253,96,39659,1,0,2:0:0:0:
207,173,40230,6,0,P|244:212|388:290,1,200,2|0,2:0|2:0,2:0:0:0:
447,239,41945,1,0,2:0:0:0:
400,161,42516,2,0,P|432:113|450:75,1,100,2|0,2:0|2:0,2:0:0:0:
374,25,43659,2,0,P|341:73|324:111,1,100,2|0,2:0|2:0,2:0:0:0:
239,141,44802,1,2,2:0:0:0:
327,297,45944,2,0,P|258:349|129:317,1,200,0|2,2:0|2:0,2:0:0:0:
92,265,47659,1,0,2:0:0:0:
172,225,48230,2,0,P|224:231|279:226,1,100,2|0,2:0|2:0,2:0:0:0:
357,200,49430,5,2,2:0:0:0:
229,72,50572,1,0,2:0:0:0:
88,184,51715,1,0,2:0:0:0:
216,312,52858,1,2,2:0:0:0:
357,200,54001,2,2,P|412:134|469:30,1,200,2|0,2:0|2:0,2:1:0:0:
382,3,55715,1,0,2:0:0:0:
314,62,56287,2,2,P|266:149|203:227,1,200,0|0,2:0|2:0,2:1:0:0:
60,321,58520,1,2,0:0:0:0:
256,192,58805,12,2,61377,2:0:0:0:
423,51,65383,6,0,P|425:118|420:181,1,100,6|4,1:0|2:3,2:0:0:0:
424,200,65811,1,10,1:0:0:0:
330,234,66097,1,10,1:0:0:0:
209,145,66525,2,0,P|158:149|93:141,1,100,14|8,1:0|1:0,2:0:0:0:
74,180,66954,1,4,2:3:0:0:
74,180,67097,2,0,P|74:238|66:292,1,100,14|8,1:0|1:0,2:0:0:0:
137,352,67668,6,0,P|239:345|242:346,1,100,6|4,1:0|2:3,2:0:0:0:
280,320,68097,1,8,1:0:0:0:
280,320,68240,2,0,P|382:327|385:326,1,100,6|4,1:0|2:3,2:0:0:0:
451,260,68811,2,2,L|467:59,1,200,6|4,1:0|2:3,2:1:0:0:
380,10,69668,1,2,1:0:0:0:
293,61,69954,6,2,L|301:173,1,100,6|4,1:0|2:3,2:1:0:0:
265,197,70383,1,8,1:0:0:0:
265,197,70525,2,0,L|257:309,1,100,6|4,1:0|2:3,2:0:0:0:
157,296,71097,2,0,L|149:196,1,100,6|2,1:0|1:0,2:0:0:0:
78,126,71668,1,2,1:0:0:0:
149,55,71954,1,2,1:0:0:0:
225,119,72240,6,0,P|270:105|343:103,1,100,6|2,1:0|1:0,2:0:0:0:
370,129,72668,1,8,1:0:0:0:
370,129,72811,2,0,P|419:132|467:146,1,100,2|2,1:0|1:0,2:0:0:0:
494,243,73383,1,6,1:0:0:0:
442,328,73668,1,2,1:0:0:0:
344,351,73954,1,6,1:0:0:0:
255,303,74240,1,2,1:0:0:0:
235,205,74525,6,0,P|239:84|236:36,1,150,6|8,1:0|1:0,2:0:0:0:
148,9,75240,1,8,1:0:0:0:
73,75,75525,1,8,1:0:0:0:
73,75,75668,2,0,P|73:119|71:139,1,50,14|8,1:0|2:1,2:0:0:0:
73,175,75954,1,8,1:0:0:0:
6,249,76240,1,14,1:0:0:0:
59,333,76525,1,8,1:0:0:0:
156,308,76811,6,0,P|220:303|271:313,1,100,6|4,1:0|2:3,2:0:0:0:
292,341,77240,2,0,P|327:340|355:344,1,50,8|4,1:0|2:3,2:0:0:0:
391,339,77525,1,8,1:0:0:0:
465,272,77811,1,8,1:0:0:0:
465,272,77954,2,0,P|470:212|463:157,1,100,6|4,1:0|2:3,2:0:0:0:
416,85,78525,2,0,L|350:82,1,50,2|8,1:0|1:0,2:0:0:0:
315,80,78811,1,2,1:0:0:0:
236,142,79097,6,2,P|201:146|137:173,1,100,6|4,1:0|2:3,2:1:0:0:
97,191,79525,2,0,L|38:192,1,50,10|4,1:0|2:3,2:0:0:0:
6,161,79811,1,10,1:0:0:0:
13,64,80097,1,8,1:0:0:0:
13,64,80240,2,2,P|96:57|161:23,1,150,6|8,1:0|1:0,2:1:0:0:
199,5,80811,1,2,1:0:0:0:
320,101,81240,5,8,1:0:0:0:
320,101,81383,2,0,P|378:76|432:70,1,100,6|4,1:0|2:3,2:0:0:0:
452,162,81954,2,0,P|406:183|357:192,1,100,2|4,1:0|2:3,2:0:0:0:
332,237,82383,1,8,1:0:0:0:
332,237,82525,1,6,1:0:0:0:
301,332,82811,1,4,1:3:0:0:
203,353,83097,1,6,1:0:0:0:
123,291,83383,1,8,1:0:0:0:
133,191,83668,6,0,P|139:121|135:38,1,150,6|8,1:0|1:0,2:0:0:0:
231,12,84383,1,8,1:0:0:0:
331,38,84668,1,8,1:0:0:0:
331,38,84811,1,2,1:3:0:0:
333,138,85097,2,0,P|332:210|335:259,1,100,2|4,1:0|2:3,2:0:0:0:
336,291,85525,1,4,2:3:0:0:
336,291,85668,1,2,1:0:0:0:
264,345,85954,6,0,P|220:334|150:352,1,90.0000000000001,6|4,1:0|2:3,2:0:0:0:
112,276,86525,2,0,P|68:287|-2:269,1,90.0000000000001,2|4,1:0|2:3,2:0:0:0:
7,192,87097,2,2,P|10:138|5:82,1,90.0000000000001,2|4,1:0|2:3,2:1:0:0:
87,59,87668,1,2,1:0:0:0:
168,98,87954,1,4,2:3:0:0:
243,48,88240,6,2,P|361:49|438:27,1,180,2|4,1:0|2:3,2:1:0:0:
477,103,89097,1,2,1:0:0:0:
431,180,89383,2,2,P|432:240|429:290,1,90.0000000000001,2|2,1:0|1:0,2:1:0:0:
354,317,89954,1,2,1:0:0:0:
269,284,90240,1,4,2:3:0:0:
189,325,90525,6,0,P|145:323|90:328,1,90.0000000000001,2|4,1:0|2:3,2:0:0:0:
38,259,91097,2,0,P|40:215|35:160,1,90.0000000000001,2|4,1:0|2:3,2:0:0:0:
119,135,91668,1,2,1:0:0:0:
191,187,91954,1,4,2:3:0:0:
273,150,92240,2,0,P|317:148|372:153,1,90.0000000000001,2|4,1:0|2:3,2:0:0:0:
441,195,92811,6,2,P|439:239|444:294,1,90.0000000000001,2|4,1:0|2:3,2:1:0:0:
362,326,93383,1,2,1:0:0:0:
277,295,93668,1,4,2:3:0:0:
201,344,93954,2,0,P|110:345|-4:385,1,180,6|8,1:0|2:3,2:0:0:0:
6,281,94811,2,0,L|5:211,1,45,8|8,1:0|1:0,2:0:0:0:
33,200,95097,6,0,B|76:211|76:211|140:197,1,90.0000000000001,6|10,1:0|1:0,2:0:0:0:
199,244,95668,2,0,B|242:255|242:255|306:241,1,90.0000000000001,4|10,2:3|1:0,2:0:0:0:
367,286,96240,1,4,2:3:0:0:
447,246,96525,1,10,1:0:0:0:
447,155,96811,2,0,L|446:57,1,90.0000000000001,4|10,2:3|1:0,2:0:0:0:
373,10,97383,6,0,B|330:21|330:21|266:7,1,90.0000000000001,4|10,2:3|1:0,2:0:0:0:
212,64,97954,2,0,B|169:75|169:75|105:61,1,90.0000000000001,4|10,2:3|1:0,2:0:0:0:
39,34,98525,1,4,2:3:0:0:
1,115,98811,1,10,1:0:0:0:
78,160,99097,2,0,L|79:258,1,90.0000000000001,4|10,2:3|1:0,2:0:0:0:
148,306,99668,6,0,P|197:302|258:316,1,90.0000000000001,4|8,1:3|1:3,2:0:0:0:
277,286,100097,1,0,3:0:0:0:
277,286,100240,2,0,P|326:282|387:296,1,90.0000000000001,4|8,1:3|2:3,2:0:0:0:
449,254,100811,2,0,L|464:165,1,90.0000000000001,4|4,1:3|1:3,2:0:0:0:
432,140,101240,1,4,2:3:0:0:
432,140,101383,2,0,L|417:51,1,90.0000000000001,4|4,1:3|1:3,2:0:0:0:
336,11,101954,1,2,1:3:0:0:
336,11,103097,6,0,P|291:15|234:11,1,90.0000000000001,10|4,1:0|2:3,2:0:0:0:
219,49,103525,1,4,2:3:0:0:
219,49,103668,2,0,P|220:107|215:157,1,90.0000000000001,2|12,1:0|1:0,2:0:0:0:
264,204,104240,6,0,P|304:204|365:224,1,80,6|2,1:0|1:0,2:0:0:0:
415,246,104811,1,6,2:1:0:0:
402,331,105097,1,4,2:3:0:0:
402,331,105240,1,4,2:3:0:0:
402,331,105382,2,2,P|311:332|243:357,1,160,14|6,1:0|1:0,2:1:0:0:
107,276,106525,6,0,P|108:250|106:207,1,40,6|4,1:0|2:3,2:0:0:0:
108,195,106811,1,2,1:0:0:0:
93,116,107097,1,4,2:1:0:0:
123,47,107382,1,2,1:0:0:0:
123,47,107525,1,4,2:3:0:0:
123,47,107668,2,2,P|216:52|289:43,1,160,14|4,1:0|1:0,2:1:0:0:
346,92,108525,1,2,1:0:0:0:
425,80,108811,6,0,P|424:146|414:197,1,80,6|2,1:0|1:0,2:0:0:0:
463,228,109382,2,2,P|464:294|474:345,1,80,6|2,2:1|1:0,2:1:0:0:
445,343,109811,1,4,2:3:0:0:
445,343,109954,2,0,P|403:341|361:347,1,80,14|2,1:0|1:0,2:0:0:0:
299,307,110525,1,6,1:0:0:0:
299,307,110668,1,4,2:3:0:0:
299,307,110811,1,2,1:0:0:0:
219,331,111097,6,0,P|172:333|119:321,1,80,6|2,1:0|1:0,2:0:0:0:
107,314,111525,1,4,2:3:0:0:
107,314,111668,2,0,P|110:269|106:220,1,80,6|4,2:1|2:3,2:0:0:0:
168,181,112240,2,0,P|235:162|281:109,1,120,14|4,1:0|2:3,2:0:0:0:
271,87,112811,1,8,2:3:0:0:
200,48,113097,1,14,1:0:0:0:
132,91,113382,5,6,1:0:0:0:
132,91,113525,1,4,2:3:0:0:
132,91,113668,1,2,1:0:0:0:
91,160,113954,2,0,P|92:210|86:254,1,80,6|2,2:1|1:0,2:0:0:0:
115,276,114382,1,4,2:3:0:0:
115,276,114525,1,14,1:0:0:0:
236,254,114954,1,2,2:1:0:0:
236,254,115097,1,4,1:0:0:0:
296,306,115382,1,2,1:0:0:0:
367,270,115668,6,0,L|385:174,1,80,6|2,1:0|1:0,2:0:0:0:
394,155,116097,1,4,2:3:0:0:
394,155,116240,1,6,2:1:0:0:
472,171,116525,1,4,2:3:0:0:
493,247,116811,2,2,P|491:335|493:378,2,120,14|2|2,1:0|2:1|1:0,2:1:0:0:
472,171,117954,6,0,P|474:126|470:56,1,80,6|2,1:0|1:0,2:0:0:0:
405,47,118525,1,6,2:1:0:0:
341,90,118811,1,4,2:3:0:0:
341,90,118954,1,4,2:3:0:0:
341,90,119097,1,14,1:0:0:0:
298,204,119525,1,2,2:1:0:0:
298,204,119668,1,6,1:0:0:0:
311,282,119954,1,2,1:0:0:0:
282,356,120239,5,6,1:0:0:0:
282,356,121382,2,0,L|174:350,1,80,14|8,1:0|1:0,2:0:0:0:
195,271,121954,2,0,L|285:252,1,80,14|8,1:0|2:1,2:0:0:0:
256,192,122525,12,6,123667,1:0:0:0:
277,232,131667,6,0,P|282:180|276:122,1,90.0000000000001,6|4,1:0|2:3,2:0:0:0:
213,80,132239,1,2,1:0:0:0:
129,103,132525,1,4,2:3:0:0:
129,103,132667,2,2,P|129:185|123:252,1,135,10|2,1:0|1:0,2:1:0:0:
193,295,133382,1,2,1:0:0:0:
270,248,133667,5,2,1:0:0:0:
270,248,133810,1,8,1:0:0:0:
345,297,134096,2,0,P|343:333|346:350,1,45,10|4,1:0|2:3,2:0:0:0:
383,365,134382,1,10,1:0:0:0:
467,335,134667,2,0,P|474:294|473:215,1,90.0000000000001,10|10,1:0|1:0,2:0:0:0:
473,200,135096,1,2,1:0:0:0:
417,136,135382,5,4,2:3:0:0:
417,136,135525,2,2,P|365:140|311:134,1,90.0000000000001,10|8,1:0|1:0,2:1:0:0:
262,74,136096,1,8,1:0:0:0:
181,113,136382,2,0,P|153:117|127:115,2,45,8|4|8,1:0|2:3|1:0,2:0:0:0:
207,149,136810,2,2,P|207:203|201:243,1,90.0000000000001,2|2,1:0|1:0,2:1:0:0:
154,317,137382,5,2,1:0:0:0:
154,317,137525,1,10,1:0:0:0:
68,291,137810,2,0,P|71:272|69:235,1,45,10|2,1:0|1:0,2:0:0:0:
97,210,138096,1,10,1:0:0:0:
54,132,138382,2,0,P|55:108|54:75,1,45,10|4,1:0|2:3,2:0:0:0:
82,52,138667,1,10,1:0:0:0:
164,88,138953,6,2,P|227:88|277:76,1,90.0000000000001,10|10,1:0|1:0,2:1:0:0:
296,70,139382,1,4,2:3:0:0:
361,131,139667,1,6,2:3:0:0:
449,112,139953,2,0,P|448:182|442:227,1,90.0000000000001,8|8,2:1|2:1,2:0:0:0:
451,251,140382,1,4,2:3:0:0:
451,251,140525,1,4,2:3:0:0:
447,340,140810,6,2,P|393:326|262:328,1,180,6|4,1:0|2:3,2:1:0:0:
185,310,141667,1,4,2:3:0:0:
185,310,141810,2,0,P|134:316|83:308,1,90.0000000000001,10|8,1:0|1:0,2:0:0:0:
44,237,142382,1,10,1:0:0:0:
98,165,142667,1,10,1:0:0:0:
184,205,142953,5,10,1:0:0:0:
184,205,143096,2,0,P|212:207|245:203,1,45,2|10,1:0|1:0,2:0:0:0:
270,188,143382,1,4,2:3:0:0:
352,224,143667,1,2,1:0:0:0:
437,195,143953,2,0,P|442:145|442:49,1,135,2|8,1:0|1:0,2:0:0:0:
434,15,144525,1,4,2:3:0:0:
310,68,144953,5,10,1:0:0:0:
226,33,145239,2,0,P|196:35|156:29,1,45,10|2,1:0|1:0,2:0:0:0:
141,12,145525,2,2,P|123:62|112:201,1,180,10|8,1:0|1:0,2:1:0:0:
181,251,146382,1,10,1:0:0:0:
181,251,146525,2,2,P|228:253|276:272,1,90.0000000000001,2|4,1:0|2:3,2:1:0:0:
307,289,146953,5,10,1:0:0:0:
366,356,147239,1,10,1:0:0:0:
456,333,147525,1,10,1:0:0:0:
456,333,147667,2,0,P|473:271|468:170,1,135,14|4,1:0|2:3,2:0:0:0:
439,170,148239,2,0,P|426:126|432:64,1,90.0000000000001,12|8,1:0|1:0,2:0:0:0:
352,31,148810,6,0,P|305:36|251:31,1,90.0000000000001,12|8,1:0|1:0,2:0:0:0:
227,60,149239,1,8,2:1:0:0:
227,60,149382,2,0,P|191:66|154:62,1,45,8|8,2:3|2:3,2:0:0:0:
137,61,149667,1,8,2:3:0:0:
83,133,149953,6,0,P|83:215|76:299,1,135,6|8,1:0|1:0,2:0:0:0:
138,343,150667,1,8,1:0:0:0:
138,343,150810,2,0,L|194:338,1,45,2|8,1:0|1:0,2:0:0:0:
222,317,151096,2,0,P|277:336|334:333,1,90.0000000000001,2|4,1:0|2:3,2:0:0:0:
353,335,151525,1,8,1:0:0:0:
416,271,151810,1,8,1:0:0:0:
371,199,152096,5,8,1:0:0:0:
371,199,152239,2,2,P|309:214|217:199,1,135,6|8,1:0|1:0,2:1:0:0:
197,132,152953,1,8,1:0:0:0:
197,132,153096,2,0,P|199:106|196:76,1,45,4|8,2:3|1:0,2:0:0:0:
224,50,153382,1,2,1:0:0:0:
341,116,153810,2,0,P|375:114|410:122,1,45,10|4,1:0|2:3,2:0:0:0:
416,81,154096,1,10,1:0:0:0:
496,132,154382,5,8,1:0:0:0:
496,132,154525,2,2,P|497:203|485:271,1,135,6|10,1:0|1:0,2:1:0:0:
402,250,155239,1,8,1:0:0:0:
402,250,155382,2,0,P|371:253|341:252,1,45,2|8,1:0|1:0,2:0:0:0:
332,291,155667,1,2,1:0:0:0:
210,232,156096,1,10,1:0:0:0:
140,347,156525,1,4,2:3:0:0:
56,312,156810,6,2,P|57:249|46:166,1,135,6|8,1:0|1:0,2:1:0:0:
79,144,157382,2,0,L|84:69,1,45,2|8,1:0|1:0,2:0:0:0:
87,54,157667,1,4,2:3:0:0:
175,72,157953,2,10,P|232:69|302:26,1,135,6|8,1:0|2:3,2:1:0:0:
329,62,158525,2,0,P|326:118|330:142,1,45,8|8,1:0|2:1,2:0:0:0:
326,151,158810,1,8,2:3:0:0:
372,228,159096,6,0,P|429:230|499:274,1,135,6|8,1:0|1:0,2:0:0:0:
464,356,159810,1,8,1:0:0:0:
464,356,159953,2,0,P|428:355|391:363,1,45,4|8,2:3|1:0,2:0:0:0:
379,378,160239,2,0,P|322:376|252:332,1,135,2|10,1:0|1:0,2:0:0:0:
281,250,160953,1,10,1:0:0:0:
236,177,161239,5,8,1:0:0:0:
236,177,161382,2,2,P|162:182|94:175,1,135,6|8,1:0|1:0,2:1:0:0:
67,147,161953,1,2,1:0:0:0:
102,64,162239,1,4,2:3:0:0:
190,79,162525,2,0,P|233:83|283:79,1,90.0000000000001,2|4,1:0|2:3,2:0:0:0:
323,69,162953,1,10,1:0:0:0:
407,100,163239,1,10,1:0:0:0:
498,81,163525,5,8,1:0:0:0:
498,81,163667,2,0,P|500:167|491:237,1,135,6|10,1:0|1:0,2:0:0:0:
469,304,164382,1,8,1:0:0:0:
469,304,164525,2,0,P|467:340|469:355,1,45,4|8,2:3|1:0,2:0:0:0:
431,375,164810,2,0,P|378:371|312:321,1,135,2|10,1:0|1:0,2:0:0:0:
329,234,165525,1,10,1:0:0:0:
318,149,165810,1,8,1:0:0:0:
318,149,165953,1,6,1:0:0:0:
318,149,167667,1,2,2:0:0:0:
198,42,168240,6,0,L|92:33,1,80,6|2,1:0|1:0,2:0:0:0:
61,91,168811,1,6,2:1:0:0:
104,170,169097,1,2,1:0:0:0:
104,170,169240,1,4,2:3:0:0:
104,170,169382,2,2,L|183:176,1,80,14|0,1:0|2:0,2:1:0:0:
239,242,169954,1,6,1:0:0:0:
239,242,170097,1,4,2:3:0:0:
314,334,170525,6,0,L|363:324,1,40,6|4,1:0|2:3,2:0:0:0:
389,343,170811,1,2,1:0:0:0:
459,304,171097,2,0,P|466:274|466:195,1,80,6|2,2:1|1:0,2:0:0:0:
444,201,171525,1,4,2:3:0:0:
444,201,171668,1,14,1:0:0:0:
423,87,172097,1,2,2:1:0:0:
423,87,172240,2,0,P|396:88|368:85,1,40,6|4,1:0|2:3,2:0:0:0:
348,66,172525,1,2,1:0:0:0:
269,84,172811,6,2,P|261:175|255:191,1,80,6|2,1:0|1:0,2:1:0:0:
186,143,173382,2,2,P|194:52|200:36,1,80,6|2,2:1|1:0,2:1:0:0:
170,34,173811,1,4,2:3:0:0:
170,34,173954,1,14,1:0:0:0:
91,50,174240,1,2,2:1:0:0:
96,137,174525,1,6,1:0:0:0:
96,137,174668,1,4,2:3:0:0:
96,137,174811,1,2,1:0:0:0:
65,210,175097,6,0,P|63:260|82:370,1,160,6|6,1:0|2:1,2:0:0:0:
163,346,175954,1,2,1:0:0:0:
163,346,176097,1,4,2:3:0:0:
163,346,176240,2,0,P|212:353|253:348,1,80,14|8,1:0|1:0,2:0:0:0:
316,320,176811,1,8,2:3:0:0:
353,334,176954,1,4,2:3:0:0:
391,322,177097,1,14,1:0:0:0:
464,353,177382,6,0,P|480:274|480:194,1,160,6|6,1:0|2:1,2:0:0:0:
411,157,178240,1,2,1:0:0:0:
411,157,178382,1,4,2:3:0:0:
411,157,178525,2,2,P|343:169|277:148,2,120,14|2|2,2:1|2:1|1:0,2:1:0:0:
464,97,179668,6,0,P|461:76|465:51,1,40,6|4,1:0|2:3,2:0:0:0:
445,21,179954,1,2,1:0:0:0:
373,56,180240,1,6,2:1:0:0:
303,17,180525,2,0,P|277:19|242:13,1,40,4|4,2:3|2:3,2:0:0:0:
233,45,180811,1,14,1:0:0:0:
117,57,181240,1,2,2:1:0:0:
117,57,181382,2,0,P|89:60|56:56,1,40,6|4,1:0|2:3,2:0:0:0:
48,87,181668,1,2,1:0:0:0:
82,170,181954,5,6,1:0:0:0:
82,170,182097,1,4,2:3:0:0:
82,170,182240,2,0,P|75:232|83:343,1,160,2|2,1:0|1:0,2:0:0:0:
155,358,183097,1,14,1:0:0:0:
269,321,183525,1,2,2:1:0:0:
269,321,183668,2,0,P|302:324|328:322,1,40,4|4,1:0|2:3,2:0:0:0:
344,342,183954,1,2,1:0:0:0:
411,296,184240,5,6,1:0:0:0:
411,296,184382,1,4,2:3:0:0:
411,296,184525,2,0,P|414:249|411:201,1,80,2|6,1:0|2:1,2:0:0:0:
359,156,185097,2,0,P|334:161|299:157,1,40,4|4,2:3|2:3,2:0:0:0:
293,191,185382,1,14,1:0:0:0:
187,77,185954,1,4,2:3:0:0:
187,77,186097,1,4,2:3:0:0:
76,125,186525,6,2,P|77:221|69:289,2,140,6|2|2,1:0|2:0|2:0,2:1:0:0:
150,93,187954,1,0,2:0:0:0:
217,137,188239,2,0,P|216:192|220:219,1,70,2|0,2:0|2:0,2:0:0:0:
275,264,188811,1,2,2:0:0:0:
275,264,189382,1,2,2:0:0:0:
275,264,189954,2,0,P|339:279|360:295,1,70,2|8,2:0|2:3,2:0:0:0:
379,263,190382,1,8,2:3:0:0:
379,263,190525,1,8,2:3:0:0:
430,325,190811,1,4,2:3:0:0:
505,300,191097,1,6,1:0:0:0:
256,192,191239,12,4,196775,2:1:0:0:
256,192,209382,5,4,1:0:0:0:
256,192,209525,1,4,2:3:0:0:
256,192,209668,2,0,P|256:260|251:289,1,80,10|2,1:0|1:0,2:0:0:0:
317,321,210239,2,0,P|349:321|366:324,1,40,10|4,1:0|2:3,2:0:0:0:
392,302,210525,2,0,P|430:307|476:303,1,80,2|10,1:0|1:0,2:0:0:0:
498,228,211097,1,2,2:1:0:0:
459,158,211382,1,10,1:0:0:0:
474,79,211668,6,0,P|426:82|377:76,1,80,2|10,2:1|1:0,2:0:0:0:
330,30,212239,1,2,2:1:0:0:
271,84,212525,1,10,1:0:0:0:
201,44,212811,2,0,P|140:48|58:40,1,120,2|0,2:1|2:0,2:0:0:0:
51,70,213382,1,2,2:1:0:0:
85,142,213668,1,8,1:0:0:0:
45,214,213954,5,2,1:0:0:0:
45,214,214097,1,4,2:3:0:0:
45,214,214239,2,0,P|46:269|44:300,1,80,10|2,1:0|2:1,2:0:0:0:
110,339,214811,2,0,P|134:338|153:340,1,40,10|4,1:0|2:3,2:0:0:0:
186,322,215097,1,2,1:0:0:0:
252,366,215382,1,10,1:0:0:0:
328,343,215668,2,0,P|368:346|413:342,1,80,2|10,2:1|1:0,2:0:0:0:
442,321,216097,1,0,2:0:0:0:
442,321,216239,6,0,P|439:285|444:223,1,80,2|10,2:1|1:0,2:0:0:0:
386,182,216811,2,0,P|389:146|384:84,1,80,2|10,2:1|1:0,2:0:0:0:
363,76,217239,1,0,2:0:0:0:
363,76,217382,2,0,P|313:103|232:109,1,120,2|0,2:1|2:0,2:0:0:0:
224,141,217954,1,2,2:1:0:0:
255,214,218239,1,8,1:0:0:0:
222,290,218525,5,2,1:0:0:0:
222,290,218668,1,4,2:3:0:0:
222,290,218811,2,0,P|176:288|124:292,1,80,10|2,1:0|2:1,2:0:0:0:
83,240,219382,1,10,1:0:0:0:
83,240,219525,1,4,2:3:0:0:
83,240,219668,2,0,P|87:190|86:156,1,80,2|10,1:0|1:0,2:0:0:0:
153,116,220239,2,0,P|181:116|201:114,1,40,2|4,1:0|2:3,2:0:0:0:
224,141,220525,1,10,1:0:0:0:
291,97,220811,5,2,1:0:0:0:
323,120,220954,1,4,2:3:0:0:
361,109,221097,2,0,P|402:114|451:109,1,80,10|2,1:0|2:1,2:0:0:0:
487,175,221668,1,10,1:0:0:0:
430,232,221954,2,2,P|406:320|405:368,1,120,2|0,2:1|2:0,2:1:0:0:
374,375,222525,1,2,1:0:0:0:
305,333,222811,1,10,1:0:0:0:
228,356,223097,5,2,1:0:0:0:
228,356,223239,2,0,P|194:361|128:354,1,80,2|0,1:0|2:0,2:0:0:0:
128,329,223668,1,2,1:0:0:0:
128,329,223811,2,0,P|69:334|23:327,1,80,2|2,1:0|1:0,2:0:0:0:
7,269,224382,1,2,1:0:0:0:
7,269,224525,1,8,1:0:0:0:
52,202,224811,1,2,1:0:0:0:
126,231,225097,1,10,1:0:0:0:
192,185,225382,5,4,2:3:0:0:
192,185,225525,1,4,2:3:0:0:
192,185,225668,2,0,P|189:148|194:87,1,80,8|0,1:0|2:0,2:0:0:0:
265,73,226239,1,8,1:0:0:0:
335,110,226525,2,0,P|376:113|486:84,1,120,8|8,1:0|2:3,2:0:0:0:
484,124,227097,2,0,P|483:173|486:194,1,40,8|4,2:3|2:3,2:0:0:0:
482,203,227382,1,8,1:0:0:0:
427,274,227668,6,0,P|393:276|368:272,1,50,6|4,1:0|2:3,2:0:0:0:
343,311,227954,1,10,1:0:0:0:
265,247,228239,1,2,1:0:0:0:
174,290,228525,2,0,P|140:292|115:288,1,50,10|4,1:0|2:3,2:0:0:0:
84,258,228811,2,2,P|81:200|89:147,1,100,2|10,1:0|1:0,2:1:0:0:
177,117,229382,1,2,2:1:0:0:
266,161,229668,1,10,1:0:0:0:
359,124,229954,2,2,P|380:66|384:9,2,100,2|10|2,2:1|1:0|2:1,2:1:0:0:
430,193,230811,1,10,1:0:0:0:
377,274,231097,5,2,2:1:0:0:
377,274,231668,2,0,P|376:314|379:331,1,40,2|0,2:1|2:0,2:0:0:0:
359,350,231954,1,8,1:0:0:0:
282,326,232239,1,2,1:0:0:0:
282,326,232382,1,4,2:3:0:0:
282,326,232525,1,8,1:0:0:0:
212,365,232811,2,0,P|171:362|126:367,1,80,2|10,2:1|1:0,2:0:0:0:
101,349,233239,1,0,2:0:0:0:
101,349,233382,6,0,P|103:309|98:260,1,80,2|10,1:0|1:0,2:0:0:0:
159,216,233954,1,2,2:1:0:0:
109,153,234239,1,10,1:0:0:0:
163,94,234525,2,0,P|205:100|258:94,1,80,2|10,2:1|1:0,2:0:0:0:
274,129,234954,1,0,2:0:0:0:
274,129,235097,2,0,P|316:123|369:129,1,80,2|10,2:1|1:0,2:0:0:0:
432,112,235668,2,0,P|429:178|406:242,1,120,2|0,2:1|2:0,2:0:0:0:
395,265,236239,1,2,2:1:0:0:
430,336,236525,1,8,1:0:0:0:
364,382,236811,5,2,1:0:0:0:
364,382,236954,1,4,2:3:0:0:
364,382,237097,1,8,1:0:0:0:
288,337,237382,2,0,P|290:296|287:251,1,80,2|8,2:1|1:0,2:0:0:0:
259,237,237811,1,4,2:3:0:0:
259,237,237954,2,0,P|213:242|165:236,1,80,2|10,1:0|1:0,2:0:0:0:
130,175,238525,1,2,1:0:0:0:
130,175,238668,1,4,2:3:0:0:
130,175,238811,1,10,1:0:0:0:
175,109,239097,6,0,P|235:101|294:63,1,120,2|0,1:0|2:0,2:0:0:0:
313,42,239668,1,2,2:1:0:0:
387,93,239954,1,10,1:0:0:0:
387,93,240097,1,4,2:3:0:0:
387,93,240239,2,0,P|385:143|390:182,1,80,2|8,1:0|1:0,2:0:0:0:
442,232,240811,2,0,P|439:268|439:287,1,40,2|4,1:0|2:3,2:0:0:0:
436,312,241097,1,8,1:0:0:0:
375,363,241382,5,10,1:0:0:0:
237,280,241954,1,2,2:0:0:0:
314,140,242525,1,2,2:0:0:0:
452,223,243097,1,2,2:0:0:0:
375,363,243668,1,2,2:0:0:0:
375,363,244811,2,0,L|278:351,1,80,8|4,1:0|1:3,2:0:0:0:
271,328,245239,1,4,2:3:0:0:
271,328,245382,2,0,L|218:333,1,40,4|4,1:3|2:3,2:0:0:0:
196,352,245668,1,10,1:0:0:0:
122,317,245954,6,0,L|113:244,1,70,6|4,1:0|2:3,2:0:0:0:
170,191,246525,1,4,2:1:0:0:
253,227,246811,1,4,2:3:0:0:
253,227,246954,1,4,2:3:0:0:
253,227,247096,2,0,L|276:69,1,140,12|4,1:0|1:0,2:0:0:0:
308,67,247811,1,4,2:3:0:0:
408,134,248239,6,0,L|415:188,1,35,4|4,1:0|2:3,2:0:0:0:
419,208,248525,1,4,2:3:0:0:
393,284,248811,1,4,2:1:0:0:
316,292,249096,1,4,2:3:0:0:
316,292,249239,1,4,2:3:0:0:
316,292,249382,2,0,L|309:364,1,70,12|0,1:0|2:0,2:0:0:0:
232,334,249954,1,4,1:0:0:0:
232,334,250096,1,4,2:3:0:0:
115,367,250525,5,4,1:0:0:0:
115,367,250668,1,4,2:3:0:0:
115,367,250811,2,0,L|96:269,1,70,4|4,2:3|2:1,2:0:0:0:
49,239,251382,1,4,2:3:0:0:
49,239,251525,1,4,2:3:0:0:
49,239,251668,2,0,L|66:155,1,70,12|0,1:0|2:0,2:0:0:0:
131,127,252239,1,4,2:1:0:0:
131,127,252811,6,0,P|158:130|181:128,1,35,4|0,1:0|2:3,2:0:0:0:
200,150,253096,1,4,2:3:0:0:
271,112,253382,1,4,2:1:0:0:
346,164,253668,1,4,2:3:0:0:
346,164,253811,1,4,2:3:0:0:
346,164,253954,2,0,P|393:176|491:166,1,140,12|4,1:0|1:0,2:0:0:0:
510,139,254668,1,4,2:3:0:0:
449,47,255096,5,4,1:0:0:0:
449,47,255239,1,4,2:3:0:0:
449,47,255382,2,0,P|409:53|372:47,1,70,4|4,2:3|2:1,2:0:0:0:
308,19,255954,1,4,2:3:0:0:
308,19,256096,1,4,2:3:0:0:
308,19,256239,2,0,P|241:29|149:16,1,140,14|6,1:0|2:1,2:0:0:0:
107,73,257096,1,0,2:0:0:0:
26,65,257382,6,2,P|30:153|23:231,1,140,6|6,1:0|2:1,2:1:0:0:
34,293,258239,1,4,2:3:0:0:
34,293,258382,1,4,2:3:0:0:
34,293,258525,2,2,P|111:326|171:315,1,140,14|6,1:0|1:0,2:1:0:0:
201,300,259239,1,4,2:3:0:0:
316,336,259668,2,0,P|339:334|362:337,1,35,6|4,1:0|2:3,2:0:0:0:
377,304,259954,1,4,2:3:0:0:
445,345,260239,1,4,2:1:0:0:
498,284,260525,5,4,2:3:0:0:
498,284,260668,1,4,2:3:0:0:
498,284,260811,2,2,P|508:224|507:142,1,140,12|4,1:0|1:0,2:1:0:0:
502,105,261525,1,4,2:3:0:0:
395,152,261954,1,4,1:0:0:0:
395,152,262096,1,4,2:3:0:0:
395,152,262239,1,4,2:3:0:0:
314,116,262525,1,4,2:1:0:0:
257,173,262811,2,0,P|257:204|256:222,1,35,4|4,2:3|2:3,2:0:0:0:
270,246,263096,2,0,P|268:307|271:339,1,70,8|8,2:3|2:3,2:0:0:0:
245,350,263525,1,8,2:3:0:0:
245,350,263668,2,0,P|200:352|162:361,1,70,8|12,2:3|1:0,2:0:0:0:
102,323,264239,6,2,P|84:247|85:144,1,160,14|4,1:0|2:3,2:1:0:0:
155,131,265096,1,4,2:3:0:0:
226,167,265382,2,2,P|243:91|242:-11,1,160,2|4,1:0|2:3,2:1:0:0:
403,30,266525,2,2,P|404:109|422:187,1,160,14|4,1:0|2:3,2:1:0:0:
342,199,267382,2,2,P|359:276|361:356,1,160,14|4,1:0|2:3,2:1:0:0:
439,374,268239,1,14,1:0:0:0:
439,373,269954,6,2,P|446:334|445:279,1,80,14|4,1:0|2:3,2:1:0:0:
396,231,270525,2,2,P|389:192|390:137,1,80,14|4,1:0|2:3,2:1:0:0:
343,85,271096,2,2,P|263:94|181:89,2,160,14|2|2,1:0|1:0|1:0,2:1:0:0:
416,53,272525,1,4,2:3:0:0:
485,92,272811,2,0,P|483:145|486:175,1,80,2|4,1:0|2:3,2:0:0:0:
423,222,273382,6,2,P|356:257|300:339,1,160,14|4,1:0|2:3,2:1:0:0:
235,360,274239,2,2,P|187:296|117:258,1,160,14|4,1:0|2:3,2:1:0:0:
39,241,275096,2,0,P|43:196|40:156,1,80,10|4,1:0|2:3,2:0:0:0:
80,78,275668,6,2,L|160:62,1,70,6|4,1:0|2:3,2:1:0:0:
209,132,276239,2,2,L|292:144,1,70,14|4,1:0|2:3,2:1:0:0:
351,196,276811,1,6,1:0:0:0:
434,159,277096,1,4,2:3:0:0:
497,224,277382,2,2,L|511:321,1,70,14|4,1:0|2:3,2:1:0:0:
438,353,277954,2,2,P|362:353|274:380,1,140,6|14,1:0|1:0,2:1:0:0:
219,326,278811,1,4,2:3:0:0:
131,351,279096,2,2,P|95:349|52:352,1,70,6|4,1:0|2:3,2:1:0:0:
4,279,279668,1,14,1:0:0:0:
256,192,284239,5,10,1:0:0:0:
256,192,284811,2,0,P|191:196|103:146,1,160,6|6,1:0|2:1,2:0:0:0:
153,89,285668,1,4,2:3:0:0:
153,89,285811,1,4,2:3:0:0:
153,89,285954,2,2,P|196:94|252:86,1,80,14|0,1:0|2:0,2:1:0:0:
306,121,286525,2,0,L|357:124,1,40,6|4,1:0|2:3,2:0:0:0:
379,100,286811,1,0,2:0:0:0:
441,150,287096,5,6,1:0:0:0:
427,187,287239,1,4,2:3:0:0:
439,224,287382,1,2,1:0:0:0:
382,280,287668,1,6,2:1:0:0:
308,247,287954,1,4,2:3:0:0:
308,247,288096,1,4,2:3:0:0:
308,247,288239,2,2,P|305:311|310:382,2,120,14|2|2,1:0|2:1|2:1,2:1:0:0:
233,201,289382,6,0,P|168:218|126:216,1,80,6|2,1:0|2:1,2:0:0:0:
90,171,289953,1,6,2:1:0:0:
129,103,290239,1,2,1:0:0:0:
129,103,290382,1,4,2:3:0:0:
129,103,290525,2,2,P|174:111|217:107,1,80,14|0,1:0|2:0,2:1:0:0:
283,76,291096,1,6,1:0:0:0:
283,76,291239,1,4,2:3:0:0:
389,131,291668,6,0,P|385:231|391:291,1,160,6|4,1:0|2:1,2:0:0:0:
347,357,292525,1,4,2:3:0:0:
347,357,292668,1,4,2:3:0:0:
347,357,292811,2,0,L|231:373,1,80,14|8,1:0|1:0,2:0:0:0:
199,326,293382,2,0,L|146:323,1,40,4|8,2:3|2:3,2:0:0:0:
123,341,293668,1,10,1:0:0:0:
65,285,293954,5,6,1:0:0:0:
65,285,294096,1,4,2:3:0:0:
65,285,294239,2,2,P|67:235|65:200,1,80,2|4,1:0|2:1,2:1:0:0:
122,148,294811,1,2,1:0:0:0:
157,165,294954,1,4,2:3:0:0:
195,155,295096,2,0,P|209:87|209:21,2,120,14|2|2,1:0|2:1|1:0,2:0:0:0:
248,214,296239,6,0,P|279:213|310:217,1,40,6|4,1:0|2:3,2:0:0:0:
326,225,296525,1,2,1:0:0:0:
390,178,296811,1,4,2:1:0:0:
467,224,297096,1,2,1:0:0:0:
467,224,297239,1,4,2:3:0:0:
467,224,297382,2,2,P|469:288|476:325,1,80,14|0,1:0|2:0,2:1:0:0:
481,342,297811,1,2,2:1:0:0:
365,375,298239,1,2,1:0:0:0:
294,336,298525,6,0,P|224:343|122:334,1,160,6|6,1:0|2:1,2:0:0:0:
84,273,299382,1,4,2:3:0:0:
84,273,299525,1,4,2:3:0:0:
84,273,299668,2,2,P|89:206|86:136,1,120,14|2,1:0|2:1,2:1:0:0:
169,65,300525,1,2,1:0:0:0:
242,96,300811,6,0,L|252:178,1,80,6|2,1:0|1:0,2:0:0:0:
328,196,301382,2,2,L|343:103,1,80,6|4,2:1|2:3,2:1:0:0:
376,95,301811,1,4,2:3:0:0:
376,95,301954,1,14,1:0:0:0:
442,139,302239,1,8,2:3:0:0:
418,215,302525,2,0,L|431:305,1,80,8|14,2:3|1:0,2:0:0:0:
376,353,303096,6,0,P|315:332|215:327,1,160,6|6,1:0|2:1,2:0:0:0:
149,292,303954,1,4,2:3:0:0:
149,292,304096,1,4,2:3:0:0:
149,292,304239,2,2,P|101:297|67:292,1,80,14|0,1:0|2:0,2:1:0:0:
21,228,304811,2,0,P|23:206|20:172,1,40,6|4,1:0|2:3,2:0:0:0:
48,157,305096,1,2,1:0:0:0:
124,123,305382,5,6,1:0:0:0:
124,123,305525,1,4,2:3:0:0:
124,123,305668,2,2,P|180:131|219:128,1,80,2|4,1:0|2:1,2:1:0:0:
274,93,306239,1,4,2:3:0:0:
341,135,306525,2,2,P|339:200|324:276,2,120,14|0|2,1:0|2:0|1:0,2:1:0:0:
402,83,307668,5,6,1:0:0:0:
402,83,307811,1,4,2:3:0:0:
402,83,307953,1,2,1:0:0:0:
462,135,308239,2,0,P|462:197|465:232,1,80,4|4,2:1|2:3,2:0:0:0:
444,251,308668,1,4,2:3:0:0:
444,251,308811,1,14,1:0:0:0:
371,346,309239,1,2,2:1:0:0:
371,346,309382,2,0,P|347:345|322:350,1,40,4|4,1:0|2:3,2:0:0:0:
294,331,309668,1,2,1:0:0:0:
220,361,309953,5,6,1:0:0:0:
220,361,310096,1,4,2:3:0:0:
220,361,310239,2,0,P|165:364|123:355,1,80,2|6,1:0|2:1,2:0:0:0:
94,293,310811,1,4,2:3:0:0:
152,238,311096,1,14,1:0:0:0:
312,238,311668,2,0,L|320:149,1,80,12|8,1:0|1:0,2:0:0:0:
279,88,312239,5,6,1:0:0:0:
279,88,312382,1,4,2:3:0:0:
279,88,312525,1,2,1:0:0:0:
196,59,312811,2,0,P|151:65|98:54,1,80,6|4,2:1|2:3,2:0:0:0:
94,94,313239,1,4,2:3:0:0:
94,94,313382,1,14,1:0:0:0:
144,208,313811,1,2,2:1:0:0:
144,208,313953,2,0,L|192:197,1,40,6|4,1:0|2:3,2:0:0:0:
221,209,314239,1,2,1:0:0:0:
260,290,314525,5,6,1:0:0:0:
260,290,314668,1,4,2:3:0:0:
260,290,314811,1,2,1:0:0:0:
325,335,315096,2,0,L|411:349,1,80,6|4,2:1|2:3,2:0:0:0:
442,331,315525,1,4,2:3:0:0:
442,331,315668,1,14,1:0:0:0:
488,220,316096,1,2,2:1:0:0:
488,220,316239,2,0,P|487:195|489:165,1,40,6|4,1:0|2:3,2:0:0:0:
469,143,316525,1,2,1:0:0:0:
393,162,316811,5,6,1:0:0:0:
393,162,316953,1,4,2:3:0:0:
393,162,317096,2,0,P|380:119|382:74,1,80,2|6,1:0|2:1,2:0:0:0:
312,40,317668,1,4,2:3:0:0:
250,90,317953,2,2,P|249:175|242:227,2,120,14|2|2,1:0|2:1|2:1,2:1:0:0:
178,53,319096,5,10,1:0:0:0:
140,39,319239,1,8,1:0:0:0:
103,55,319382,1,10,1:0:0:0:
42,202,319953,1,10,1:0:0:0:
57,238,320096,1,8,1:0:0:0:
44,275,320239,1,10,1:0:0:0:
