osu file format v14

[General]
AudioFilename: audio.mp3
AudioLeadIn: 0
PreviewTime: 209301
Countdown: 0
SampleSet: Soft
StackLeniency: 0.4
Mode: 0
LetterboxInBreaks: 0
WidescreenStoryboard: 1

[Editor]
DistanceSpacing: 0.4
BeatDivisor: 8
GridSize: 32
TimelineZoom: 0.3999986

[Metadata]
Title:Southern Constellations & The Boy Who Could Fly
TitleUnicode:Southern Constellations & The Boy Who Could Fly
Artist:Pierce The Veil
ArtistUnicode:Pierce The Veil
Creator:Ruiz Duchamp
Version:Extra
Source:
Tags:selfish machines english alternative punk rock post hardcore
BeatmapID:4094599
BeatmapSetID:1867138

[Difficulty]
HPDrainRate:6
CircleSize:4
OverallDifficulty:8.5
ApproachRate:9.2
SliderMultiplier:1.4
SliderTickRate:0.5

[Events]
//Background and Video events
0,0,"IJnLGgqk6Uc.jpg",0,0
//Break Periods
2,61948,64234
2,196975,208812
//Storyboard Layer 0 (Background)
//Storyboard Layer 1 (Fail)
//Storyboard Layer 2 (Pass)
//Storyboard Layer 3 (Foreground)
//Storyboard Layer 4 (Overlay)
//Storyboard Sound Samples

[TimingPoints]
1383,571.428571428571,4,2,1,20,1,0
12811,-250,4,2,1,30,0,0
13953,-250,4,2,1,15,0,0
15097,-250,4,2,1,30,0,0
16239,-250,4,2,1,20,0,0
17382,-250,4,2,1,30,0,0
19667,-250,4,2,11,5,0,0
20240,-250,4,2,1,30,0,0
20811,-250,4,2,1,20,0,0
21954,-250,4,2,1,30,0,0
23087,576.923076923077,4,2,1,20,1,0
23663,566.037735849057,4,2,1,20,1,0
24229,576.923076923077,4,2,1,30,1,0
24229,-250,4,2,1,30,0,0
24805,582.52427184466,4,2,1,30,1,0
25387,550.45871559633,4,2,1,30,1,0
25937,-100,4,2,1,20,0,0
26487,588.235294117647,4,2,1,20,1,0
26487,-250,4,2,1,30,0,0
27663,-250,4,2,1,20,0,0
28839,540.540540540541,4,2,1,20,1,0
29379,571.428571428571,4,2,1,20,1,0
29521,-250,4,2,1,30,0,0
29949,-250,4,2,1,20,0,0
31093,571.428571428571,4,2,1,30,1,0
31093,-250,4,2,1,30,0,0
32235,-250,4,2,1,20,0,0
34521,560.747663551402,4,2,1,20,1,0
35642,594.059405940594,4,2,1,20,1,0
35642,-100,4,2,1,30,0,0
36830,-100,4,2,1,20,0,0
37424,521.739130434783,4,2,1,20,1,0
37945,571.428571428571,4,2,1,20,1,0
38516,-100,4,2,1,30,0,0
39659,-100,4,2,1,20,0,0
40230,-250,4,2,1,30,0,0
41372,-250,4,2,1,20,0,0
41945,-250,4,2,1,30,0,0
42516,-250,4,2,1,20,0,0
44230,-250,4,2,1,10,0,0
44802,-250,4,2,1,30,0,0
45944,-250,4,2,1,20,0,0
48230,600,4,2,1,20,1,0
49430,571.428571428571,4,2,1,30,1,0
49430,-250,4,2,1,30,0,0
50572,-100,4,2,1,15,0,0
51715,-100,4,2,1,10,0,0
52858,-250,4,2,1,30,0,0
53430,-250,4,2,2,10,0,0
54001,-250,4,2,1,30,0,0
55144,-250,4,2,1,10,0,0
55715,-250,4,2,1,15,0,0
56287,-250,4,2,1,30,0,0
57430,545.454545454546,4,2,1,30,1,0
58520,571.428571428571,4,2,1,30,1,0
61377,-100,4,2,1,10,0,0
65383,285.714285714286,4,2,1,80,1,0
65525,-66.6666666666667,4,2,1,80,0,0
66453,-66.6666666666667,4,2,11,5,0,0
66525,-66.6666666666667,4,2,1,70,0,0
67811,-80,4,2,1,70,0,0
85954,-100,4,2,1,60,0,0
95097,-100,4,2,1,50,0,0
96240,-100,4,2,1,55,0,0
97383,-100,4,2,1,60,0,0
98525,-100,4,2,1,65,0,0
99668,-100,4,2,1,40,0,0
99954,-100,4,2,1,45,0,0
100240,-100,4,2,1,50,0,0
100525,-100,4,2,1,55,0,0
100811,-100,4,2,1,60,0,0
101383,-100,4,2,1,65,0,0
101954,-100,4,2,1,70,0,0
103097,-100,4,2,2,70,0,0
103240,-100,4,2,1,60,0,0
103668,-100,4,2,1,70,0,0
103954,-100,4,2,1,80,0,0
104240,571.428571428571,4,2,2,70,1,0
104525,-66.6666666666667,4,2,2,70,0,0
112240,-66.6666666666667,4,2,1,70,0,0
113382,-66.6666666666667,4,2,2,70,0,0
121382,-50,4,2,1,70,0,0
122525,285.714285714286,4,2,1,75,1,0
122525,-80,4,2,1,75,0,0
131667,-100,4,2,1,65,0,0
144810,-100,4,2,0,65,0,0
144953,-100,4,2,1,65,0,0
149953,-100,4,2,1,55,0,0
167667,-100,4,2,2,40,0,0
168240,571.428571428571,4,2,2,70,1,0
168525,-66.6666666666667,4,2,2,70,0,0
176240,-66.6666666666667,4,2,1,70,0,0
177382,-66.6666666666667,4,2,2,70,0,0
186525,-66.6666666666667,4,2,1,70,0,0
187097,-66.6666666666667,4,2,2,40,0,0
191097,285.714285714286,4,2,2,40,1,0
196775,-100,4,2,2,20,0,0
209382,-100,4,2,1,60,0,0
227668,-100,4,2,1,80,0,1
227954,-80,4,2,1,80,0,1
231097,-80,4,2,1,40,0,0
231382,-80,4,2,1,65,0,0
232525,-95.2380952380952,4,2,1,65,0,0
243668,-95.2380952380952,4,2,1,30,0,0
244811,-95.2380952380952,4,2,1,60,0,0
245954,571.428571428571,4,2,2,60,1,0
263096,-50,4,2,2,60,0,0
264239,-100,4,2,1,80,0,0
264667,-100,4,2,11,5,0,0
264811,-50,4,2,1,60,0,0
264953,-50,4,2,11,5,0,0
265096,-50,4,2,1,60,0,0
265238,-50,4,2,11,5,0,0
265382,-100,4,2,1,60,0,0
266239,-50,4,2,1,60,0,0
266525,-100,4,2,1,80,0,0
266953,-100,4,2,11,5,0,0
267096,-50,4,2,1,60,0,0
267238,-50,4,2,11,5,0,0
267382,-100,4,2,1,80,0,0
267810,-100,4,2,11,5,0,0
267954,-50,4,2,1,60,0,0
268096,-50,4,2,11,5,0,0
268239,-100,4,2,1,80,0,0
268667,-100,4,2,11,5,0,0
268811,-50,4,2,1,60,0,0
268953,-50,4,2,11,5,0,0
269096,-50,4,2,1,60,0,0
269238,-50,4,2,11,5,0,0
269382,-50,4,2,1,60,0,0
269524,-50,4,2,11,5,0,0
269668,-50,4,2,1,60,0,0
269810,-50,4,2,11,5,0,0
269954,-100,4,2,1,80,0,0
270382,-100,4,2,11,5,0,0
270525,-100,4,2,1,80,0,0
270953,-100,4,2,11,5,0,0
271096,-100,4,2,1,80,0,0
271524,-100,4,2,11,5,0,0
271668,-50,4,2,1,60,0,0
271810,-50,4,2,11,5,0,0
271954,-50,4,2,1,60,0,0
272096,-50,4,2,11,5,0,0
272239,-50,4,2,1,60,0,0
272381,-50,4,2,11,5,0,0
272525,-50,4,2,1,60,0,0
272667,-50,4,2,11,5,0,0
272811,-50,4,2,1,60,0,0
272953,-50,4,2,11,5,0,0
273096,-50,4,2,1,60,0,0
273238,-50,4,2,11,5,0,0
273382,-100,4,2,1,80,0,0
273810,-100,4,2,11,5,0,0
273954,-50,4,2,1,60,0,0
274096,-50,4,2,11,5,0,0
274239,-100,4,2,1,80,0,0
274667,-100,4,2,11,5,0,0
274811,-50,4,2,1,60,0,0
274953,-50,4,2,11,5,0,0
275096,-50,4,2,1,80,0,0
275382,-50,4,2,1,60,0,0
275668,-100,4,2,1,60,0,0
280239,-100,4,2,1,30,0,0
284239,-100,4,2,1,60,0,0
284811,-100,4,2,2,70,0,0
285096,-66.6666666666667,4,2,2,70,0,0
293953,-66.6666666666667,4,2,2,65,0,0
301953,-66.6666666666667,4,2,1,65,0,0
303096,-66.6666666666667,4,2,2,60,0,0
311096,-66.6666666666667,4,2,1,60,0,0
311668,-40,4,2,1,60,0,0
312239,-40,4,2,2,55,0,0
312525,-66.6666666666667,4,2,2,55,0,0
319096,-66.6666666666667,4,2,2,70,0,0

[Colours]
Combo1 : 250,147,107
Combo2 : 179,227,227
Combo3 : 255,196,155
Combo4 : 173,199,231

[HitObjects]
0,192,12668,5,0,2:0:0:0:
0,192,12740,1,0,2:0:0:0:
0,192,12811,2,0,P|59:195|118:184,1,112,2|0,2:0|2:0,2:0:0:0:
111,186,14852,1,2,2:1:0:0:
170,237,15097,2,0,P|229:234|288:245,1,112,2|2,2:0|2:0,2:0:0:0:
376,221,16525,1,0,2:0:0:0:
295,324,16811,1,2,2:0:0:0:
295,324,17382,2,0,P|357:327|509:386,1,224,2|0,2:0|2:0,2:0:0:0:
438,200,20240,5,2,2:0:0:0:
490,118,20811,1,0,2:0:0:0:
445,30,21382,1,0,2:0:0:0:
445,30,21954,2,0,P|382:36|321:32,1,111.118,2|0,2:0|2:0,2:0:0:0:
266,106,23663,1,0,2:0:0:0:
197,72,24229,2,0,P|141:74|85:68,1,112.485333333333,2|0,2:0|2:0,2:0:0:0:
56,196,25937,1,0,2:0:0:0:
79,291,26487,2,0,P|145:296|193:316,2,112,2|0|0,2:0|2:0|2:0,2:0:0:0:
251,259,29379,5,2,2:1:0:0:
251,259,29521,2,0,P|270:257|298:258,1,42,2|0,2:0|2:0,2:0:0:0:
355,301,30521,1,0,2:0:0:0:
420,258,31093,2,0,P|437:209|436:196,1,56,2|0,2:0|2:0,2:0:0:0:
330,86,32235,2,0,P|312:134|313:147,1,56,0|0,2:0|2:0,2:0:0:0:
250,260,33378,2,0,P|204:258|129:272,1,112.098,2|2,2:0|2:0,2:0:0:0:
75,198,35081,1,0,2:0:0:0:
118,131,35642,5,2,2:0:0:0:
118,131,36830,1,0,2:0:0:0:
90,60,37424,1,0,2:0:0:0:
90,60,38516,1,0,2:0:0:0:
201,128,39087,1,0,2:0:0:0:
286,31,39659,1,0,2:0:0:0:
347,83,40230,6,0,P|342:169|345:204,1,112,2|0,2:0|2:0,2:0:0:0:
305,264,41945,1,0,2:0:0:0:
363,354,42516,2,0,P|330:352|300:354,1,56,2|0,2:0|2:0,2:0:0:0:
151,235,43659,2,0,P|184:237|214:235,1,56,2|0,2:0|2:0,2:0:0:0:
347,83,44802,2,0,P|281:79|229:57,1,112,2|0,2:0|2:0,2:0:0:0:
136,139,46516,1,0,2:0:0:0:
38,103,47087,2,0,P|38:164|33:214,1,112.098,2|2,2:0|2:0,2:0:0:0:
103,331,48680,1,0,2:0:0:0:
103,331,48830,1,0,2:0:0:0:
103,331,49430,6,0,P|144:339|207:372,2,112,2|0|0,2:0|2:0|2:0,2:0:0:0:
103,331,52858,2,2,P|106:300|104:269,1,56,2|0,2:0|2:0,2:1:0:0:
284,194,54001,2,2,P|281:274|283:313,1,112,2|0,2:0|2:0,2:1:0:0:
283,306,55715,1,0,2:0:0:0:
133,85,56287,6,2,P|200:82|244:59,1,112,0|0,2:0|2:0,2:1:0:0:
318,122,57975,1,0,2:0:0:0:
388,94,58520,1,2,2:0:0:0:
256,192,58662,12,2,61377,2:0:0:0:
343,31,65383,5,6,1:0:0:0:
235,112,65525,2,0,B|186:99|186:99|129:113,1,105,10|4,1:0|2:3,2:0:0:0:
133,111,65740,1,4,2:3:0:0:
133,111,65811,1,10,1:0:0:0:
216,225,65954,1,4,2:3:0:0:
302,174,66097,1,10,1:0:0:0:
376,245,66240,1,4,1:3:0:0:
376,245,66311,2,2,L|403:364,1,105,8|0,1:3|2:0,2:0:0:0:
328,378,66525,6,0,P|300:372|268:378,3,52.5,14|8|8|8,1:0|2:1|2:1|2:1,2:0:0:0:
214,329,66811,2,0,P|186:323|154:329,3,52.5,8|8|4|8,1:0|2:3|2:3|2:3,2:0:0:0:
77,370,67097,1,14,1:0:0:0:
55,340,67168,1,8,2:1:0:0:
49,303,67240,1,8,2:1:0:0:
62,269,67311,1,8,2:1:0:0:
87,242,67383,1,8,1:0:0:0:
117,221,67454,1,8,2:1:0:0:
135,189,67525,1,8,2:1:0:0:
134,151,67597,1,8,2:1:0:0:
111,122,67668,1,6,1:0:0:0:
28,20,67811,6,2,P|105:28|230:13,1,175,8|8,1:0|1:0,2:1:0:0:
278,124,68240,1,6,1:0:0:0:
372,82,68383,1,8,1:0:0:0:
376,9,68525,1,4,2:3:0:0:
376,9,68597,1,4,2:3:0:0:
376,9,68668,1,8,1:0:0:0:
476,93,68811,6,2,P|473:176|478:267,1,175,6|4,1:0|2:3,2:1:0:0:
482,307,69168,1,4,2:3:0:0:
482,307,69240,1,8,1:0:0:0:
371,241,69383,1,4,2:3:0:0:
371,368,69525,1,8,1:0:0:0:
281,324,69668,2,0,P|253:326|233:324,2,43.75,2|4|8,1:0|2:3|1:0,2:0:0:0:
192,250,69954,6,2,P|129:278|18:269,1,175,6|4,1:0|2:3,2:1:0:0:
25,271,70311,1,4,2:3:0:0:
25,271,70383,1,8,1:0:0:0:
72,105,70525,2,0,P|74:159|70:211,2,87.5,6|8|4,1:0|1:0|2:3,2:0:0:0:
76,77,70883,1,4,2:3:0:0:
76,77,70954,1,8,1:0:0:0:
181,156,71097,1,6,1:0:0:0:
286,77,71240,1,8,1:0:0:0:
180,0,71383,1,2,1:0:0:0:
180,0,71454,1,4,2:3:0:0:
180,0,71525,1,8,1:0:0:0:
318,77,71668,6,0,P|364:73|417:80,1,87.5,2|8,1:0|1:0,2:0:0:0:
477,198,71954,1,2,1:0:0:0:
477,198,72025,1,4,2:3:0:0:
477,198,72097,1,8,1:0:0:0:
331,338,72240,2,0,P|313:246|314:157,1,175,6|2,1:0|1:0,2:0:0:0:
313,165,72597,1,4,2:3:0:0:
313,165,72668,1,8,1:0:0:0:
192,250,72811,1,2,1:0:0:0:
244,366,72954,1,8,1:0:0:0:
172,340,73097,2,0,L|126:346,2,43.75,2|4|8,1:0|2:3|1:0,2:0:0:0:
331,338,73383,5,6,1:0:0:0:
478,195,73668,1,6,1:0:0:0:
181,46,73954,5,6,1:0:0:0:
34,189,74240,1,6,1:0:0:0:
331,338,74525,6,0,P|433:337|515:312,1,175,6|4,1:0|2:3,2:0:0:0:
502,317,74883,1,4,2:3:0:0:
502,317,74954,1,8,1:0:0:0:
478,195,75097,1,4,2:3:0:0:
359,261,75240,2,0,P|361:213|356:165,1,87.5,8|4,1:0|2:3,2:0:0:0:
357,173,75454,1,4,2:3:0:0:
357,173,75525,1,8,1:0:0:0:
447,31,75668,6,0,P|478:35|507:26,3,43.75,14|8|8|8,1:0|2:1|2:1|2:1,2:0:0:0:
327,77,75954,2,0,P|358:73|387:82,3,43.75,8|8|4|8,1:0|2:3|2:3|2:3,2:0:0:0:
255,25,76240,1,14,1:0:0:0:
231,36,76311,1,8,2:1:0:0:
207,48,76383,1,8,2:1:0:0:
183,60,76454,1,8,2:1:0:0:
160,72,76525,1,8,1:0:0:0:
126,62,76597,1,4,2:3:0:0:
92,52,76668,1,8,2:3:0:0:
58,42,76740,1,4,2:3:0:0:
24,32,76811,6,2,P|27:113|20:226,1,175,6|4,1:0|2:3,2:1:0:0:
178,289,77240,2,0,P|175:249|179:197,1,87.5,8|4,1:0|2:3,2:0:0:0:
306,102,77525,1,8,1:0:0:0:
296,240,77668,1,4,2:3:0:0:
296,240,77740,1,4,2:3:0:0:
296,240,77811,1,8,1:0:0:0:
317,338,77954,2,2,P|412:331|500:341,1,175,6|4,1:0|2:3,2:1:0:0:
491,339,78311,1,4,2:3:0:0:
491,339,78383,1,8,1:0:0:0:
367,192,78525,6,0,P|421:195|476:189,1,87.5,2|8,1:0|1:0,2:0:0:0:
487,65,78811,2,0,P|516:67|539:63,2,43.75,2|0|8,1:0|2:0|1:0,2:0:0:0:
373,0,79097,6,2,P|315:24|192:24,1,175,6|4,1:0|2:3,2:1:0:0:
177,51,79454,1,4,2:3:0:0:
177,51,79525,2,0,P|178:103|173:153,1,87.5,10|4,1:0|2:3,2:0:0:0:
367,192,79811,2,0,P|366:140|371:90,1,87.5,10|4,1:0|2:3,2:0:0:0:
222,237,80097,1,8,1:0:0:0:
93,189,80240,2,2,P|93:308|89:370,1,175,6|4,1:0|2:3,2:1:0:0:
89,363,80597,1,4,2:3:0:0:
89,363,80668,1,8,1:0:0:0:
248,319,80811,6,0,P|313:322|355:316,1,87.5,2|8,1:0|1:0,2:0:0:0:
429,341,81097,2,0,P|463:340|486:343,2,43.75,4|4|8,2:3|2:3|1:0,2:0:0:0:
262,138,81383,2,0,P|197:141|155:135,1,87.5,6|8,1:0|1:0,2:0:0:0:
93,189,81668,2,0,P|59:188|36:191,2,43.75,4|4|8,2:3|2:3|1:0,2:0:0:0:
215,2,81954,2,0,P|280:5|322:-1,1,87.5,2|8,1:0|1:0,2:0:0:0:
389,61,82240,1,4,2:3:0:0:
389,61,82311,1,4,2:3:0:0:
389,61,82383,1,8,1:0:0:0:
262,138,82525,5,6,1:0:0:0:
101,33,82811,1,4,1:3:0:0:
250,281,83097,1,6,1:0:0:0:
454,124,83383,1,8,1:0:0:0:
247,371,83668,6,2,P|148:358|51:374,1,175,6|4,1:0|2:3,2:1:0:0:
47,352,84025,1,4,2:3:0:0:
47,352,84097,1,8,1:0:0:0:
104,268,84240,1,4,2:3:0:0:
56,183,84383,1,8,1:0:0:0:
185,234,84525,1,4,2:3:0:0:
185,234,84597,1,4,2:3:0:0:
185,234,84668,1,8,1:0:0:0:
269,187,84811,1,2,1:3:0:0:
269,187,85097,1,2,1:0:0:0:
269,187,85383,1,4,2:3:0:0:
299,171,85454,1,8,2:3:0:0:
333,167,85525,1,4,2:3:0:0:
367,174,85597,1,8,2:3:0:0:
396,192,85668,2,0,P|394:247|397:284,1,87.5,2|8,1:0|1:0,2:0:0:0:
185,234,85954,6,2,P|171:172|171:92,1,140,6|4,1:0|2:3,2:1:0:0:
184,65,86311,1,4,2:3:0:0:
184,65,86383,1,8,1:0:0:0:
57,21,86525,2,0,P|58:67|53:98,1,70,2|8,1:0|1:0,2:0:0:0:
17,159,86811,2,0,P|17:187|16:203,2,35,4|4|8,2:3|2:3|1:0,2:0:0:0:
109,334,87097,2,2,P|107:287|113:257,1,70,2|8,1:0|1:0,2:1:0:0:
185,234,87383,2,0,P|185:206|186:190,2,35,4|4|8,2:3|2:3|1:0,2:0:0:0:
283,318,87668,2,0,P|348:315|428:334,1,140,2|4,1:0|2:3,2:0:0:0:
455,350,88025,1,4,2:3:0:0:
455,350,88097,1,8,1:0:0:0:
499,262,88240,6,2,P|494:227|494:169,1,70,2|8,1:0|2:1,2:1:0:0:
445,112,88525,1,4,2:3:0:0:
445,112,88597,1,4,2:3:0:0:
445,112,88668,1,8,1:0:0:0:
351,202,88811,2,0,P|356:237|356:295,1,70,4|8,2:3|1:0,2:0:0:0:
306,358,89097,1,2,1:0:0:0:
306,358,89168,1,0,2:0:0:0:
306,358,89240,1,8,1:0:0:0:
201,285,89383,5,2,1:0:0:0:
132,323,89525,1,8,1:0:0:0:
72,193,89668,1,2,1:0:0:0:
141,231,89811,1,8,1:0:0:0:
201,101,89954,1,2,1:0:0:0:
132,139,90097,1,8,1:0:0:0:
80,17,90240,1,4,2:3:0:0:
80,17,90311,1,4,2:3:0:0:
80,17,90383,1,8,1:0:0:0:
270,59,90525,6,0,P|354:66|430:55,1,140,2|4,1:0|2:3,2:0:0:0:
446,65,90883,1,4,2:3:0:0:
446,65,90954,1,8,1:0:0:0:
351,202,91097,2,0,P|439:212|505:243,1,140,2|4,1:0|2:3,2:0:0:0:
512,261,91454,1,4,2:3:0:0:
512,261,91525,1,8,1:0:0:0:
425,357,91668,5,2,1:0:0:0:
336,315,91811,1,8,1:0:0:0:
263,344,91954,2,0,P|263:372|262:394,2,35,4|4|8,2:3|2:3|1:0,2:0:0:0:
180,246,92240,1,2,1:0:0:0:
91,288,92383,1,8,1:0:0:0:
18,259,92525,2,0,P|18:231|17:209,2,35,4|4|8,2:3|2:3|1:0,2:0:0:0:
183,98,92811,6,2,B|291:79|269:184|374:210,1,210,2|8,1:0|1:0,2:1:0:0:
432,148,93383,2,0,P|430:120|433:73,1,70,2|8,1:0|1:0,2:0:0:0:
355,21,93668,1,4,2:3:0:0:
355,21,93740,1,4,2:3:0:0:
355,21,93811,1,8,1:0:0:0:
261,154,93954,5,6,1:0:0:0:
207,237,94097,1,8,2:1:0:0:
207,237,94168,1,8,2:1:0:0:
207,237,94240,1,8,1:0:0:0:
259,316,94383,1,4,2:3:0:0:
202,372,94525,2,0,P|168:368|112:372,1,70,8|4,2:3|2:3,2:0:0:0:
35,281,94811,1,8,1:0:0:0:
105,168,94954,1,8,1:0:0:0:
41,92,95097,5,6,1:0:0:0:
41,92,95240,1,8,2:3:0:0:
135,39,95383,2,0,P|212:45|279:39,1,140,10|4,1:0|2:3,2:0:0:0:
336,115,95811,1,8,2:3:0:0:
282,201,95954,2,0,P|331:200|359:204,1,70,10|0,1:0|2:0,2:0:0:0:
239,273,96240,1,4,2:3:0:0:
179,194,96383,1,8,2:3:0:0:
123,251,96525,2,0,P|124:300|120:328,1,70,10|0,1:0|2:0,2:0:0:0:
21,240,96811,1,4,2:3:0:0:
79,163,96954,1,8,2:3:0:0:
41,92,97097,1,10,1:0:0:0:
41,92,97383,5,4,2:3:0:0:
41,92,97525,1,8,2:3:0:0:
135,39,97668,2,0,P|212:45|279:39,1,140,10|4,1:0|2:3,2:0:0:0:
336,115,98097,1,8,2:3:0:0:
282,201,98240,2,0,P|331:200|359:204,1,70,10|0,1:0|2:0,2:0:0:0:
239,273,98525,1,4,2:3:0:0:
179,194,98668,1,8,2:3:0:0:
123,251,98811,2,0,P|124:300|120:328,1,70,10|0,1:0|2:0,2:0:0:0:
21,240,99097,1,4,2:3:0:0:
79,163,99240,1,8,2:3:0:0:
41,92,99383,1,10,1:0:0:0:
41,92,99668,6,0,P|42:74|39:42,3,35,4|0|0|0,1:3|3:0|3:0|3:0,2:0:0:0:
120,49,99954,2,0,P|119:31|122:-1,3,35,8|0|0|0,1:3|3:0|3:0|3:0,2:0:0:0:
191,84,100240,2,0,P|191:101|190:118,3,35,4|0|0|0,1:3|3:0|3:0|3:0,2:0:0:0:
271,60,100525,2,0,P|271:77|270:94,3,35,8|0|0|0,2:3|3:0|3:0|3:0,2:0:0:0:
349,41,100811,2,0,P|396:44|433:39,1,70,4|4,1:3|2:3,2:0:0:0:
475,161,101097,2,0,P|428:164|391:159,1,70,4|4,1:3|2:3,2:0:0:0:
348,277,101383,2,0,P|395:280|432:275,1,70,4|4,1:3|2:3,2:0:0:0:
465,338,101668,1,4,1:3:0:0:
465,338,101954,1,2,1:3:0:0:
465,338,103097,5,10,1:0:0:0:
452,331,103168,1,0,2:0:0:0:
437,331,103240,1,4,2:3:0:0:
425,338,103311,1,8,2:3:0:0:
392,327,103383,2,0,P|389:310|393:276,3,35,4|8|4|8,2:3|2:3|2:3|2:3,2:0:0:0:
311,347,103668,2,0,P|314:364|310:398,3,35,2|8|4|8,1:0|2:3|2:3|2:3,2:0:0:0:
236,316,103954,1,12,1:0:0:0:
236,316,104240,5,6,1:0:0:0:
174,204,104382,1,4,2:3:0:0:
174,204,104525,2,0,P|147:206|115:203,1,52.5,2|0,1:0|2:0,2:0:0:0:
258,110,104811,2,2,P|303:110|362:102,1,105,6|4,2:1|2:3,2:1:0:0:
169,52,105240,1,4,2:3:0:0:
294,7,105382,6,2,P|330:9|365:5,1,52.5,14|0,1:0|2:0,2:1:0:0:
418,44,105668,1,0,2:0:0:0:
418,44,105954,1,6,1:0:0:0:
363,102,106097,1,4,2:3:0:0:
412,162,106240,2,0,P|445:160|470:164,1,52.5,2|0,1:0|2:0,2:0:0:0:
402,312,106525,5,6,1:0:0:0:
304,226,106668,1,4,2:3:0:0:
304,226,106811,2,2,P|271:224|246:228,1,52.5,2|0,1:0|2:0,2:1:0:0:
163,326,107097,2,0,P|108:326|46:308,1,105,4|2,2:1|1:0,2:0:0:0:
12,192,107525,1,4,2:3:0:0:
135,250,107668,6,2,P|134:224|142:137,1,105,14|0,1:0|2:0,2:1:0:0:
16,107,108097,2,0,P|17:84|15:52,1,52.5,2|4,1:0|2:1,2:0:0:0:
107,13,108382,1,2,1:0:0:0:
107,13,108811,5,6,1:0:0:0:
227,70,108954,1,4,2:3:0:0:
227,70,109097,2,0,P|268:73|292:67,1,52.5,2|0,1:0|2:0,2:0:0:0:
410,38,109382,2,2,P|404:116|408:159,1,105,6|2,2:1|1:0,2:1:0:0:
504,8,109811,1,4,2:3:0:0:
497,169,109954,6,0,L|501:237,1,52.5,14|4,1:0|2:3,2:0:0:0:
508,298,110240,1,2,1:0:0:0:
508,298,110525,1,6,1:0:0:0:
464,360,110668,1,4,2:3:0:0:
397,327,110811,2,0,L|393:274,1,52.5,2|0,1:0|2:0,2:0:0:0:
266,372,111097,5,6,1:0:0:0:
157,303,111240,1,4,2:3:0:0:
157,303,111382,2,0,P|124:299|94:303,1,52.5,2|0,1:0|2:0,2:0:0:0:
217,182,111668,2,0,P|272:203|328:204,1,105,6|4,2:1|2:3,2:0:0:0:
227,70,112097,1,4,2:3:0:0:
114,138,112240,6,0,P|85:141|58:137,1,52.5,14|8,1:0|2:1,2:0:0:0:
36,161,112454,1,8,2:1:0:0:
36,161,112525,1,8,1:0:0:0:
105,301,112668,1,4,2:3:0:0:
217,182,112811,1,8,2:3:0:0:
148,42,112954,1,4,2:3:0:0:
36,161,113097,1,14,1:0:0:0:
36,161,113382,5,6,1:0:0:0:
105,301,113525,1,4,2:3:0:0:
105,301,113668,2,0,P|66:302|42:309,1,52.5,2|0,1:0|2:0,2:0:0:0:
210,272,113954,2,0,P|272:277|317:292,1,105,6|2,2:1|1:0,2:0:0:0:
217,182,114382,1,4,2:3:0:0:
358,100,114525,6,2,P|387:102|410:101,1,52.5,14|0,1:0|2:0,2:1:0:0:
297,164,114811,1,0,1:0:0:0:
420,190,114954,2,0,P|470:183|526:150,1,105,2|4,1:0|2:3,2:0:0:0:
339,21,115382,2,0,P|310:23|287:22,1,52.5,2|0,1:0|2:0,2:0:0:0:
173,90,115668,5,6,1:0:0:0:
56,18,115811,1,4,2:3:0:0:
56,18,115954,2,0,P|56:60|53:78,1,52.5,2|0,1:0|2:0,2:0:0:0:
180,175,116240,2,2,P|178:256|185:297,1,105,6|4,2:1|2:3,2:1:0:0:
60,171,116668,1,4,2:3:0:0:
103,362,116811,6,2,P|145:363|179:361,1,52.5,14|0,1:0|2:0,2:1:0:0:
233,342,117097,1,0,1:0:0:0:
413,363,117240,2,0,P|364:370|297:356,1,105,2|4,1:0|2:3,2:0:0:0:
258,241,117668,2,0,P|300:242|334:240,1,52.5,2|0,1:0|2:0,2:0:0:0:
420,190,117954,5,6,1:0:0:0:
324,60,118097,1,4,2:3:0:0:
324,60,118240,2,0,P|281:61|248:59,1,52.5,2|0,1:0|2:0,2:0:0:0:
83,138,118525,2,0,P|132:145|199:131,1,105,6|4,2:1|2:3,2:0:0:0:
258,241,118954,1,4,2:3:0:0:
180,341,119097,6,0,P|222:342|256:340,1,52.5,14|0,1:0|2:0,2:0:0:0:
339,262,119382,1,0,1:0:0:0:
412,287,119525,2,0,P|454:288|488:286,1,52.5,2|6,1:0|2:1,2:0:0:0:
335,144,119811,1,4,2:3:0:0:
261,163,119954,1,2,1:0:0:0:
261,163,120239,1,6,1:0:0:0:
261,163,121382,6,0,P|260:151|265:110,3,35,14|8|8|8,1:0|2:1|2:1|2:1,2:0:0:0:
188,64,121668,1,8,1:0:0:0:
156,86,121739,1,8,2:3:0:0:
117,86,121811,1,4,2:3:0:0:
85,64,121882,1,8,2:3:0:0:
49,89,121954,2,0,P|50:101|45:142,3,35,14|8|8|8,1:0|2:1|2:1|2:1,2:0:0:0:
86,212,122239,1,8,2:1:0:0:
118,190,122311,1,4,2:3:0:0:
157,190,122382,1,8,2:3:0:0:
189,212,122454,1,4,2:3:0:0:
226,198,122525,6,2,P|221:301|230:377,1,175,6|4,1:0|2:3,2:1:0:0:
356,272,122953,1,10,1:0:0:0:
366,145,123096,1,2,1:0:0:0:
376,272,123239,1,10,1:0:0:0:
460,338,123382,1,2,1:0:0:0:
460,338,123453,1,4,2:3:0:0:
460,338,123525,1,10,1:0:0:0:
512,222,123667,5,6,1:0:0:0:
447,112,123810,1,8,1:0:0:0:
447,112,123882,1,2,1:0:0:0:
506,35,124025,1,4,2:3:0:0:
506,35,124096,1,10,1:0:0:0:
348,63,124239,1,2,1:0:0:0:
258,19,124382,2,0,P|216:23|157:16,1,87.5,10|4,1:0|2:3,2:0:0:0:
170,18,124596,1,4,2:3:0:0:
170,18,124667,1,10,1:0:0:0:
268,126,124810,1,2,1:0:0:0:
189,187,124953,6,2,P|129:189|25:242,1,175,14|8,1:0|1:0,2:1:0:0:
106,345,125382,1,2,1:0:0:0:
196,303,125525,1,8,1:0:0:0:
196,303,125596,1,2,1:0:0:0:
283,353,125739,1,4,2:3:0:0:
283,353,125810,1,10,1:0:0:0:
370,232,125953,5,6,1:0:0:0:
471,355,126096,2,2,P|468:305|477:234,1,87.5,10|4,1:0|2:3,2:1:0:0:
415,150,126382,1,10,1:0:0:0:
291,193,126525,2,0,P|294:143|285:72,2,87.5,2|10|2,1:0|1:0|1:0,2:0:0:0:
291,193,126882,1,4,2:3:0:0:
291,193,126953,1,8,1:0:0:0:
454,19,127096,6,2,P|360:29|280:15,1,175,6|4,1:0|2:3,2:1:0:0:
281,15,127453,1,4,2:3:0:0:
281,15,127525,1,10,1:0:0:0:
197,116,127667,1,2,1:0:0:0:
113,217,127810,1,8,1:0:0:0:
12,133,127953,1,2,1:0:0:0:
12,133,128025,1,4,2:3:0:0:
12,133,128096,1,8,1:0:0:0:
96,32,128239,5,6,1:0:0:0:
298,200,128525,1,6,1:0:0:0:
29,318,128810,5,6,1:0:0:0:
12,133,129096,1,14,1:0:0:0:
214,301,129382,5,6,1:0:0:0:
244,316,129453,1,0,1:0:0:0:
277,305,129525,1,10,1:0:0:0:
354,362,129667,1,2,1:0:0:0:
384,347,129739,1,4,2:3:0:0:
417,358,129810,1,10,1:0:0:0:
505,261,129953,1,2,1:0:0:0:
440,191,130096,2,0,P|396:197|349:190,1,87.5,10|8,1:0|1:3,2:0:0:0:
326,218,130310,1,4,2:3:0:0:
326,218,130382,2,0,P|295:218|268:213,1,43.75,8|4,2:3|2:3,2:0:0:0:
230,159,130525,5,8,1:3:0:0:
410,72,130810,1,10,1:3:0:0:
277,305,131096,1,4,2:3:0:0:
245,290,131167,1,8,2:3:0:0:
209,290,131239,1,4,2:3:0:0:
177,305,131310,1,8,2:3:0:0:
138,293,131382,2,0,P|141:354|137:387,1,87.5,4|8,2:3|1:0,2:0:0:0:
14,232,131667,6,2,P|7:153|20:67,1,140,6|4,1:0|2:3,2:1:0:0:
13,92,132025,1,4,2:3:0:0:
13,92,132096,1,8,1:0:0:0:
140,155,132239,2,0,L|138:74,1,70,2|8,1:0|1:0,2:0:0:0:
254,20,132525,1,4,2:3:0:0:
254,20,132596,1,4,2:3:0:0:
254,20,132667,2,2,P|336:28|406:17,1,140,10|8,1:0|1:0,2:1:0:0:
457,104,133096,1,2,1:0:0:0:
457,104,133167,1,4,2:3:0:0:
457,104,133239,2,0,P|456:162|462:198,1,70,8|2,1:0|1:0,2:0:0:0:
338,125,133525,1,8,1:0:0:0:
285,205,133667,6,0,P|287:237|285:258,2,35,2|4|8,1:0|2:3|1:0,2:0:0:0:
389,284,133953,1,4,2:3:0:0:
324,356,134096,2,0,P|282:351|238:359,1,70,10|4,1:0|2:3,2:0:0:0:
193,312,134382,1,10,1:0:0:0:
193,312,134525,1,4,2:3:0:0:
1,367,134667,2,0,P|86:376|146:368,1,140,10|10,1:0|1:0,2:0:0:0:
324,356,135096,2,0,P|366:361|410:353,1,70,2|8,1:0|1:0,2:0:0:0:
484,263,135382,1,4,2:3:0:0:
484,263,135453,1,4,2:3:0:0:
484,263,135525,6,2,P|493:177|485:117,1,140,10|8,1:0|1:0,2:1:0:0:
377,55,135953,1,4,2:3:0:0:
377,55,136025,1,4,2:3:0:0:
377,55,136096,1,8,1:0:0:0:
377,186,136239,1,4,2:3:0:0:
289,143,136382,1,8,1:0:0:0:
218,179,136525,2,0,P|219:202|217:219,2,35,4|4|8,2:3|2:3|1:0,2:0:0:0:
142,118,136810,6,2,P|97:136|5:138,1,140,2|2,1:0|1:0,2:1:0:0:
6,138,137167,1,4,2:3:0:0:
6,138,137239,1,8,1:0:0:0:
75,262,137382,1,2,1:0:0:0:
11,368,137525,2,2,P|59:367|97:375,1,70,10|0,1:0|2:0,2:1:0:0:
80,370,137739,1,4,2:3:0:0:
80,370,137810,1,10,1:0:0:0:
194,298,137953,1,2,1:0:0:0:
142,215,138096,1,10,1:0:0:0:
292,295,138239,1,4,2:3:0:0:
292,295,138310,1,4,2:3:0:0:
292,295,138382,6,0,P|379:293|429:271,1,140,10|10,1:0|1:0,2:0:0:0:
339,176,138810,1,4,2:3:0:0:
403,103,138953,2,2,P|450:107|478:102,1,70,10|4,1:0|2:3,2:1:0:0:
386,10,139239,2,0,P|339:14|311:9,1,70,10|4,1:0|2:3,2:0:0:0:
316,10,139453,1,4,2:3:0:0:
316,10,139525,1,8,1:0:0:0:
240,117,139667,1,6,2:3:0:0:
240,117,139953,5,8,2:1:0:0:
206,104,140025,1,8,2:1:0:0:
172,112,140096,1,8,2:1:0:0:
152,140,140167,1,8,2:1:0:0:
119,126,140239,2,0,P|120:102|116:69,3,35,8|8|4|8,2:1|2:3|2:3|2:3,2:0:0:0:
198,231,140525,1,4,2:3:0:0:
232,218,140596,1,8,2:1:0:0:
266,226,140667,1,8,2:1:0:0:
286,254,140739,1,8,2:1:0:0:
334,245,140810,6,2,P|333:345|342:408,1,140,6|4,1:0|2:3,2:1:0:0:
461,282,141239,1,8,1:0:0:0:
402,170,141382,1,4,2:3:0:0:
468,94,141525,1,8,1:0:0:0:
393,36,141667,1,4,2:3:0:0:
393,36,141739,1,4,2:3:0:0:
393,36,141810,1,10,1:0:0:0:
318,110,141953,2,0,P|271:113|184:76,1,140,2|4,1:0|2:3,2:0:0:0:
163,58,142310,1,4,2:3:0:0:
163,58,142382,2,2,P|122:63|72:56,1,70,10|4,1:0|2:3,2:1:0:0:
41,221,142667,2,2,P|82:216|132:223,1,70,10|0,1:0|2:3,2:1:0:0:
145,233,142882,1,4,2:3:0:0:
145,233,142953,5,10,1:0:0:0:
101,357,143096,1,2,1:0:0:0:
216,293,143239,1,10,1:0:0:0:
311,334,143382,1,4,2:3:0:0:
311,334,143453,1,4,2:3:0:0:
311,334,143525,1,8,1:0:0:0:
378,290,143667,2,0,P|375:256|378:219,1,70,2|8,1:0|1:0,2:0:0:0:
318,110,143953,1,2,1:0:0:0:
318,110,144025,1,4,2:3:0:0:
318,110,144096,6,0,P|271:113|184:76,2,140,8|8|10,1:0|1:0|1:0,2:0:0:0:
392,46,144810,1,6,2:3:0:0:
297,215,144953,2,2,P|265:213|219:218,1,70,10|4,1:0|2:3,2:1:0:0:
201,202,145167,1,4,2:3:0:0:
201,202,145239,1,10,1:0:0:0:
265,355,145382,1,2,1:0:0:0:
378,290,145525,2,2,P|391:238|394:142,1,140,10|8,1:0|1:0,2:1:0:0:
392,46,145953,1,4,2:3:0:0:
247,132,146096,1,8,1:0:0:0:
244,26,146239,1,4,2:3:0:0:
244,26,146310,1,4,2:3:0:0:
244,26,146382,1,10,1:0:0:0:
99,103,146525,6,2,P|86:155|83:251,1,140,2|4,1:0|2:3,2:1:0:0:
120,311,146882,1,4,2:3:0:0:
120,311,146953,2,2,P|164:307|204:317,1,70,10|4,1:0|2:3,2:1:0:0:
378,290,147239,2,2,P|343:284|308:289,1,70,10|4,1:0|2:3,2:1:0:0:
463,229,147525,1,10,1:0:0:0:
395,152,147667,5,14,1:0:0:0:
367,173,147739,1,8,2:1:0:0:
332,181,147810,1,8,2:1:0:0:
298,170,147882,1,8,2:1:0:0:
271,147,147953,1,8,1:0:0:0:
250,118,148025,1,8,2:3:0:0:
220,100,148096,1,4,2:3:0:0:
184,100,148167,1,8,2:3:0:0:
155,120,148239,2,0,P|155:157|150:179,3,35,12|8|8|8,1:0|2:1|2:1|2:1,2:0:0:0:
53,53,148525,2,0,P|53:90|58:112,3,35,8|4|8|4,1:0|2:3|2:3|2:3,2:0:0:0:
8,211,148810,5,12,1:0:0:0:
17,230,148882,1,8,2:1:0:0:
21,250,148953,1,8,2:1:0:0:
21,271,149025,1,8,2:1:0:0:
15,291,149096,1,8,1:0:0:0:
6,310,149167,1,8,2:1:0:0:
1,330,149239,1,8,2:1:0:0:
0,350,149310,1,8,2:1:0:0:
8,369,149382,2,0,P|31:367|54:372,3,35,8|4|8|4,2:3|2:3|2:3|2:3,2:0:0:0:
130,328,149667,2,0,P|153:326|176:331,3,35,8|4|8|4,2:3|2:3|2:3|2:3,2:0:0:0:
251,369,149953,5,6,1:0:0:0:
336,319,150096,2,2,P|431:325|476:318,2,140,8|8|8,1:0|1:0|1:0,2:1:0:0:
271,249,150810,1,2,1:0:0:0:
271,249,150882,1,4,2:3:0:0:
271,249,150953,1,8,1:0:0:0:
350,189,151096,2,0,P|404:193|441:185,1,70,2|8,1:0|1:0,2:0:0:0:
295,86,151382,1,4,2:3:0:0:
295,86,151453,1,4,2:3:0:0:
295,86,151525,2,0,P|241:90|204:82,1,70,8|4,1:0|2:3,2:0:0:0:
336,319,151810,2,2,P|383:317|478:268,1,140,8|8,1:0|1:0,2:1:0:0:
166,151,152239,6,2,P|119:153|24:202,1,140,6|4,1:0|2:3,2:1:0:0:
35,191,152596,1,4,2:3:0:0:
35,191,152667,1,8,1:0:0:0:
89,319,152810,1,4,2:3:0:0:
166,262,152953,1,8,1:0:0:0:
225,339,153096,2,0,P|224:368|227:383,2,35,4|4|8,2:3|2:3|1:0,2:0:0:0:
294,226,153382,2,2,P|299:151|295:81,1,140,2|4,1:0|2:3,2:1:0:0:
291,54,153739,1,4,2:3:0:0:
291,54,153810,2,0,L|209:66,1,70,10|4,1:0|2:3,2:0:0:0:
55,54,154096,2,0,L|124:64,1,70,10|4,1:0|2:3,2:0:0:0:
124,64,154310,1,4,2:3:0:0:
124,64,154382,1,8,1:0:0:0:
42,198,154525,6,2,P|116:193|199:209,1,140,6|4,1:0|2:3,2:1:0:0:
213,217,154882,1,4,2:3:0:0:
213,217,154953,1,10,1:0:0:0:
139,327,155096,1,4,2:3:0:0:
52,284,155239,1,8,1:0:0:0:
6,350,155382,2,0,P|7:369|7:390,2,35,2|4|8,1:0|2:3|1:0,2:0:0:0:
42,198,155667,2,0,P|46:166|42:113,1,70,2|8,1:0|1:0,2:0:0:0:
229,72,155953,1,4,2:3:0:0:
229,72,156025,1,4,2:3:0:0:
229,72,156096,2,2,P|281:78|378:70,1,140,10|8,1:0|1:0,2:1:0:0:
316,197,156525,2,0,L|404:201,1,70,4|8,2:3|1:0,2:0:0:0:
494,366,156810,6,2,P|441:359|345:368,1,140,6|8,1:0|2:3,2:1:0:0:
355,365,157167,1,4,2:3:0:0:
355,365,157239,1,8,1:0:0:0:
252,303,157382,2,0,L|165:318,1,70,2|8,1:0|1:0,2:0:0:0:
106,374,157667,1,4,2:3:0:0:
106,374,157739,1,4,2:3:0:0:
106,374,157810,1,8,1:0:0:0:
157,182,157953,2,10,L|244:197,1,70,6|8,1:0|1:0,2:1:0:0:
324,236,158239,1,4,2:3:0:0:
324,236,158310,1,8,2:3:0:0:
324,236,158382,2,0,P|348:235|366:239,1,35,4|8,2:3|2:3,2:0:0:0:
454,208,158525,5,8,1:0:0:0:
474,180,158596,1,8,2:1:0:0:
478,145,158667,1,8,2:1:0:0:
461,113,158739,1,8,2:1:0:0:
432,93,158810,1,8,2:3:0:0:
397,88,158882,1,4,2:3:0:0:
368,68,158953,1,8,2:3:0:0:
357,34,159025,1,4,2:3:0:0:
366,0,159096,6,2,P|296:6|225:1,1,140,6|4,1:0|2:3,2:1:0:0:
136,98,159525,1,8,1:0:0:0:
25,26,159667,2,0,P|26:77|18:119,1,70,4|8,2:3|1:0,2:0:0:0:
116,204,159953,1,4,2:3:0:0:
116,204,160025,1,4,2:3:0:0:
116,204,160096,1,8,1:0:0:0:
235,138,160239,2,0,P|234:189|242:231,1,70,2|8,1:0|1:0,2:0:0:0:
159,318,160525,1,4,2:3:0:0:
159,318,160596,1,4,2:3:0:0:
159,318,160667,2,0,P|74:309|20:273,2,140,10|10|8,1:0|1:0|1:0,2:0:0:0:
276,373,161382,6,2,P|345:366|425:378,1,140,6|4,1:0|2:3,2:1:0:0:
414,375,161739,1,4,2:3:0:0:
414,375,161810,1,8,1:0:0:0:
491,273,161953,1,2,1:0:0:0:
427,200,162096,1,8,1:0:0:0:
366,250,162239,1,4,2:3:0:0:
366,250,162310,1,4,2:3:0:0:
366,250,162382,1,8,1:0:0:0:
485,137,162525,2,0,P|482:108|483:56,1,70,2|8,1:0|1:0,2:0:0:0:
365,18,162810,1,4,2:3:0:0:
365,18,162882,1,4,2:3:0:0:
365,18,162953,2,0,P|292:27|224:17,2,140,10|10|8,1:0|1:0|1:0,2:0:0:0:
275,120,163667,6,0,P|236:116|192:120,1,70,6|8,1:0|1:0,2:0:0:0:
354,162,163953,1,4,2:3:0:0:
196,198,164096,2,0,P|119:209|59:250,1,140,10|8,1:0|1:0,2:0:0:0:
151,356,164525,1,4,2:3:0:0:
151,356,164596,1,4,2:3:0:0:
151,356,164667,1,8,1:0:0:0:
235,307,164810,2,0,P|269:305|304:309,1,70,2|8,1:0|1:0,2:0:0:0:
432,368,165096,1,4,2:3:0:0:
432,368,165167,1,4,2:3:0:0:
432,368,165239,2,0,P|454:296|460:212,1,140,10|10,1:0|1:0,2:0:0:0:
388,169,165667,1,4,2:3:0:0:
304,218,165810,1,8,1:0:0:0:
378,279,165953,1,6,1:0:0:0:
256,192,166025,12,2,167667,2:0:0:0:
256,192,168240,5,6,1:0:0:0:
179,87,168382,1,4,2:3:0:0:
179,87,168525,2,2,P|150:90|119:88,1,52.5,2|0,1:0|2:0,2:1:0:0:
40,229,168811,2,0,P|90:250|149:253,1,105,6|2,2:1|1:0,2:0:0:0:
256,192,169240,1,4,2:3:0:0:
166,334,169382,6,2,L|227:341,1,52.5,14|0,1:0|2:0,2:1:0:0:
294,350,169668,1,0,2:0:0:0:
294,350,169954,1,6,1:0:0:0:
356,298,170097,1,4,2:3:0:0:
425,330,170240,2,0,P|423:363|428:398,1,52.5,2|0,1:0|2:0,2:0:0:0:
359,200,170525,5,6,1:0:0:0:
421,84,170668,1,4,2:3:0:0:
421,84,170811,2,2,P|457:87|486:83,1,52.5,2|0,1:0|2:0,2:1:0:0:
331,11,171097,2,0,P|278:17|197:4,1,105,6|2,2:1|1:0,2:0:0:0:
297,124,171525,1,4,2:3:0:0:
141,56,171668,6,2,P|143:125|136:176,1,105,14|0,1:0|2:0,2:1:0:0:
11,198,172097,2,0,L|15:280,1,52.5,2|6,1:0|2:1,2:0:0:0:
82,320,172382,1,2,1:0:0:0:
82,320,172811,5,6,1:0:0:0:
214,287,172954,1,0,2:0:0:0:
214,287,173097,2,0,P|251:289|273:285,1,52.5,2|0,1:0|2:0,2:0:0:0:
371,363,173382,2,2,P|440:360|488:340,1,105,6|2,2:1|1:0,2:1:0:0:
328,225,173811,1,4,2:3:0:0:
512,153,173954,6,2,L|448:158,1,52.5,14|0,1:0|2:0,2:1:0:0:
382,162,174240,1,0,2:0:0:0:
382,162,174525,1,6,1:0:0:0:
332,99,174668,1,4,2:3:0:0:
384,42,174811,2,0,P|414:44|442:40,1,52.5,2|0,1:0|2:0,2:0:0:0:
251,125,175097,5,6,1:0:0:0:
132,70,175240,1,4,2:3:0:0:
132,70,175382,2,2,P|102:72|74:68,1,52.5,2|0,1:0|2:0,2:1:0:0:
27,225,175668,2,0,P|93:204|144:205,1,105,4|2,2:1|1:0,2:0:0:0:
41,346,176097,1,4,2:3:0:0:
159,286,176240,1,14,1:0:0:0:
256,320,176382,5,8,2:1:0:0:
256,320,176454,1,8,2:1:0:0:
256,320,176525,2,0,P|294:318|327:323,1,52.5,8|4,1:0|2:3,2:0:0:0:
411,221,176811,1,8,2:3:0:0:
313,135,176954,1,4,2:3:0:0:
210,217,177097,1,14,1:0:0:0:
210,217,177382,5,6,1:0:0:0:
312,323,177525,1,4,2:3:0:0:
312,323,177668,2,0,P|344:322|384:326,1,52.5,2|0,1:0|2:0,2:0:0:0:
498,227,177954,2,2,P|503:203|502:120,1,105,6|2,2:1|1:0,2:1:0:0:
430,57,178382,1,4,2:3:0:0:
316,188,178525,6,2,P|313:154|316:108,1,52.5,14|0,2:1|2:0,2:1:0:0:
325,56,178811,1,0,1:0:0:0:
208,113,178954,2,0,P|206:195|211:220,1,105,2|4,1:0|2:3,2:0:0:0:
74,301,179382,2,0,P|77:267|74:221,1,52.5,2|0,1:0|2:0,2:0:0:0:
37,162,179668,5,6,1:0:0:0:
120,19,179811,1,4,2:3:0:0:
120,19,179954,2,0,P|152:21|184:15,1,52.5,2|0,1:0|2:0,2:0:0:0:
325,56,180240,2,0,P|381:53|441:25,1,105,6|4,2:1|2:3,2:0:0:0:
316,188,180668,1,4,2:3:0:0:
439,256,180811,6,0,P|402:253|368:258,1,52.5,14|0,1:0|2:0,2:0:0:0:
492,337,181097,1,0,1:0:0:0:
329,315,181240,2,0,P|252:325|210:349,1,105,2|4,1:0|2:3,2:0:0:0:
77,249,181668,2,0,P|113:251|148:247,1,52.5,2|0,1:0|2:0,2:0:0:0:
226,223,181954,5,6,1:0:0:0:
128,364,182097,1,4,2:3:0:0:
128,364,182240,2,0,P|91:361|57:366,1,52.5,2|0,1:0|2:0,2:0:0:0:
23,139,182525,2,0,P|100:129|142:105,1,105,6|0,2:1|2:0,2:0:0:0:
0,16,182954,1,4,2:3:0:0:
206,135,183097,6,0,P|204:108|205:82,1,52.5,14|0,1:0|2:0,2:0:0:0:
207,4,183382,1,0,1:0:0:0:
315,164,183525,2,0,P|308:245|297:281,1,105,2|4,1:0|2:3,2:0:0:0:
128,364,183954,2,0,P|129:337|128:311,1,52.5,2|0,1:0|2:0,2:0:0:0:
226,223,184240,5,6,1:0:0:0:
375,352,184382,1,4,2:3:0:0:
375,352,184525,2,0,P|407:350|433:354,1,52.5,2|0,1:0|2:0,2:0:0:0:
500,208,184811,2,2,P|506:126|517:90,1,105,6|4,2:1|2:3,2:1:0:0:
416,19,185240,1,4,2:3:0:0:
315,163,185382,6,0,L|312:99,1,52.5,14|0,1:0|2:0,2:0:0:0:
278,39,185668,1,2,2:0:0:0:
197,221,185954,2,0,L|200:285,1,52.5,4|0,2:3|2:0,2:0:0:0:
234,345,186240,1,2,2:0:0:0:
315,163,186525,5,6,1:0:0:0:
197,221,187097,1,2,2:0:0:0:
387,200,187668,5,2,2:0:0:0:
124,183,188240,1,2,2:0:0:0:
419,301,188811,5,2,2:0:0:0:
92,82,189382,1,2,2:0:0:0:
350,383,189954,5,2,2:0:0:0:
161,0,190240,2,0,P|177:1|194:-1,3,17.5,8|4|8|4,2:3|2:3|2:3|2:3,2:0:0:0:
256,64,190525,5,4,2:3:0:0:
247,192,190811,1,4,2:3:0:0:
256,315,191097,1,6,1:0:0:0:
256,192,191168,12,4,196775,2:1:0:0:
0,214,209382,5,4,1:0:0:0:
71,327,209525,1,4,2:3:0:0:
132,253,209668,2,0,P|130:206|136:165,1,70,10|0,1:0|2:0,2:0:0:0:
249,114,209954,2,0,P|251:161|245:202,1,70,2|4,1:0|2:3,2:0:0:0:
333,286,210239,1,10,1:0:0:0:
422,243,210382,1,4,2:3:0:0:
491,295,210525,6,0,P|492:352|497:373,1,70,2|0,1:0|2:0,2:0:0:0:
368,174,210811,2,0,P|377:117|377:23,1,140,10|2,1:0|2:1,2:0:0:0:
288,0,211239,1,0,2:0:0:0:
217,108,211382,2,0,L|207:27,1,70,10|0,1:0|2:0,2:0:0:0:
116,2,211668,6,0,L|107:71,1,70,2|0,2:1|2:0,2:0:0:0:
39,144,211954,1,10,1:0:0:0:
150,264,212239,1,2,2:1:0:0:
281,167,212525,1,10,1:0:0:0:
195,340,212811,6,0,P|271:343|289:348,1,70,2|0,2:1|2:0,2:0:0:0:
326,295,213097,1,8,1:0:0:0:
326,295,213239,1,0,2:0:0:0:
496,368,213382,2,0,P|415:377|353:366,1,140,2|8,2:1|1:0,2:0:0:0:
265,342,213811,1,0,2:0:0:0:
406,239,213954,5,2,1:0:0:0:
357,146,214097,1,4,2:3:0:0:
410,60,214239,2,0,P|366:63|328:56,1,70,10|0,1:0|2:0,2:0:0:0:
217,108,214525,2,0,P|136:117|74:106,1,140,2|10,2:1|1:0,2:0:0:0:
169,247,214954,1,4,2:3:0:0:
93,363,215097,2,0,P|137:360|175:367,1,70,2|0,1:0|2:0,2:0:0:0:
268,240,215382,2,0,P|349:249|411:238,2,140,10|2|10,1:0|2:1|1:0,2:0:0:0:
268,240,216239,5,2,2:1:0:0:
268,240,216525,1,10,1:0:0:0:
341,59,216811,1,2,2:1:0:0:
341,59,217097,1,10,1:0:0:0:
219,178,217382,6,0,P|216:147|219:93,1,70,2|0,2:1|2:0,2:0:0:0:
219,29,217668,1,8,1:0:0:0:
77,114,217954,2,0,P|80:145|77:199,1,70,2|0,2:1|2:0,2:0:0:0:
77,263,218239,1,8,1:0:0:0:
77,263,218525,5,2,1:0:0:0:
176,353,218668,1,4,2:3:0:0:
152,218,218811,2,0,P|184:222|233:216,1,70,10|0,1:0|2:0,2:0:0:0:
394,301,219097,2,0,P|339:311|254:299,1,140,2|10,2:1|1:0,2:0:0:0:
176,353,219525,1,4,2:3:0:0:
300,178,219668,6,0,P|332:182|381:176,1,70,2|0,1:0|2:0,2:0:0:0:
288,41,219954,2,0,P|219:52|150:42,1,140,10|2,1:0|1:0,2:0:0:0:
79,184,220382,1,4,2:3:0:0:
9,69,220525,2,0,P|10:110|6:146,1,70,10|0,1:0|2:0,2:0:0:0:
78,283,220811,5,2,1:0:0:0:
189,209,220954,1,4,2:3:0:0:
267,263,221097,2,0,P|266:304|270:340,1,70,10|0,1:0|2:0,2:0:0:0:
330,383,221382,1,2,2:1:0:0:
330,383,221668,1,10,1:0:0:0:
428,296,221811,1,4,2:3:0:0:
303,188,221954,6,2,P|370:189|443:156,2,140,2|8|2,2:1|1:0|1:0,2:1:0:0:
224,84,222668,1,4,2:3:0:0:
358,40,222811,2,0,P|317:44|279:39,1,70,10|0,1:0|2:0,2:0:0:0:
422,85,223097,5,2,1:0:0:0:
224,84,223239,2,0,P|178:82|92:34,1,140,2|0,1:0|2:0,2:0:0:0:
189,209,223668,1,2,2:1:0:0:
99,307,223811,2,0,P|140:304|172:311,1,70,2|8,2:1|1:0,2:0:0:0:
286,366,224097,1,2,1:0:0:0:
374,318,224239,1,4,2:3:0:0:
374,318,224382,1,2,2:1:0:0:
475,360,224525,6,0,P|472:313|474:285,1,70,8|0,1:0|2:0,2:0:0:0:
412,215,224811,1,2,1:0:0:0:
465,129,224954,1,4,2:3:0:0:
388,63,225097,2,0,P|355:66|316:62,1,70,10|0,1:0|2:0,2:0:0:0:
107,32,225382,5,4,2:3:0:0:
107,32,225525,1,4,2:3:0:0:
107,32,225668,1,8,1:0:0:0:
107,32,225954,1,0,2:0:0:0:
107,32,226239,1,8,1:0:0:0:
139,125,226382,1,4,2:3:0:0:
156,245,226525,1,8,1:0:0:0:
156,245,226597,1,4,2:3:0:0:
156,245,226668,1,8,2:3:0:0:
156,245,226739,1,4,2:3:0:0:
156,245,226811,1,8,2:3:0:0:
156,245,226882,1,4,2:3:0:0:
156,245,226954,1,8,2:3:0:0:
156,245,227025,1,4,2:3:0:0:
156,245,227097,1,8,2:3:0:0:
156,245,227168,1,4,2:3:0:0:
156,245,227239,1,8,2:3:0:0:
156,245,227311,1,4,2:3:0:0:
156,245,227382,1,8,1:0:0:0:
156,245,227668,5,6,1:0:0:0:
349,245,227811,1,4,2:3:0:0:
156,274,227954,6,0,P|214:273|266:281,1,87.5,10|0,1:0|2:0,2:0:0:0:
425,134,228239,2,2,P|357:136|248:84,1,175,2|10,1:0|1:0,2:1:0:0:
452,134,228668,1,4,2:3:0:0:
337,6,228811,6,0,P|279:10|227:2,1,87.5,2|0,1:0|2:3,2:3:0:0:
151,99,229097,1,10,1:0:0:0:
72,42,229239,1,0,2:3:0:0:
157,187,229382,2,0,P|153:245|161:297,1,87.5,2|0,2:1|2:0,2:0:0:0:
13,365,229668,2,0,P|17:307|9:255,1,87.5,10|0,1:0|2:0,2:0:0:0:
157,187,229954,6,2,B|249:187|221:252|311:292,1,175,2|10,2:1|1:0,2:1:0:0:
411,219,230382,1,0,2:0:0:0:
489,283,230525,2,0,P|487:350|491:375,1,87.5,2|0,2:1|2:0,2:0:0:0:
485,110,230811,1,10,1:0:0:0:
411,219,230954,1,0,2:0:0:0:
335,156,231097,5,0,2:0:0:0:
335,156,231382,1,10,1:0:0:0:
335,156,231668,1,2,2:1:0:0:
335,156,231954,1,8,1:0:0:0:
335,156,232239,5,2,1:0:0:0:
303,30,232382,1,4,2:3:0:0:
229,142,232525,2,0,P|230:198|223:244,1,73.5,8|0,1:0|2:0,2:0:0:0:
326,299,232811,2,0,P|393:274|472:274,1,147,2|10,2:1|1:0,2:0:0:0:
344,381,233239,1,0,2:0:0:0:
227,318,233382,6,0,P|171:320|124:314,1,73.5,2|0,1:0|2:0,2:0:0:0:
87,190,233668,2,0,P|154:214|233:214,2,147,10|2|10,1:0|2:1|1:0,2:0:0:0:
87,190,234525,1,2,2:1:0:0:
148,115,234668,1,0,2:0:0:0:
93,28,234811,2,0,P|133:31|177:25,1,73.5,10|0,1:0|2:0,2:0:0:0:
239,99,235097,6,0,P|312:98|380:73,1,147,2|10,2:1|1:0,2:0:0:0:
459,12,235525,1,4,2:3:0:0:
398,165,235668,2,0,P|397:220|401:254,1,73.5,2|0,2:1|2:0,2:0:0:0:
405,316,235954,1,8,1:0:0:0:
217,368,236239,2,0,P|218:313|214:279,1,73.5,2|0,2:1|2:0,2:0:0:0:
228,216,236525,1,8,1:0:0:0:
228,216,236811,5,2,1:0:0:0:
90,306,236954,1,4,2:3:0:0:
34,227,237097,2,0,P|36:190|34:153,1,73.5,8|0,1:0|2:0,2:0:0:0:
169,160,237382,2,0,P|166:123|168:86,1,73.5,2|0,2:1|2:0,2:0:0:0:
56,21,237668,1,8,1:0:0:0:
35,154,237811,1,4,2:3:0:0:
168,86,237954,6,0,P|232:95|322:81,1,147,2|10,1:0|1:0,2:0:0:0:
313,85,238525,1,2,1:0:0:0:
375,198,238668,1,4,2:3:0:0:
331,293,238811,2,0,P|383:292|420:298,1,73.5,10|0,1:0|2:0,2:0:0:0:
258,227,239097,5,2,1:0:0:0:
179,331,239239,1,4,2:3:0:0:
94,281,239382,2,0,P|42:280|5:286,1,73.5,10|0,1:0|2:0,2:0:0:0:
136,170,239668,1,2,2:1:0:0:
136,170,239954,1,10,1:0:0:0:
179,331,240097,1,4,2:3:0:0:
258,227,240239,2,0,P|256:180|259:151,1,73.5,2|0,1:0|2:0,2:0:0:0:
259,56,240525,5,8,1:0:0:0:
259,56,240811,1,2,1:0:0:0:
370,140,240954,1,4,2:3:0:0:
463,43,241097,2,0,P|461:90|464:119,1,73.5,8|0,1:0|2:0,2:0:0:0:
409,239,241382,1,10,1:0:0:0:
256,192,241454,12,2,243668,2:0:0:0:
201,207,244811,6,0,L|161:217,3,36.75,8|4|4|8,1:0|2:3|2:3|2:3,2:0:0:0:
293,231,245097,2,0,L|322:260,3,36.75,4|8|4|8,1:3|2:3|2:3|2:3,2:0:0:0:
269,139,245382,2,0,L|279:99,3,36.75,4|8|4|0,1:3|2:3|2:3|2:3,2:0:0:0:
201,207,245668,1,10,1:0:0:0:
201,207,245954,5,6,1:0:0:0:
258,364,246096,1,4,2:3:0:0:
258,364,246239,2,0,P|306:362|342:369,1,70,4|4,2:3|2:1,2:0:0:0:
328,365,246811,1,4,2:3:0:0:
421,276,246954,1,4,2:3:0:0:
421,276,247096,1,12,1:0:0:0:
166,329,247668,1,4,1:0:0:0:
166,329,247811,1,4,2:3:0:0:
166,329,248239,5,4,1:0:0:0:
51,208,248382,1,4,2:3:0:0:
51,208,248525,2,0,P|56:167|55:123,1,70,4|4,2:3|2:1,2:0:0:0:
57,138,249096,1,4,2:3:0:0:
162,55,249239,1,4,2:3:0:0:
162,55,249382,1,12,1:0:0:0:
170,221,249954,1,4,1:0:0:0:
170,221,250096,1,4,2:3:0:0:
170,221,250525,5,4,1:0:0:0:
301,121,250668,1,4,2:3:0:0:
301,121,250811,2,0,P|351:126|386:117,1,70,4|4,2:3|2:1,2:0:0:0:
370,122,251382,1,4,2:3:0:0:
448,232,251525,1,4,2:3:0:0:
448,232,251668,1,12,1:0:0:0:
448,232,252239,1,4,2:1:0:0:
448,232,252811,5,4,1:0:0:0:
356,368,252954,1,0,2:3:0:0:
356,368,253096,2,0,P|315:365|275:368,1,70,4|4,2:3|2:1,2:0:0:0:
286,367,253668,1,4,2:3:0:0:
205,267,253811,1,4,2:3:0:0:
205,267,253954,1,12,1:0:0:0:
134,334,254525,1,4,1:0:0:0:
134,334,254668,1,4,2:3:0:0:
134,334,255096,5,4,1:0:0:0:
206,154,255239,1,4,2:3:0:0:
206,154,255382,2,0,P|210:107|208:79,1,70,4|4,2:3|2:1,2:0:0:0:
209,84,255954,1,4,2:3:0:0:
307,220,256096,1,4,2:3:0:0:
307,220,256239,1,14,1:0:0:0:
307,220,256811,1,6,2:1:0:0:
307,220,257382,6,2,P|303:303|308:368,1,140,6|6,1:0|2:1,2:1:0:0:
437,263,258239,1,4,2:3:0:0:
437,263,258382,1,4,2:3:0:0:
360,119,258525,2,2,P|296:133|208:131,1,140,14|6,1:0|1:0,2:1:0:0:
221,132,259239,1,4,2:3:0:0:
331,11,259668,6,2,P|411:34|498:36,2,140,6|4|12,1:0|2:1|1:0,2:1:0:0:
267,58,261382,1,4,1:0:0:0:
267,58,261525,1,4,2:3:0:0:
267,58,261954,5,4,1:0:0:0:
146,12,262096,1,4,2:3:0:0:
146,12,262239,2,0,P|104:15|68:10,1,70,4|4,2:3|2:1,2:0:0:0:
76,12,262811,1,4,2:3:0:0:
26,132,262954,1,4,2:3:0:0:
151,92,263096,2,0,P|150:116|152:131,3,35,8|4|8|4,2:3|2:3|2:3|2:3,2:0:0:0:
119,198,263382,2,0,P|120:222|118:237,3,35,8|4|8|4,2:3|2:3|2:3|2:3,2:0:0:0:
173,288,263668,2,0,P|172:312|174:327,3,35,8|4|8|4,2:3|2:3|2:3|2:3,2:0:0:0:
124,384,263954,1,12,1:0:0:0:
256,237,264239,6,2,L|273:119,1,105,14|0,1:0|2:0,2:1:0:0:
411,237,264811,2,0,L|421:167,1,70,4|0,2:3|2:0,2:0:0:0:
430,237,265096,2,0,L|420:167,1,70,4|0,2:3|2:0,2:0:0:0:
256,237,265382,6,2,L|228:45,1,175,2|0,1:0|2:0,2:1:0:0:
110,184,266239,2,0,L|100:114,1,70,4|0,2:3|2:0,2:0:0:0:
241,341,266525,6,2,L|258:223,1,105,14|0,1:0|2:0,2:1:0:0:
430,237,267096,2,0,L|440:167,1,70,4|0,2:3|2:0,2:0:0:0:
271,341,267382,6,2,L|254:223,1,105,14|0,1:0|2:0,2:1:0:0:
52,339,267954,2,0,L|42:269,1,70,4|0,2:3|2:0,2:0:0:0:
241,341,268239,6,2,L|258:223,1,105,14|0,1:0|2:0,2:1:0:0:
444,379,268811,2,0,L|454:309,1,70,4|0,2:3|2:0,2:0:0:0:
464,379,269096,2,0,L|454:309,1,70,2|0,1:0|2:0,2:0:0:0:
444,379,269382,2,0,L|454:309,1,70,4|0,2:3|2:0,2:0:0:0:
464,379,269668,2,0,L|454:309,1,70,4|0,2:3|2:0,2:0:0:0:
271,43,269954,6,2,L|254:161,1,105,14|0,1:0|2:0,2:1:0:0:
271,341,270525,6,2,L|254:223,1,105,14|0,1:0|2:0,2:1:0:0:
241,43,271096,6,2,L|258:161,1,105,14|0,1:0|2:0,2:1:0:0:
68,5,271668,2,0,L|58:75,1,70,2|0,1:0|2:0,2:0:0:0:
48,5,271954,2,0,L|58:75,1,70,4|0,2:3|2:0,2:0:0:0:
68,5,272239,2,0,L|58:75,1,70,2|0,1:0|2:0,2:0:0:0:
48,5,272525,2,0,L|58:75,1,70,4|0,2:3|2:0,2:0:0:0:
444,5,272811,2,0,L|454:75,1,70,2|0,1:0|2:0,2:0:0:0:
464,5,273096,2,0,L|454:75,1,70,4|0,2:3|2:0,2:0:0:0:
271,43,273382,6,2,L|254:161,1,105,14|0,1:0|2:0,2:1:0:0:
48,5,273954,2,0,L|58:75,1,70,4|0,2:3|2:0,2:0:0:0:
256,237,274239,6,2,L|270:340,1,105,14|0,1:0|2:0,2:1:0:0:
32,187,274811,2,0,L|42:257,1,70,4|0,2:3|2:0,2:0:0:0:
241,43,275096,5,10,1:0:0:0:
271,341,275382,1,4,2:3:0:0:
271,43,275668,6,2,P|361:51|415:43,1,140,6|14,1:0|1:0,2:1:0:0:
363,169,276525,2,0,P|415:168|445:172,1,70,4|6,2:3|1:0,2:0:0:0:
291,256,277096,1,4,2:3:0:0:
201,211,277382,2,2,P|149:212|119:208,1,70,14|4,1:0|2:3,2:1:0:0:
25,81,277954,6,2,P|115:89|169:81,2,140,6|14|6,1:0|1:0|1:0,2:1:0:0:
131,210,279382,1,4,2:3:0:0:
66,330,279668,2,2,P|118:329|148:333,1,70,14|4,1:0|2:3,2:1:0:0:
256,384,280239,1,2,2:0:0:0:
256,384,284239,5,10,1:0:0:0:
256,384,284811,1,6,1:0:0:0:
348,248,284953,1,4,2:3:0:0:
348,248,285096,2,0,P|383:250|413:247,1,52.5,2|0,1:0|2:0,2:0:0:0:
256,117,285382,2,2,P|201:129|149:125,1,105,6|4,2:1|2:3,2:1:0:0:
74,228,285811,1,4,2:3:0:0:
199,209,285953,6,2,P|197:262|204:305,1,52.5,14|0,1:0|2:0,2:1:0:0:
198,337,286239,1,0,2:0:0:0:
198,337,286525,1,6,1:0:0:0:
130,376,286668,1,4,2:3:0:0:
57,355,286811,2,0,P|59:302|52:259,1,52.5,0|0,2:0|2:0,2:0:0:0:
74,228,287096,5,6,1:0:0:0:
20,77,287239,1,4,2:3:0:0:
20,77,287382,2,0,P|57:80|84:77,1,52.5,2|2,1:0|2:0,2:0:0:0:
153,126,287668,2,0,P|215:127|265:149,1,105,6|4,2:1|2:3,2:0:0:0:
164,7,288096,1,4,2:3:0:0:
310,78,288239,6,2,L|421:67,1,105,14|0,1:0|2:0,2:1:0:0:
366,190,288668,2,0,L|444:208,1,52.5,2|4,1:0|2:1,2:0:0:0:
502,154,288953,1,2,1:0:0:0:
502,154,289382,5,6,1:0:0:0:
430,304,289525,1,4,2:3:0:0:
430,304,289668,2,0,P|398:301|370:304,1,52.5,2|0,2:1|2:0,2:0:0:0:
262,244,289953,2,0,P|207:253|149:244,1,105,6|2,2:1|1:0,2:0:0:0:
279,362,290382,1,4,2:3:0:0:
127,317,290525,6,2,L|53:328,1,52.5,14|0,1:0|2:0,2:1:0:0:
0,333,290811,1,0,2:0:0:0:
0,333,291096,1,6,1:0:0:0:
14,254,291239,1,4,2:3:0:0:
0,180,291382,2,0,L|51:172,1,52.5,2|0,2:1|2:0,2:0:0:0:
196,91,291668,5,6,1:0:0:0:
57,7,291811,1,4,2:3:0:0:
57,7,291953,2,0,P|29:11|-5:5,1,52.5,2|0,1:0|2:0,2:0:0:0:
153,171,292239,2,2,P|222:167|259:170,1,105,4|4,2:1|2:3,2:1:0:0:
345,32,292668,1,4,2:3:0:0:
370,123,292811,5,14,1:0:0:0:
345,226,292953,1,8,2:1:0:0:
345,226,293025,1,8,2:1:0:0:
345,226,293096,1,8,1:0:0:0:
363,304,293239,1,8,2:3:0:0:
465,223,293382,5,4,2:3:0:0:
399,377,293525,1,8,2:3:0:0:
271,277,293668,1,10,1:0:0:0:
271,277,293953,5,6,1:0:0:0:
337,123,294096,1,4,2:3:0:0:
337,123,294239,2,2,P|365:125|392:123,1,52.5,2|0,1:0|2:0,2:1:0:0:
264,18,294525,2,0,P|220:18|146:-6,1,105,4|2,2:1|1:0,2:0:0:0:
258,170,294953,1,4,2:3:0:0:
100,247,295096,6,0,L|152:254,1,52.5,14|0,1:0|2:0,2:0:0:0:
37,320,295382,1,0,1:0:0:0:
155,166,295525,2,0,P|229:174|268:166,1,105,2|4,1:0|2:3,2:0:0:0:
389,123,295953,2,0,L|441:115,1,52.5,2|0,1:0|2:0,2:0:0:0:
500,37,296239,5,6,1:0:0:0:
436,227,296382,1,4,2:3:0:0:
436,227,296525,2,2,P|435:282|439:303,1,52.5,2|0,1:0|2:0,2:1:0:0:
290,368,296811,2,0,P|292:309|280:243,1,105,4|2,2:1|1:0,2:0:0:0:
184,343,297239,1,4,2:3:0:0:
100,247,297382,6,2,L|106:194,1,52.5,14|0,1:0|2:0,2:1:0:0:
41,309,297668,1,0,1:0:0:0:
28,179,297811,2,0,L|21:42,1,105,2|4,1:0|2:3,2:0:0:0:
170,150,298239,2,0,L|176:97,1,52.5,2|0,1:0|2:0,2:0:0:0:
272,9,298525,5,6,1:0:0:0:
302,175,298668,1,4,2:3:0:0:
302,175,298811,2,0,P|302:212|306:241,1,52.5,2|0,1:0|2:0,2:0:0:0:
472,124,299096,2,2,P|472:201|462:253,1,105,6|4,2:1|2:3,2:1:0:0:
374,319,299525,1,4,2:3:0:0:
227,253,299668,6,2,P|227:290|223:319,1,52.5,14|0,1:0|2:0,2:1:0:0:
324,384,299953,1,0,1:0:0:0:
381,231,300096,2,0,P|388:200|392:116,1,105,2|4,1:0|2:3,2:0:0:0:
272,9,300525,2,0,P|269:35|270:61,1,52.5,2|0,1:0|2:0,2:0:0:0:
304,227,300811,5,6,1:0:0:0:
170,150,300953,1,4,2:3:0:0:
170,150,301096,2,0,P|170:187|166:216,1,52.5,2|0,1:0|2:0,2:0:0:0:
30,340,301382,2,2,P|13:299|4:224,1,105,6|4,2:1|2:3,2:1:0:0:
65,125,301811,1,4,2:3:0:0:
121,282,301953,5,14,1:0:0:0:
184,345,302096,1,8,2:3:0:0:
184,345,302168,1,4,2:3:0:0:
184,345,302239,1,8,2:3:0:0:
262,334,302382,1,4,2:3:0:0:
304,267,302525,1,8,2:3:0:0:
376,231,302668,1,4,2:3:0:0:
451,253,302811,1,14,1:0:0:0:
451,253,303096,5,6,1:0:0:0:
505,98,303239,1,4,2:3:0:0:
505,98,303382,2,0,P|477:101|439:93,1,52.5,2|4,1:0|2:3,2:0:0:0:
353,14,303668,2,0,P|305:23|218:7,1,105,6|4,2:1|2:3,2:0:0:0:
329,123,304096,1,4,2:3:0:0:
220,193,304239,6,2,L|160:203,1,52.5,14|0,1:0|2:0,2:1:0:0:
93,218,304525,1,0,2:0:0:0:
93,218,304811,1,6,1:0:0:0:
47,153,304953,1,4,2:3:0:0:
91,89,305096,2,0,L|142:80,1,52.5,2|0,1:0|2:0,2:0:0:0:
220,193,305382,5,6,1:0:0:0:
120,322,305525,1,4,2:3:0:0:
120,322,305668,2,2,P|154:320|181:324,1,52.5,2|0,1:0|2:0,2:1:0:0:
295,371,305953,2,0,P|353:371|411:350,1,105,4|4,2:1|2:3,2:0:0:0:
307,224,306382,1,4,2:3:0:0:
172,322,306525,6,2,P|103:327|3:285,2,157.5,14|2|2,1:0|2:1|1:0,2:1:0:0:
172,322,307668,5,6,1:0:0:0:
47,153,307811,1,4,2:3:0:0:
47,153,307953,2,2,P|80:157|108:151,1,52.5,2|0,1:0|2:0,2:1:0:0:
209,33,308239,2,0,P|258:47|318:46,1,105,4|4,2:1|2:3,2:0:0:0:
220,193,308668,1,4,2:3:0:0:
361,112,308811,6,2,P|430:117|530:75,2,157.5,14|2|2,1:0|2:1|1:0,2:1:0:0:
361,112,309953,5,6,1:0:0:0:
447,257,310096,1,4,2:3:0:0:
447,257,310239,2,0,P|411:254|381:257,1,52.5,2|0,1:0|2:0,2:0:0:0:
337,308,310525,1,6,2:1:0:0:
337,308,310811,1,4,2:3:0:0:
512,384,310953,1,4,2:3:0:0:
512,192,311096,1,14,1:0:0:0:
512,192,311382,1,4,2:3:0:0:
512,192,311668,6,0,P|514:164|512:127,2,58.3333333333333,12|8|8,1:0|2:1|2:1,2:0:0:0:
395,255,311953,2,0,P|393:227|395:190,2,58.3333333333333,8|8|8,1:0|2:1|2:1,2:0:0:0:
282,193,312239,5,6,1:0:0:0:
401,65,312382,1,4,2:3:0:0:
401,65,312525,2,0,P|366:68|329:58,1,52.5,2|0,1:0|2:0,2:0:0:0:
224,98,312811,2,0,P|169:98|95:61,1,105,6|4,2:1|2:3,2:0:0:0:
199,225,313239,1,4,2:3:0:0:
102,311,313382,6,2,L|-2:333,1,105,14|0,1:0|2:0,2:1:0:0:
194,340,313811,2,0,L|256:352,1,52.5,2|4,1:0|2:1,2:0:0:0:
325,365,314096,1,4,2:3:0:0:
325,365,314239,1,2,1:0:0:0:
325,365,314525,5,6,1:0:0:0:
409,224,314668,1,4,2:3:0:0:
409,224,314811,2,2,P|406:189|411:160,1,52.5,2|0,1:0|2:0,2:1:0:0:
224,98,315096,2,0,P|224:159|215:224,1,105,6|4,2:1|2:3,2:0:0:0:
96,93,315525,1,4,2:3:0:0:
0,202,315668,6,2,L|16:331,1,105,14|0,1:0|2:0,2:1:0:0:
204,288,316096,2,0,L|189:372,1,52.5,2|4,1:0|2:1,2:0:0:0:
129,383,316382,1,4,2:3:0:0:
129,383,316525,1,2,1:0:0:0:
129,383,316811,5,6,1:0:0:0:
81,194,316953,1,4,2:3:0:0:
81,194,317096,2,0,P|111:199|137:196,1,52.5,2|0,1:0|2:0,2:0:0:0:
224,98,317382,2,2,P|288:107|336:98,1,105,6|4,2:1|2:3,2:1:0:0:
280,255,317811,1,4,2:3:0:0:
357,363,317953,6,2,L|469:350,1,105,14|0,1:0|2:0,2:1:0:0:
390,195,318382,2,0,L|457:203,1,52.5,2|4,1:0|2:1,2:0:0:0:
512,273,318668,1,4,2:3:0:0:
512,273,318811,1,2,1:0:0:0:
512,273,319096,5,10,1:0:0:0:
357,363,319239,1,8,1:0:0:0:
390,195,319382,1,10,1:0:0:0:
390,195,319953,5,10,1:0:0:0:
465,355,320096,1,8,1:0:0:0:
465,355,320239,1,10,1:0:0:0:
