osu file format v14

[General]
AudioFilename: audio.mp3
AudioLeadIn: 0
PreviewTime: 209301
Countdown: 0
SampleSet: Soft
StackLeniency: 0.4
Mode: 0
LetterboxInBreaks: 0
WidescreenStoryboard: 0

[Editor]
DistanceSpacing: 0.4
BeatDivisor: 4
GridSize: 32
TimelineZoom: 2.199999

[Metadata]
Title:Southern Constellations & The Boy Who Could Fly
TitleUnicode:Southern Constellations & The Boy Who Could Fly
Artist:Pierce The Veil
ArtistUnicode:Pierce The Veil
Creator:Ruiz Duchamp
Version:Expert
Source:
Tags:selfish machines english alternative punk rock post hardcore
BeatmapID:4231930
BeatmapSetID:1867138

[Difficulty]
HPDrainRate:6
CircleSize:4.2
OverallDifficulty:9
ApproachRate:9.4
SliderMultiplier:1.4
SliderTickRate:0.5

[Events]
//Background and Video events
0,0,"IJnLGgqk6Uc.jpg",0,0
//Break Periods
2,61944,64230
2,281087,283658
//Storyboard Layer 0 (Background)
//Storyboard Layer 1 (Fail)
//Storyboard Layer 2 (Pass)
//Storyboard Layer 3 (Foreground)
//Storyboard Layer 4 (Overlay)
//Storyboard Sound Samples

[TimingPoints]
1383,571.428571428571,4,2,1,20,1,0
12811,-300.0300030003,4,2,1,30,0,0
13953,-300.0300030003,4,2,1,15,0,0
15097,-300.0300030003,4,2,1,30,0,0
16239,-300.0300030003,4,2,1,20,0,0
17382,-300.0300030003,4,2,1,30,0,0
19667,-300.0300030003,4,2,11,5,0,0
20240,-300.0300030003,4,2,1,30,0,0
20811,-300.0300030003,4,2,1,20,0,0
21954,-300.0300030003,4,2,1,30,0,0
23087,576.923076923077,4,2,1,20,1,0
23663,566.037735849057,4,2,1,20,1,0
24229,576.923076923077,4,2,1,30,1,0
24805,582.52427184466,4,2,1,20,1,0
25387,550.45871559633,4,2,1,30,1,0
25387,-300.0300030003,4,2,1,30,0,0
26487,588.235294117647,4,2,1,30,1,0
26487,-300.0300030003,4,2,1,30,0,0
27663,-300.0300030003,4,2,1,20,0,0
28839,540.540540540541,4,2,1,10,1,0
29379,571.428571428571,4,2,1,20,1,0
29521,-300.0300030003,4,2,1,30,0,0
29949,-300.0300030003,4,2,1,20,0,0
31093,571.428571428571,4,2,1,30,1,0
31093,-300.0300030003,4,2,1,30,0,0
32235,-300.0300030003,4,2,1,20,0,0
33949,-300.0300030003,4,2,1,10,0,0
34521,560.747663551402,4,2,1,20,1,0
34521,-300.0300030003,4,2,1,20,0,0
35642,594.059405940594,4,2,1,30,1,0
35642,-300.0300030003,4,2,1,30,0,0
36830,-300.0300030003,4,2,1,20,0,0
37424,521.739130434783,4,2,1,20,1,0
37945,571.428571428571,4,2,1,30,1,0
37945,-300.0300030003,4,2,1,20,0,0
39659,-100,4,2,1,20,0,0
40230,-300.0300030003,4,2,1,30,0,0
41372,-300.0300030003,4,2,1,20,0,0
41944,-300.0300030003,4,2,1,30,0,0
42516,-300.0300030003,4,2,1,20,0,0
44230,-300.0300030003,4,2,1,10,0,0
44802,-300.0300030003,4,2,1,30,0,0
45944,-300.0300030003,4,2,1,20,0,0
48230,600,4,2,1,20,1,0
48230,-300.0300030003,4,2,1,20,0,0
49430,571.428571428571,4,2,1,30,1,0
49430,-300.0300030003,4,2,1,30,0,0
50572,-300.0300030003,4,2,11,5,0,0
50715,-300.0300030003,4,2,1,20,0,0
51715,-300.0300030003,4,2,1,10,0,0
52858,-333.333333333333,4,2,1,30,0,0
53858,-333.333333333333,4,2,11,5,0,0
54001,-375.093773443361,4,2,1,30,0,0
55215,-375.093773443361,4,2,1,10,0,0
55715,-375.093773443361,4,2,1,20,0,0
56287,-428.63266180883,4,2,1,30,0,0
57430,545.454545454546,4,2,1,30,1,0
58520,571.428571428571,4,2,1,30,1,0
61377,-100,4,2,1,10,0,0
65383,285.714285714286,4,2,1,80,1,0
65525,-57.1428571428571,4,2,1,80,0,0
66311,-80,4,2,1,80,0,0
66453,-80,4,2,11,5,0,0
66525,-80,4,2,1,70,0,0
67668,-66.6666666666667,4,2,1,70,0,0
85954,-80,4,2,1,60,0,0
95097,-80,4,2,1,50,0,0
95383,-100,4,2,1,50,0,0
96240,-100,4,2,1,55,0,0
97383,-100,4,2,1,60,0,0
97668,-88.8888888888889,4,2,1,60,0,0
98525,-88.8888888888889,4,2,1,65,0,0
99668,-100,4,2,1,40,0,0
99954,-100,4,2,1,45,0,0
100240,-80,4,2,1,50,0,0
100525,-80,4,2,1,55,0,0
100811,-80,4,2,1,60,0,0
101383,-80,4,2,1,65,0,0
101954,-200,4,2,1,70,0,0
102525,-200,4,2,2,40,0,0
103096,-200,4,2,2,70,0,0
103240,-200,4,2,1,60,0,0
103383,-100,4,2,1,60,0,0
103668,-100,4,2,1,70,0,0
103954,-100,4,2,1,80,0,0
104240,571.428571428571,4,2,2,70,1,0
104525,-66.6666666666667,4,2,2,70,0,0
112240,-66.6666666666667,4,2,1,70,0,0
113097,-40,4,2,1,70,0,0
113311,-40,4,2,11,5,0,0
113382,-40,4,2,2,70,0,0
113954,-66.6666666666667,4,2,2,70,0,0
121382,-66.6666666666667,4,2,1,70,0,0
122525,285.714285714286,4,2,1,75,1,0
122667,-61.5384615384615,4,2,1,75,0,0
128239,-100,4,2,1,75,0,0
129382,-61.5384615384615,4,2,1,75,0,0
131667,-61.5384615384615,4,2,1,65,0,0
132239,-72.7272727272727,4,2,1,65,0,0
144809,-72.7272727272727,4,2,0,65,0,0
144953,-72.7272727272727,4,2,1,65,0,0
149953,-72.7272727272727,4,2,1,55,0,0
150096,-88.8888888888889,4,2,1,55,0,0
165953,-200,4,2,1,55,0,0
166524,-200,4,2,2,25,0,0
167095,-200,4,2,2,20,0,0
167667,-200,4,2,2,40,0,0
168240,571.428571428571,4,2,2,70,1,0
168525,-66.6666666666667,4,2,2,70,0,0
176240,-66.6666666666667,4,2,1,70,0,0
177097,-40,4,2,1,70,0,0
177382,-40,4,2,2,70,0,0
177668,-66.6666666666667,4,2,2,70,0,0
186525,-200,4,2,1,70,0,0
187096,-200,4,2,2,40,0,0
190240,-66.6666666666667,4,2,2,40,0,0
191097,285.714285714286,4,2,2,40,1,0
196775,-100,4,2,2,20,0,0
197097,-100,4,2,2,40,0,0
197489,-200,4,2,2,50,0,0
197918,-200,4,2,11,5,0,0
198739,-200,4,2,2,20,0,0
199382,-200,4,2,2,25,0,0
199954,-200,4,2,2,30,0,0
200775,-200,4,2,2,20,0,0
201275,-200,4,2,2,30,0,0
201454,-200,4,2,1,40,0,0
202347,-200,4,2,2,30,0,0
203954,-200,4,2,1,40,0,0
204704,-200,4,2,1,30,0,0
206061,-200,4,2,1,40,0,0
207097,-133.333333333333,4,2,1,20,0,0
207954,-133.333333333333,4,2,2,30,0,0
208239,-133.333333333333,4,2,2,40,0,0
208311,-100,4,2,2,40,0,0
208847,-100,4,2,2,50,0,0
209168,-100,4,2,2,40,0,0
209382,-100,4,2,1,60,0,0
227668,-100,4,2,1,80,0,1
228239,-66.6666666666667,4,2,1,80,0,1
231097,-66.6666666666667,4,2,1,40,0,0
231382,-66.6666666666667,4,2,1,65,0,0
231668,-80,4,2,1,65,0,0
241954,-80,4,2,1,30,0,0
244811,-80,4,2,1,60,0,0
245954,571.428571428571,4,2,2,60,1,0
263096,-50,4,2,2,60,0,0
264239,-25,4,2,1,80,0,0
264381,-25,4,2,11,5,0,0
264525,-100,4,2,1,60,0,0
264667,-100,4,2,11,5,0,0
264811,-100,4,2,1,60,0,0
264953,-100,4,2,11,5,0,0
265096,-100,4,2,1,60,0,0
265238,-100,4,2,11,5,0,0
265382,-100,4,2,1,60,0,0
266525,-25,4,2,1,80,0,0
266667,-25,4,2,11,5,0,0
266811,-100,4,2,1,60,0,0
266953,-100,4,2,11,5,0,0
267096,-100,4,2,1,60,0,0
267238,-100,4,2,11,5,0,0
267382,-25,4,2,1,80,0,0
267524,-25,4,2,11,5,0,0
267668,-100,4,2,1,60,0,0
267810,-100,4,2,11,5,0,0
267954,-100,4,2,1,60,0,0
268096,-100,4,2,11,5,0,0
268239,-25,4,2,1,80,0,0
268381,-25,4,2,11,5,0,0
268525,-100,4,2,1,60,0,0
268667,-100,4,2,11,5,0,0
268811,-100,4,2,1,60,0,0
268953,-100,4,2,11,5,0,0
269096,-100,4,2,1,60,0,0
269238,-100,4,2,11,5,0,0
269382,-100,4,2,1,60,0,0
269524,-100,4,2,11,5,0,0
269668,-100,4,2,1,60,0,0
269810,-100,4,2,11,5,0,0
269954,-25,4,2,1,80,0,0
270096,-25,4,2,11,5,0,0
270239,-100,4,2,1,60,0,0
270381,-100,4,2,11,5,0,0
270525,-25,4,2,1,80,0,0
270667,-25,4,2,11,5,0,0
270811,-100,4,2,1,60,0,0
270953,-100,4,2,11,5,0,0
271096,-25,4,2,1,80,0,0
271238,-25,4,2,11,5,0,0
271382,-100,4,2,1,60,0,0
271524,-100,4,2,11,5,0,0
271668,-100,4,2,1,60,0,0
271810,-100,4,2,11,5,0,0
271954,-100,4,2,1,60,0,0
272096,-100,4,2,11,5,0,0
272239,-100,4,2,1,60,0,0
272381,-100,4,2,11,5,0,0
272525,-100,4,2,1,60,0,0
272667,-100,4,2,11,5,0,0
272811,-100,4,2,1,60,0,0
272953,-100,4,2,11,5,0,0
273096,-100,4,2,1,60,0,0
273238,-100,4,2,11,5,0,0
273382,-25,4,2,1,80,0,0
273524,-25,4,2,11,5,0,0
273668,-100,4,2,1,60,0,0
273810,-100,4,2,11,5,0,0
273954,-100,4,2,1,60,0,0
274096,-100,4,2,11,5,0,0
274239,-25,4,2,1,80,0,0
274381,-25,4,2,11,5,0,0
274525,-100,4,2,1,60,0,0
274667,-100,4,2,11,5,0,0
274811,-100,4,2,1,60,0,0
274953,-100,4,2,11,5,0,0
275096,-100,4,2,1,80,0,0
275382,-100,4,2,1,60,0,0
280239,-100,4,2,1,30,0,0
284239,-100,4,2,1,60,0,0
284811,-100,4,2,2,70,0,0
285096,-66.6666666666667,4,2,2,70,0,0
293668,-40,4,2,2,70,0,0
293953,-40,4,2,2,65,0,0
294239,-66.6666666666667,4,2,2,65,0,0
301953,-66.6666666666667,4,2,1,65,0,0
303096,-66.6666666666667,4,2,2,60,0,0
311096,-66.6666666666667,4,2,1,60,0,0
312239,-66.6666666666667,4,2,2,55,0,0
319096,-66.6666666666667,4,2,2,70,0,0

[Colours]
Combo1 : 250,147,107
Combo2 : 179,227,227
Combo3 : 255,196,155
Combo4 : 173,199,231

[HitObjects]
426,79,12668,5,0,2:0:0:0:
426,79,12740,1,0,2:0:0:0:
426,79,12811,2,0,P|380:82|329:97,1,93.324,2|0,2:0|2:0,2:0:0:0:
266,60,14852,1,2,2:1:0:0:
215,113,15097,2,0,P|216:158|214:212,1,93.324,2|2,2:0|2:0,2:0:0:0:
185,277,16525,1,0,2:0:0:0:
216,344,16811,1,2,2:0:0:0:
294,324,17311,5,0,2:0:0:0:
294,324,17382,2,0,P|348:325|470:385,1,186.648,2|0,2:0|2:0,2:0:0:0:
501,312,20240,2,0,P|508:288|511:260,2,46.662,2|0|0,2:0|2:0|2:0,2:0:0:0:
407,324,21954,6,0,P|397:272|396:227,1,92.5890748129384,2|0,2:0|2:0,2:0:0:0:
463,161,23663,1,0,2:0:0:0:
387,103,24229,1,2,2:0:0:0:
321,172,24805,1,0,2:0:0:0:
250,137,25387,2,0,P|225:139|197:139,1,46.662,0|0,2:0|2:0,2:0:0:0:
138,186,26487,6,0,P|113:188|45:216,2,93.3240013129384,2|0|0,2:0|2:0|2:0,2:0:0:0:
224,148,29379,1,2,2:1:0:0:
240,159,29521,2,0,P|268:160|281:162,1,34.9965,2|0,2:0|2:0,2:0:0:0:
275,161,30521,1,0,2:0:0:0:
275,161,31093,6,0,P|326:159|371:144,1,93.324,2|0,2:0|2:0,2:0:0:0:
409,83,32807,1,0,2:0:0:0:
362,24,33378,2,0,P|339:22|309:14,1,46.662,2|0,2:0|2:0,2:0:0:0:
235,63,34521,2,0,P|212:65|182:73,1,46.662,2|0,2:0|2:0,2:0:0:0:
53,37,35642,6,0,P|68:88|73:133,1,93.324,2|0,2:0|2:0,2:0:0:0:
16,241,37424,1,0,2:0:0:0:
119,311,37945,2,0,P|145:315|164:323,1,46.6666666666667,2|0,2:0|2:0,2:0:0:0:
239,213,39087,1,0,2:0:0:0:
112,200,39659,1,0,2:0:0:0:
265,313,40230,6,0,P|312:324|352:347,1,93.324,2|0,2:0|2:0,2:0:0:0:
417,305,41944,1,0,2:0:0:0:
392,232,42516,2,0,P|393:200|397:180,1,46.662,2|0,2:0|2:0,2:0:0:0:
275,138,43659,2,0,P|274:170|270:190,1,46.662,2|0,2:0|2:0,2:0:0:0:
191,284,44802,6,0,P|144:295|104:318,1,93.324,2|0,2:0|2:0,2:0:0:0:
49,373,46516,1,0,2:0:0:0:
27,232,47087,2,0,P|50:243|72:248,1,46.662,2|0,2:0|2:0,2:0:0:0:
191,284,48230,2,0,P|214:273|236:268,1,46.662,2|0,2:0|2:0,2:0:0:0:
349,212,49430,6,0,P|391:231|440:240,1,93.324,2|0,2:0|2:0,2:0:0:0:
498,293,50715,2,0,P|507:330|509:377,1,81.6585,0|0,2:0|2:0,2:0:0:0:
292,160,52858,6,2,P|293:119|302:84,1,73.5000000000001,2|0,2:0|2:0,2:1:0:0:
248,35,54001,2,2,P|206:54|171:59,1,79.3135,2|0,2:0|2:0,2:1:0:0:
174,59,55715,1,0,2:0:0:0:
39,140,56287,6,2,P|75:147|103:161,1,65.3811587890619,0|0,2:0|2:0,2:1:0:0:
152,217,58520,1,2,2:0:0:0:
256,192,58591,12,2,61377,2:0:0:0:
418,273,65383,5,6,1:0:0:0:
418,48,65525,2,0,P|415:110|421:195,1,122.5,10|4,1:0|2:3,2:0:0:0:
418,170,65740,1,4,2:3:0:0:
418,170,65811,1,10,1:0:0:0:
272,232,65954,1,4,2:3:0:0:
152,185,66097,1,10,1:0:0:0:
48,262,66240,1,4,1:3:0:0:
48,262,66311,2,2,P|49:321|45:363,1,87.5,8|0,1:3|2:0,2:0:0:0:
123,35,66525,5,14,1:0:0:0:
162,69,66597,1,8,2:1:0:0:
214,72,66668,1,8,2:1:0:0:
262,50,66740,1,8,2:1:0:0:
287,4,66811,5,8,1:0:0:0:
301,43,66883,1,8,2:3:0:0:
337,62,66954,1,4,2:3:0:0:
378,65,67025,1,8,2:3:0:0:
418,51,67097,5,14,1:0:0:0:
404,101,67168,1,8,2:1:0:0:
404,153,67240,1,8,2:1:0:0:
418,203,67311,1,8,2:1:0:0:
398,251,67383,5,8,1:0:0:0:
410,290,67454,1,8,2:1:0:0:
410,331,67525,1,8,2:1:0:0:
402,375,67597,1,8,2:1:0:0:
402,375,67668,6,0,P|464:372|518:378,1,105,6|8,1:0|1:0,2:0:0:0:
286,350,67954,1,4,2:3:0:0:
286,350,68025,1,4,2:3:0:0:
286,350,68097,1,8,1:0:0:0:
184,377,68240,1,6,1:0:0:0:
112,352,68383,2,0,P|50:349|-4:355,1,105,8|4,1:0|2:3,2:0:0:0:
7,353,68597,1,4,2:3:0:0:
7,353,68668,1,8,1:0:0:0:
311,162,68811,6,2,B|215:204|215:204|106:154,1,210,6|4,1:0|2:3,2:1:0:0:
119,160,69168,1,4,2:3:0:0:
119,160,69240,1,8,1:0:0:0:
270,265,69383,1,4,2:3:0:0:
392,72,69525,2,0,P|337:74|277:70,1,105,8|2,1:0|1:0,2:0:0:0:
287,71,69740,1,4,2:3:0:0:
287,71,69811,1,8,1:0:0:0:
14,360,69954,6,2,P|81:295|210:300,1,210,6|4,1:0|2:3,2:1:0:0:
192,291,70311,1,4,2:3:0:0:
192,291,70383,1,8,1:0:0:0:
5,103,70525,1,6,1:0:0:0:
83,0,70668,1,8,1:0:0:0:
205,65,70811,1,4,2:3:0:0:
205,65,70883,1,4,2:3:0:0:
205,65,70954,1,8,1:0:0:0:
126,167,71097,5,6,1:0:0:0:
43,266,71240,1,8,1:0:0:0:
163,335,71383,1,2,1:0:0:0:
163,335,71454,1,4,2:3:0:0:
163,335,71525,1,8,1:0:0:0:
240,232,71668,1,2,1:0:0:0:
163,374,71811,1,8,1:0:0:0:
307,304,71954,2,0,P|341:303|366:308,1,52.5,2|4,1:0|2:3,2:0:0:0:
426,343,72097,1,8,1:0:0:0:
240,232,72240,6,0,B|223:181|223:181|243:112,1,105,6|8,1:0|1:0,2:0:0:0:
505,39,72525,2,0,B|522:90|522:90|502:159,1,105,2|8,1:0|1:0,2:0:0:0:
375,51,72811,1,2,1:0:0:0:
237,132,72954,1,8,1:0:0:0:
376,229,73097,1,2,1:0:0:0:
376,229,73168,1,4,2:3:0:0:
376,229,73240,1,8,1:0:0:0:
508,139,73383,5,6,1:0:0:0:
220,0,73668,1,6,1:0:0:0:
27,304,73954,5,6,1:0:0:0:
295,191,74240,1,6,1:0:0:0:
10,76,74525,5,6,1:0:0:0:
219,159,74668,2,0,P|165:157|100:176,1,105,8|4,1:0|2:3,2:0:0:0:
54,217,74883,1,4,2:3:0:0:
54,217,74954,1,8,1:0:0:0:
219,125,75097,1,4,2:3:0:0:
429,202,75240,2,0,P|378:190|326:193,1,105,8|4,1:0|2:3,2:0:0:0:
262,235,75454,1,4,2:3:0:0:
262,235,75525,1,8,1:0:0:0:
376,361,75668,5,14,1:0:0:0:
423,384,75740,1,8,2:1:0:0:
473,369,75811,1,8,2:1:0:0:
495,321,75883,1,8,2:1:0:0:
474,272,75954,5,8,1:0:0:0:
433,280,76025,1,8,2:3:0:0:
392,266,76097,1,4,2:3:0:0:
369,230,76168,1,8,2:3:0:0:
379,188,76240,5,14,1:0:0:0:
429,202,76311,1,8,2:1:0:0:
476,179,76383,1,8,2:1:0:0:
489,128,76454,1,8,2:1:0:0:
459,84,76525,5,8,1:0:0:0:
422,106,76597,1,4,2:3:0:0:
381,97,76668,1,8,2:3:0:0:
352,65,76740,1,4,2:3:0:0:
358,23,76811,5,6,1:0:0:0:
219,125,76954,2,0,P|221:190|216:245,1,105,8|4,1:0|2:3,2:0:0:0:
368,335,77168,1,4,2:3:0:0:
368,335,77240,2,0,P|366:270|371:215,1,105,8|4,1:0|2:3,2:0:0:0:
373,106,77525,1,8,1:0:0:0:
225,237,77668,1,4,2:3:0:0:
225,237,77740,1,4,2:3:0:0:
225,237,77811,1,8,1:0:0:0:
72,184,77954,6,0,P|74:249|69:304,1,105,6|8,1:0|1:0,2:0:0:0:
99,99,78240,1,4,2:3:0:0:
99,99,78311,1,4,2:3:0:0:
99,99,78383,1,8,1:0:0:0:
77,10,78525,1,2,1:0:0:0:
184,87,78668,1,8,1:0:0:0:
289,60,78811,2,0,P|287:125|292:180,1,105,2|8,1:0|1:0,2:0:0:0:
509,361,79097,6,2,P|467:306|314:313,1,210,6|4,1:0|2:3,2:1:0:0:
281,358,79454,1,4,2:3:0:0:
281,358,79525,2,0,P|236:357|156:383,1,105,10|4,1:0|2:3,2:0:0:0:
72,184,79811,2,0,P|117:185|196:158,1,105,10|4,1:0|2:3,2:0:0:0:
238,226,80025,1,4,2:3:0:0:
238,226,80097,1,8,1:0:0:0:
7,353,80240,6,2,P|47:296|200:298,1,210,6|4,1:0|2:3,2:1:0:0:
178,283,80597,1,4,2:3:0:0:
178,283,80668,1,8,1:0:0:0:
21,19,80811,6,0,P|23:79|19:129,1,105,2|8,1:0|1:0,2:0:0:0:
25,257,81097,1,4,2:3:0:0:
25,257,81168,1,4,2:3:0:0:
25,257,81240,1,8,1:0:0:0:
257,66,81383,5,6,1:0:0:0:
238,226,81525,1,8,1:0:0:0:
258,361,81668,1,4,2:3:0:0:
258,361,81740,1,4,2:3:0:0:
258,361,81811,1,8,1:0:0:0:
491,19,81954,6,0,P|489:79|493:129,1,105,2|8,1:0|1:0,2:0:0:0:
502,259,82240,1,4,2:3:0:0:
502,259,82311,1,4,2:3:0:0:
502,259,82383,1,8,1:0:0:0:
101,137,82525,5,6,1:0:0:0:
399,15,82811,1,4,1:3:0:0:
362,306,83097,5,6,1:0:0:0:
161,207,83383,1,8,1:0:0:0:
493,124,83668,5,6,1:0:0:0:
241,182,83811,2,0,P|300:179|356:184,1,105,8|4,1:0|2:3,2:0:0:0:
415,229,84025,1,4,2:3:0:0:
415,229,84097,1,8,1:0:0:0:
272,102,84240,1,4,2:3:0:0:
243,363,84383,2,0,P|242:324|219:254,1,105,8|4,1:0|2:3,2:0:0:0:
222,261,84597,1,4,2:3:0:0:
222,261,84668,1,8,1:0:0:0:
85,192,84811,1,2,1:3:0:0:
252,0,85097,6,0,P|253:39|276:109,1,105,2|0,1:0|2:0,2:0:0:0:
389,153,85383,1,4,2:3:0:0:
428,141,85454,1,8,2:3:0:0:
468,150,85525,1,4,2:3:0:0:
496,182,85597,1,8,2:3:0:0:
502,223,85668,1,2,1:0:0:0:
407,311,85811,1,8,1:0:0:0:
315,268,85954,6,0,P|272:272|229:268,1,87.5,6|8,1:0|2:1,2:0:0:0:
153,328,86240,1,4,2:3:0:0:
153,328,86311,1,4,2:3:0:0:
153,328,86383,1,8,1:0:0:0:
84,247,86525,1,2,1:0:0:0:
166,190,86668,1,8,1:0:0:0:
228,268,86811,2,0,P|257:269|280:266,2,43.75,4|4|8,2:3|2:3|1:0,2:0:0:0:
331,366,87097,6,2,P|376:347|511:356,1,175,2|4,1:0|2:3,2:1:0:0:
499,351,87454,1,4,2:3:0:0:
499,351,87525,1,8,1:0:0:0:
408,175,87668,2,0,P|409:228|406:272,1,87.5,2|8,1:0|1:0,2:0:0:0:
331,322,87954,2,0,P|332:352|329:381,2,43.75,4|4|8,2:3|2:3|1:0,2:0:0:0:
228,268,88240,6,2,P|166:267|67:216,1,175,2|4,1:0|2:3,2:1:0:0:
67,216,88597,1,4,2:3:0:0:
67,216,88668,1,8,1:0:0:0:
17,375,88811,2,0,P|19:342|13:263,1,87.5,4|8,2:3|1:0,2:0:0:0:
228,181,89097,2,0,P|226:214|232:293,1,87.5,2|8,1:0|1:0,2:0:0:0:
8,60,89383,6,2,P|82:104|168:111,1,175,2|2,1:0|1:0,2:1:0:0:
169,110,89740,1,4,2:3:0:0:
169,110,89811,1,8,1:0:0:0:
294,62,89954,1,2,1:0:0:0:
381,98,90097,1,8,1:0:0:0:
453,63,90240,2,0,P|452:33|455:4,2,43.75,4|4|8,2:3|2:3|1:0,2:0:0:0:
503,149,90525,6,0,P|502:205|505:258,1,87.5,2|8,1:0|1:0,2:0:0:0:
454,300,90811,1,4,2:3:0:0:
454,300,90883,1,4,2:3:0:0:
454,300,90954,1,8,1:0:0:0:
314,224,91097,2,0,P|315:168|312:115,1,87.5,2|8,1:0|1:0,2:0:0:0:
389,105,91383,1,4,2:3:0:0:
389,105,91454,1,4,2:3:0:0:
389,105,91525,1,8,1:0:0:0:
389,353,91668,6,2,P|315:309|229:302,1,175,2|4,1:0|2:3,2:1:0:0:
227,302,92025,1,4,2:3:0:0:
227,302,92097,1,8,1:0:0:0:
75,379,92240,2,0,P|132:377|188:385,1,87.5,2|8,1:0|1:0,2:0:0:0:
306,341,92525,2,0,P|307:371|304:400,2,43.75,4|4|8,2:3|2:3|1:0,2:0:0:0:
32,282,92811,6,2,P|110:292|217:281,1,175,2|4,1:0|2:3,2:1:0:0:
205,283,93168,1,4,2:3:0:0:
205,283,93240,1,8,1:0:0:0:
250,169,93383,1,2,1:0:0:0:
178,134,93525,1,8,1:0:0:0:
108,172,93668,2,0,P|107:202|110:231,2,43.75,4|4|8,2:3|2:3|1:0,2:0:0:0:
6,113,93954,5,6,1:0:0:0:
177,13,94097,1,8,2:1:0:0:
177,13,94168,1,8,2:1:0:0:
177,13,94240,2,0,P|175:71|179:116,1,87.5,8|4,1:0|2:3,2:0:0:0:
474,119,94525,5,8,2:3:0:0:
369,191,94668,1,4,2:3:0:0:
271,110,94811,1,8,1:0:0:0:
376,38,94954,1,8,1:0:0:0:
368,221,95097,5,6,1:0:0:0:
475,291,95240,1,8,2:3:0:0:
406,354,95383,2,0,P|371:352|310:358,1,70,10|0,1:0|2:0,2:0:0:0:
226,285,95668,1,4,2:3:0:0:
136,317,95811,1,8,2:3:0:0:
69,286,95954,2,0,P|71:251|65:190,1,70,10|0,1:0|2:0,2:0:0:0:
2,107,96240,5,4,2:3:0:0:
109,41,96383,1,8,2:3:0:0:
189,137,96525,2,0,P|187:172|193:233,1,70,10|0,1:0|2:0,2:0:0:0:
323,115,96811,1,4,2:3:0:0:
408,151,96954,1,8,2:3:0:0:
479,117,97097,2,0,P|477:82|483:21,1,70,10|0,1:0|2:0,2:0:0:0:
368,221,97383,5,4,2:3:0:0:
475,291,97525,1,8,2:3:0:0:
406,354,97668,2,0,P|371:352|308:363,1,78.75,10|0,1:0|2:0,2:0:0:0:
226,285,97954,1,4,2:3:0:0:
136,317,98097,1,8,2:3:0:0:
69,286,98240,2,0,P|71:251|65:189,1,78.75,10|0,1:0|2:0,2:0:0:0:
4,97,98525,5,4,2:3:0:0:
111,31,98668,1,8,2:3:0:0:
191,127,98811,2,0,P|189:162|195:224,1,78.75,10|0,1:0|2:0,2:0:0:0:
323,115,99097,1,4,2:3:0:0:
408,151,99240,1,8,2:3:0:0:
479,117,99383,2,0,P|477:82|482:18,1,78.75,10|0,1:0|2:0,2:0:0:0:
368,221,99668,6,0,P|369:252|367:266,3,35,4|0|0|0,1:3|3:0|3:0|3:0,2:0:0:0:
439,319,99954,2,0,P|438:350|440:364,3,35,8|0|0|0,1:3|3:0|3:0|3:0,2:0:0:0:
294,279,100240,6,0,P|294:311|289:337,3,43.75,4|0|0|0,1:3|3:0|3:0|3:0,2:0:0:0:
511,281,100525,2,0,P|511:249|516:223,3,43.75,8|0|0|0,2:3|3:0|3:0|3:0,2:0:0:0:
222,253,100811,5,4,1:3:0:0:
204,249,100883,1,8,2:3:0:0:
186,249,100954,1,4,2:3:0:0:
169,253,101025,1,8,2:3:0:0:
141,240,101097,5,4,1:3:0:0:
116,248,101168,1,8,2:3:0:0:
89,248,101240,1,4,2:3:0:0:
64,240,101311,1,8,2:3:0:0:
31,252,101383,6,0,P|31:220|26:194,1,43.75,4|8,1:3|2:3,2:0:0:0:
101,146,101525,2,0,P|101:114|106:88,1,43.75,4|8,2:3|2:3,2:0:0:0:
140,284,101668,6,0,P|140:252|145:226,1,43.75,4|8,1:3|2:3,2:0:0:0:
103,102,101811,2,0,P|103:70|98:44,1,43.75,4|8,2:3|2:3,2:0:0:0:
26,362,101954,6,2,P|139:372|162:381,2,140,2|2|10,1:3|2:0|1:0,2:1:0:0:
247,362,103240,1,4,2:3:0:0:
277,355,103311,1,8,2:3:0:0:
307,362,103383,2,0,P|334:361|341:363,1,35,4|8,2:3|2:3,2:0:0:0:
451,381,103525,2,0,P|424:380|417:382,1,35,4|8,2:3|2:3,2:0:0:0:
163,381,103668,1,2,1:0:0:0:
133,370,103740,1,8,2:3:0:0:
101,370,103811,1,4,2:3:0:0:
71,381,103883,1,8,2:3:0:0:
26,362,103954,5,12,1:0:0:0:
26,362,104240,5,6,1:0:0:0:
68,208,104382,1,4,2:3:0:0:
182,300,104525,2,0,P|184:268|180:223,1,52.5,2|0,1:0|2:0,2:0:0:0:
83,105,104811,2,2,P|69:155|68:207,1,105,6|4,2:1|2:3,2:1:0:0:
185,151,105240,1,4,2:3:0:0:
300,210,105382,6,2,P|298:157|285:107,1,105,14|0,1:0|2:0,2:1:0:0:
285,107,105954,1,6,1:0:0:0:
407,64,106097,1,4,2:3:0:0:
494,109,106240,2,0,P|492:141|496:186,1,52.5,2|0,1:0|2:0,2:0:0:0:
332,363,106525,5,6,1:0:0:0:
216,306,106668,1,4,2:3:0:0:
300,210,106811,2,2,P|354:207|426:211,1,105,2|4,1:0|2:1,2:1:0:0:
405,209,107382,1,2,1:0:0:0:
213,208,107525,1,4,2:3:0:0:
332,363,107668,6,2,P|276:367|218:389,1,105,14|0,1:0|2:0,2:1:0:0:
230,383,108240,1,4,1:0:0:0:
421,384,108382,1,4,2:3:0:0:
421,384,108525,2,0,P|466:382|495:387,1,52.5,2|0,1:0|2:0,2:0:0:0:
300,210,108811,5,6,1:0:0:0:
180,254,108954,1,4,2:3:0:0:
89,215,109097,2,0,P|90:170|86:141,1,52.5,2|0,1:0|2:0,2:0:0:0:
175,67,109382,2,2,P|229:65|282:50,1,105,6|2,2:1|1:0,2:1:0:0:
277,51,109811,1,4,2:3:0:0:
180,161,109954,5,14,1:0:0:0:
300,210,110097,1,4,2:3:0:0:
385,163,110240,2,0,P|384:147|387:108,1,52.5,2|0,1:0|2:0,2:0:0:0:
449,221,110525,1,6,1:0:0:0:
341,291,110668,1,4,2:3:0:0:
456,352,110811,2,0,P|434:350|400:356,1,52.5,2|0,1:0|2:0,2:0:0:0:
98,294,111097,5,6,1:0:0:0:
226,315,111240,1,4,2:3:0:0:
300,210,111382,1,2,1:0:0:0:
300,210,111668,2,0,P|297:139|302:90,1,105,6|4,2:1|2:3,2:0:0:0:
302,28,112097,1,4,2:3:0:0:
180,254,112240,5,14,1:0:0:0:
86,122,112382,1,8,2:1:0:0:
86,122,112454,1,8,2:1:0:0:
86,122,112525,1,8,1:0:0:0:
174,384,112668,5,4,2:3:0:0:
80,373,112811,1,8,2:3:0:0:
4,384,112954,1,4,2:3:0:0:
279,326,113097,6,2,P|342:329|415:362,1,131.25,14|0,1:0|2:0,2:1:0:0:
467,305,113382,5,6,1:0:0:0:
387,205,113525,1,4,2:3:0:0:
265,244,113668,1,2,1:0:0:0:
265,244,113954,2,0,P|266:213|264:181,1,52.5,6|0,2:1|2:0,2:0:0:0:
216,131,114239,1,2,1:0:0:0:
320,57,114382,1,4,2:3:0:0:
243,0,114525,2,2,P|198:2|127:42,1,105,14|0,1:0|2:0,2:1:0:0:
144,27,115097,1,4,1:0:0:0:
73,2,115239,1,4,2:3:0:0:
73,2,115382,2,0,P|40:6|13:4,1,52.5,2|0,1:0|2:0,2:0:0:0:
137,116,115668,5,6,1:0:0:0:
38,198,115811,1,4,2:3:0:0:
119,297,115954,1,2,1:0:0:0:
119,297,116239,2,2,P|164:299|235:339,1,105,6|4,2:1|2:3,2:1:0:0:
45,332,116668,1,4,2:3:0:0:
383,348,116811,6,2,P|338:350|267:390,1,105,14|0,1:0|2:0,2:1:0:0:
284,375,117382,1,6,1:0:0:0:
460,378,117525,1,4,2:3:0:0:
460,378,117668,2,0,P|493:374|520:376,1,52.5,2|0,1:0|2:0,2:0:0:0:
353,266,117954,5,6,1:0:0:0:
446,181,118097,1,4,2:3:0:0:
358,90,118239,2,0,P|308:94|247:90,1,105,2|6,1:0|2:1,2:0:0:0:
253,91,118811,1,4,2:3:0:0:
166,182,118954,1,4,2:3:0:0:
85,129,119097,6,0,P|86:98|72:24,1,105,14|0,1:0|2:0,2:0:0:0:
71,217,119525,1,2,2:1:0:0:
190,163,119668,1,6,1:0:0:0:
191,259,119811,1,4,2:3:0:0:
191,259,119954,2,0,P|190:296|194:329,1,52.5,2|0,1:0|2:0,2:0:0:0:
96,344,120239,1,6,1:0:0:0:
96,344,121382,5,14,1:0:0:0:
96,300,121454,1,8,2:1:0:0:
116,261,121525,1,8,2:1:0:0:
146,229,121597,1,8,2:1:0:0:
188,219,121668,5,8,1:0:0:0:
199,252,121739,1,8,2:3:0:0:
230,267,121811,1,4,2:3:0:0:
265,268,121882,1,8,2:3:0:0:
293,247,121954,5,14,1:0:0:0:
293,203,122025,1,8,2:1:0:0:
314,164,122097,1,8,2:1:0:0:
351,142,122168,1,8,2:1:0:0:
395,143,122239,5,8,2:1:0:0:
399,177,122311,1,4,2:3:0:0:
424,200,122382,1,8,2:3:0:0:
458,203,122454,1,4,2:3:0:0:
489,188,122525,5,6,1:0:0:0:
232,37,122667,2,2,P|233:119|227:182,1,113.75,10|4,1:0|2:3,2:1:0:0:
375,384,122882,1,4,2:3:0:0:
375,384,122953,2,2,P|374:302|380:239,1,113.75,10|2,1:0|1:0,2:1:0:0:
475,110,123239,1,10,1:0:0:0:
328,200,123382,1,2,1:0:0:0:
328,200,123453,1,4,2:3:0:0:
328,200,123525,1,10,1:0:0:0:
146,7,123667,5,6,1:0:0:0:
326,86,123810,1,8,1:0:0:0:
326,86,123882,2,2,P|325:168|331:231,1,113.75,2|4,1:0|2:3,2:1:0:0:
167,277,124096,2,0,P|166:247|162:205,1,56.875,10|0,1:0|2:0,2:0:0:0:
404,33,124239,5,2,1:0:0:0:
404,258,124382,1,10,1:0:0:0:
228,137,124525,1,4,2:3:0:0:
228,137,124596,1,4,2:3:0:0:
228,137,124667,1,10,1:0:0:0:
489,188,124810,5,2,1:0:0:0:
230,363,124953,2,2,B|311:334|311:334|390:368,1,170.625,14|4,1:0|2:3,2:1:0:0:
467,369,125239,1,8,1:0:0:0:
167,277,125382,5,2,1:0:0:0:
49,372,125525,1,8,1:0:0:0:
49,372,125596,2,0,P|51:331|49:299,1,56.875,2|4,1:0|2:3,2:0:0:0:
18,226,125739,1,4,2:3:0:0:
18,226,125810,1,10,1:0:0:0:
318,302,125953,5,6,1:0:0:0:
314,73,126096,2,2,P|313:149|318:209,1,113.75,10|4,1:0|2:3,2:1:0:0:
167,277,126310,1,0,2:0:0:0:
167,277,126382,2,0,P|166:247|162:205,1,56.875,10|0,1:0|2:0,2:0:0:0:
33,96,126525,5,2,1:0:0:0:
163,0,126667,1,10,1:0:0:0:
294,93,126810,1,2,1:0:0:0:
164,189,126953,1,8,1:0:0:0:
33,96,127096,6,2,P|34:216|30:337,1,227.5,6|4,1:0|2:3,2:1:0:0:
194,285,127453,1,4,2:3:0:0:
194,285,127525,2,0,P|193:319|194:362,1,56.875,10|0,1:0|2:0,2:0:0:0:
353,355,127667,5,2,1:0:0:0:
507,295,127810,1,8,1:0:0:0:
349,254,127953,1,2,1:0:0:0:
443,384,128096,1,8,1:0:0:0:
445,222,128239,2,2,P|444:198|445:182,2,35,6|0|0,1:0|2:0|2:0,2:1:0:0:
286,3,128525,5,6,1:0:0:0:
67,162,128810,5,6,1:0:0:0:
226,381,129096,5,14,1:0:0:0:
226,381,129382,6,0,P|229:338|225:245,1,113.75,6|10,1:0|1:0,2:0:0:0:
146,54,129667,1,2,1:0:0:0:
146,54,129739,1,4,2:3:0:0:
146,54,129810,1,10,1:0:0:0:
59,195,129953,1,2,1:0:0:0:
279,132,130096,1,10,1:0:0:0:
470,242,130239,6,0,P|467:199|471:106,1,113.75,8|4,1:3|2:3,2:0:0:0:
415,76,130453,1,4,2:3:0:0:
415,76,130525,1,8,1:3:0:0:
359,132,130667,1,4,2:3:0:0:
418,184,130810,1,10,1:3:0:0:
231,194,131096,5,4,2:3:0:0:
199,179,131167,1,8,2:3:0:0:
164,182,131239,1,4,2:3:0:0:
136,202,131310,1,8,2:3:0:0:
124,234,131382,2,0,P|125:297|121:359,1,113.75,4|8,2:3|1:0,2:0:0:0:
0,31,131667,5,6,1:0:0:0:
75,86,131810,1,8,1:0:0:0:
146,54,131953,1,4,2:3:0:0:
146,54,132025,1,4,2:3:0:0:
146,54,132096,1,8,1:0:0:0:
26,165,132239,2,0,P|27:219|24:267,1,96.25,2|8,1:0|1:0,2:0:0:0:
130,355,132525,1,4,2:3:0:0:
130,355,132596,1,4,2:3:0:0:
130,355,132667,6,2,P|184:356|310:297,1,192.5,10|8,1:0|1:0,2:1:0:0:
378,339,133096,2,0,P|377:376|381:405,2,48.125,2|4|8,1:0|2:3|1:0,2:0:0:0:
437,261,133382,1,2,1:0:0:0:
366,195,133525,1,8,1:0:0:0:
308,273,133667,1,2,1:0:0:0:
308,273,133739,1,4,2:3:0:0:
308,273,133810,1,8,1:0:0:0:
366,164,133953,5,4,2:3:0:0:
294,102,134096,2,0,P|247:107|188:101,1,96.25,10|4,1:0|2:3,2:0:0:0:
198,103,134310,1,4,2:3:0:0:
198,103,134382,1,10,1:0:0:0:
156,169,134525,1,4,2:3:0:0:
68,78,134667,1,10,1:0:0:0:
115,16,134810,2,0,P|154:18|178:16,1,48.125,4|4,2:3|2:3,2:0:0:0:
294,66,134953,5,10,1:0:0:0:
429,15,135096,2,0,P|428:78|432:134,1,96.25,2|8,1:0|1:0,2:0:0:0:
308,273,135382,1,4,2:3:0:0:
308,273,135453,1,4,2:3:0:0:
308,273,135525,2,2,P|244:271|134:188,1,192.5,10|8,1:0|1:0,2:1:0:0:
75,246,135953,2,0,P|76:270|75:294,2,48.125,4|4|8,2:3|2:3|1:0,2:0:0:0:
168,378,136239,1,4,2:3:0:0:
244,351,136382,1,8,1:0:0:0:
321,384,136525,1,4,2:3:0:0:
321,384,136596,1,4,2:3:0:0:
321,384,136667,1,8,1:0:0:0:
406,341,136810,6,2,P|404:292|408:218,1,96.25,2|8,1:0|1:0,2:1:0:0:
260,178,137096,2,2,P|262:227|258:301,1,96.25,2|8,1:0|1:0,2:1:0:0:
463,173,137382,1,2,1:0:0:0:
463,173,137525,2,2,P|455:97|410:46,1,144.375,10|4,1:0|2:3,2:1:0:0:
339,79,137810,1,10,1:0:0:0:
257,36,137953,1,2,1:0:0:0:
182,65,138096,2,2,P|183:117|178:171,1,96.25,10|4,1:0|2:3,2:1:0:0:
179,161,138310,1,4,2:3:0:0:
179,161,138382,1,10,1:0:0:0:
75,246,138525,5,4,2:3:0:0:
123,337,138667,2,2,P|68:338|13:351,1,96.25,10|4,1:0|2:3,2:1:0:0:
223,352,138882,1,4,2:3:0:0:
223,352,138953,2,2,P|278:353|333:366,1,96.25,10|4,1:0|2:3,2:1:0:0:
439,251,139239,1,10,1:0:0:0:
373,143,139382,1,4,2:3:0:0:
373,143,139453,1,4,2:3:0:0:
373,143,139525,1,8,1:0:0:0:
470,62,139667,6,2,P|471:117|484:172,1,96.25,6|0,2:3|2:0,2:1:0:0:
340,236,139953,1,8,2:1:0:0:
300,208,140025,1,8,2:1:0:0:
251,206,140096,1,8,2:1:0:0:
213,235,140167,1,8,2:1:0:0:
197,280,140239,5,8,2:1:0:0:
178,274,140310,1,8,2:3:0:0:
158,274,140382,1,4,2:3:0:0:
139,280,140453,1,8,2:3:0:0:
124,292,140525,5,4,2:3:0:0:
110,277,140596,1,8,2:1:0:0:
82,270,140667,1,8,2:1:0:0:
44,277,140739,1,8,2:1:0:0:
10,311,140810,6,2,P|10:262|1:200,1,96.25,6|8,1:0|2:1,2:1:0:0:
77,153,141096,1,4,2:3:0:0:
77,153,141167,1,4,2:3:0:0:
77,153,141239,1,8,1:0:0:0:
145,190,141382,1,4,2:3:0:0:
246,110,141525,2,0,P|245:158|255:221,1,96.25,8|4,1:0|2:3,2:0:0:0:
279,286,141739,1,4,2:3:0:0:
279,286,141810,1,10,1:0:0:0:
364,244,141953,5,2,1:0:0:0:
437,211,142096,1,8,1:0:0:0:
507,257,142239,1,4,2:3:0:0:
507,257,142310,1,4,2:3:0:0:
507,257,142382,2,2,P|505:310|509:370,1,96.25,10|4,1:0|2:3,2:1:0:0:
279,286,142667,2,2,P|281:233|277:173,1,96.25,10|0,1:0|2:3,2:1:0:0:
343,141,142882,1,4,2:3:0:0:
343,141,142953,5,10,1:0:0:0:
179,45,143096,1,2,1:0:0:0:
366,23,143239,2,0,P|320:27|266:20,1,96.25,10|4,1:0|2:3,2:0:0:0:
270,21,143453,1,4,2:3:0:0:
270,21,143525,1,8,1:0:0:0:
97,163,143667,2,0,P|143:159|197:166,1,96.25,2|8,1:0|1:0,2:0:0:0:
3,116,143953,1,2,1:0:0:0:
3,116,144025,1,4,2:3:0:0:
3,116,144096,1,8,1:0:0:0:
58,274,144239,5,2,1:0:0:0:
131,241,144382,1,8,1:0:0:0:
200,287,144525,1,4,2:3:0:0:
200,287,144596,1,4,2:3:0:0:
200,287,144667,2,2,P|198:340|202:400,1,96.25,10|6,1:0|2:3,2:1:0:0:
3,212,144953,2,2,P|5:159|1:99,1,96.25,10|4,1:0|2:3,2:1:0:0:
2,115,145167,1,4,2:3:0:0:
2,115,145239,1,10,1:0:0:0:
131,241,145382,5,2,1:0:0:0:
287,187,145525,2,2,P|285:240|289:300,1,96.25,10|4,1:0|2:3,2:1:0:0:
287,283,145739,1,4,2:3:0:0:
287,283,145810,1,8,1:0:0:0:
402,357,145953,1,4,2:3:0:0:
498,260,146096,1,8,1:0:0:0:
444,208,146239,2,0,P|423:205|383:211,1,48.125,4|4,2:3|2:3,2:0:0:0:
372,282,146382,1,10,1:0:0:0:
512,171,146525,6,2,P|491:128|352:69,1,192.5,2|4,1:0|2:3,2:1:0:0:
300,110,146882,1,4,2:3:0:0:
300,110,146953,2,2,P|251:104|183:114,1,96.25,10|4,1:0|2:3,2:1:0:0:
83,0,147239,2,2,P|132:6|200:-4,1,96.25,10|4,1:0|2:3,2:1:0:0:
178,1,147453,1,4,2:3:0:0:
178,1,147525,1,10,1:0:0:0:
0,164,147667,5,14,1:0:0:0:
46,148,147739,1,8,2:1:0:0:
92,158,147810,1,8,2:1:0:0:
122,195,147882,1,8,2:1:0:0:
131,241,147953,5,8,1:0:0:0:
167,229,148025,1,8,2:3:0:0:
205,234,148096,1,4,2:3:0:0:
230,262,148167,1,8,2:3:0:0:
241,298,148239,6,0,P|240:271|245:231,1,48.125,12|8,1:0|2:1,2:0:0:0:
205,109,148382,2,0,P|206:136|201:176,1,48.125,8|8,2:1|2:1,2:0:0:0:
123,331,148525,1,8,1:0:0:0:
104,324,148596,1,4,2:3:0:0:
84,324,148667,1,8,2:3:0:0:
66,331,148739,1,4,2:3:0:0:
54,346,148810,5,12,1:0:0:0:
39,300,148882,1,8,2:1:0:0:
32,252,148953,1,8,2:1:0:0:
32,204,149025,1,8,2:1:0:0:
39,156,149096,1,8,1:0:0:0:
53,110,149167,1,8,2:1:0:0:
60,62,149239,1,8,2:1:0:0:
60,14,149310,1,8,2:1:0:0:
73,23,149382,5,8,2:3:0:0:
88,27,149453,1,4,2:3:0:0:
104,27,149525,1,8,2:3:0:0:
119,22,149596,1,4,2:3:0:0:
128,34,149667,1,8,2:3:0:0:
142,39,149739,1,4,2:3:0:0:
158,41,149810,1,8,2:3:0:0:
174,37,149882,1,4,2:3:0:0:
202,53,149953,5,6,1:0:0:0:
329,17,150096,2,2,P|327:113|331:184,1,157.5,8|8,1:0|1:0,2:1:0:0:
331,253,150525,1,4,2:3:0:0:
448,203,150667,1,8,1:0:0:0:
446,283,150810,2,0,P|445:319|446:326,2,39.375,2|4|8,1:0|2:3|1:0,2:0:0:0:
330,174,151096,5,2,1:0:0:0:
209,226,151239,2,0,P|210:186|207:122,1,78.75,8|4,1:0|2:3,2:0:0:0:
86,97,151453,1,4,2:3:0:0:
86,97,151525,2,0,P|85:137|88:201,1,78.75,8|4,1:0|2:3,2:0:0:0:
0,271,151810,1,8,1:0:0:0:
41,336,151953,2,0,P|68:334|88:337,2,39.375,4|4|8,2:3|2:3|1:0,2:0:0:0:
330,312,152239,6,2,P|260:302|158:312,1,157.5,6|4,1:0|2:3,2:1:0:0:
173,308,152596,1,4,2:3:0:0:
173,308,152667,1,8,1:0:0:0:
226,380,152810,1,4,2:3:0:0:
302,229,152953,2,0,P|300:189|301:150,1,78.75,8|4,1:0|2:3,2:0:0:0:
301,150,153167,1,4,2:3:0:0:
301,150,153239,1,8,1:0:0:0:
441,284,153382,6,2,P|464:226|467:112,1,157.5,2|4,1:0|2:3,2:1:0:0:
417,79,153739,1,4,2:3:0:0:
417,79,153810,2,0,P|374:82|310:73,1,78.75,10|4,1:0|2:3,2:0:0:0:
179,79,154096,2,0,P|221:82|286:73,1,78.75,10|4,1:0|2:3,2:0:0:0:
257,79,154310,1,4,2:3:0:0:
257,79,154382,1,8,1:0:0:0:
94,153,154525,6,2,P|147:162|227:225,1,157.5,6|4,1:0|2:3,2:1:0:0:
158,262,154882,1,4,2:3:0:0:
158,262,154953,2,2,P|105:271|25:334,1,157.5,10|8,1:0|1:0,2:1:0:0:
32,208,155382,1,2,1:0:0:0:
32,208,155453,1,4,2:3:0:0:
32,208,155525,1,8,1:0:0:0:
226,380,155667,6,0,P|224:340|225:301,1,78.75,2|8,1:0|1:0,2:0:0:0:
334,228,155953,1,4,2:3:0:0:
334,228,156025,1,4,2:3:0:0:
334,228,156096,2,2,P|334:187|272:85,1,157.5,10|8,1:0|1:0,2:1:0:0:
193,134,156525,2,0,P|165:132|146:135,2,39.375,4|4|8,2:3|2:3|1:0,2:0:0:0:
89,67,156810,6,2,P|41:128|32:206,1,157.5,6|8,1:0|2:3,2:1:0:0:
31,205,157167,1,4,2:3:0:0:
31,205,157239,1,8,1:0:0:0:
152,284,157382,2,0,P|110:281|64:285,1,78.75,2|8,1:0|1:0,2:0:0:0:
15,337,157667,2,0,P|17:365|14:384,2,39.375,4|4|8,2:3|2:3|1:0,2:0:0:0:
231,336,157953,6,10,P|232:279|258:169,1,157.5,6|4,1:0|2:3,2:1:0:0:
319,139,158382,1,8,2:3:0:0:
319,139,158453,1,4,2:3:0:0:
319,139,158525,1,8,1:0:0:0:
357,128,158596,1,8,2:1:0:0:
394,139,158667,1,8,2:1:0:0:
421,167,158739,1,8,2:1:0:0:
456,183,158810,6,0,P|456:207|452:237,1,39.375,8|4,2:3|2:3,2:0:0:0:
512,110,158953,2,0,P|510:90|511:70,1,39.375,8|4,2:3|2:3,2:0:0:0:
512,302,159096,6,0,P|473:299|362:368,1,157.5,6|4,1:0|2:3,2:0:0:0:
371,353,159453,1,4,2:3:0:0:
371,353,159525,1,8,1:0:0:0:
290,384,159667,1,4,2:3:0:0:
247,298,159810,1,8,1:0:0:0:
337,270,159953,2,0,P|339:243|337:218,2,39.375,4|4|8,2:3|2:3|1:0,2:0:0:0:
167,273,160239,6,0,P|166:231|171:165,1,78.75,2|8,1:0|1:0,2:0:0:0:
49,134,160525,1,4,2:3:0:0:
49,134,160596,1,4,2:3:0:0:
49,134,160667,2,0,P|50:176|45:242,1,78.75,10|4,1:0|2:3,2:0:0:0:
231,142,160953,2,0,P|230:100|235:34,1,78.75,10|4,1:0|2:3,2:0:0:0:
231,63,161167,1,4,2:3:0:0:
231,63,161239,1,8,1:0:0:0:
372,215,161382,6,2,P|397:158|406:49,1,157.5,6|4,1:0|2:3,2:1:0:0:
407,63,161739,1,4,2:3:0:0:
407,63,161810,1,8,1:0:0:0:
483,181,161953,1,2,1:0:0:0:
443,268,162096,1,8,1:0:0:0:
479,346,162239,1,4,2:3:0:0:
479,346,162310,1,4,2:3:0:0:
479,346,162382,1,8,1:0:0:0:
372,215,162525,6,0,P|334:213|286:218,1,78.75,2|8,1:0|1:0,2:0:0:0:
152,135,162810,1,4,2:3:0:0:
152,135,162882,1,4,2:3:0:0:
152,135,162953,2,0,P|154:97|149:49,1,78.75,10|4,1:0|2:3,2:0:0:0:
14,192,163239,2,2,P|15:265|45:354,1,157.5,10|8,1:0|1:0,2:1:0:0:
128,301,163667,5,6,1:0:0:0:
199,265,163810,1,8,1:0:0:0:
270,311,163953,1,4,2:3:0:0:
270,311,164025,1,4,2:3:0:0:
270,311,164096,2,0,P|316:309|373:318,1,78.75,10|4,1:0|2:3,2:0:0:0:
419,292,164382,1,8,1:0:0:0:
318,214,164525,2,0,P|298:216|275:215,2,39.375,4|4|8,2:3|2:3|1:0,2:0:0:0:
406,166,164810,6,0,P|408:119|395:68,1,78.75,2|8,1:0|1:0,2:0:0:0:
247,43,165096,1,4,2:3:0:0:
247,43,165167,1,4,2:3:0:0:
247,43,165239,2,0,P|238:81|238:122,1,78.75,10|4,1:0|2:3,2:0:0:0:
85,241,165525,2,0,P|131:239|188:248,1,78.75,10|4,1:0|2:3,2:0:0:0:
163,242,165739,1,4,2:3:0:0:
163,242,165810,1,8,1:0:0:0:
37,384,165953,6,2,P|110:361|178:365,3,140,6|2|2|2,1:0|2:0|2:0|2:0,2:1:0:0:
173,364,168240,5,6,1:0:0:0:
289,312,168382,1,4,2:3:0:0:
407,350,168525,2,2,P|459:348|515:353,1,105,2|6,1:0|2:1,2:1:0:0:
512,352,169097,1,2,1:0:0:0:
454,239,169240,1,4,2:3:0:0:
362,278,169382,2,2,P|364:234|356:157,1,105,14|0,1:0|2:0,2:1:0:0:
359,173,169954,1,6,1:0:0:0:
270,206,170097,1,4,2:3:0:0:
197,184,170240,2,0,P|174:185|145:183,1,52.5,2|0,1:0|2:0,2:0:0:0:
271,130,170525,5,6,1:0:0:0:
178,266,170668,1,4,2:3:0:0:
64,202,170811,2,2,P|65:256|61:318,1,105,2|6,1:0|2:1,2:1:0:0:
62,307,171382,2,0,P|30:307|-3:317,1,52.5,2|4,1:0|2:3,2:0:0:0:
159,369,171668,2,2,P|222:369|325:339,1,157.5,14|0,1:0|2:0,2:1:0:0:
374,296,172240,1,6,1:0:0:0:
443,362,172382,1,4,2:3:0:0:
508,326,172525,2,0,P|507:304|509:273,1,52.5,2|0,1:0|2:0,2:0:0:0:
404,116,172811,6,2,P|405:176|402:231,1,105,6|2,1:0|1:0,2:1:0:0:
252,276,173382,2,2,P|250:215|254:161,1,105,6|2,2:1|1:0,2:1:0:0:
256,93,173811,1,4,2:3:0:0:
114,221,173954,2,2,P|95:184|86:114,1,105,14|0,1:0|2:0,2:1:0:0:
86,122,174525,1,6,1:0:0:0:
147,48,174668,1,4,2:3:0:0:
83,6,174811,2,0,P|54:8|25:6,1,52.5,2|0,1:0|2:0,2:0:0:0:
225,70,175097,5,6,1:0:0:0:
343,22,175240,1,4,2:3:0:0:
426,65,175382,2,2,P|424:127|428:177,1,105,2|4,1:0|2:1,2:1:0:0:
427,170,175954,2,0,P|399:170|369:177,1,52.5,2|4,1:0|2:3,2:0:0:0:
253,145,176240,5,14,1:0:0:0:
338,291,176382,1,8,2:1:0:0:
338,291,176454,1,8,2:1:0:0:
338,291,176525,1,8,1:0:0:0:
148,364,176668,5,4,2:3:0:0:
239,341,176811,1,8,2:3:0:0:
313,366,176954,1,4,2:3:0:0:
3,287,177097,6,0,P|36:288|88:307,1,87.5,14|0,1:0|2:0,2:0:0:0:
253,145,177382,5,6,1:0:0:0:
132,190,177525,1,4,2:3:0:0:
43,101,177668,2,0,P|44:76|42:46,1,52.5,2|0,1:0|2:0,2:0:0:0:
163,0,177954,2,2,P|162:60|165:116,1,105,6|2,2:1|1:0,2:1:0:0:
164,184,178382,1,4,2:3:0:0:
339,101,178525,6,2,P|340:161|337:217,1,105,14|0,2:1|2:0,2:1:0:0:
338,206,179097,1,6,1:0:0:0:
417,254,179240,1,4,2:3:0:0:
489,225,179382,2,0,P|488:202|490:172,1,52.5,2|0,1:0|2:0,2:0:0:0:
266,245,179668,5,6,1:0:0:0:
351,337,179811,1,4,2:3:0:0:
268,384,179954,2,0,P|235:382|192:384,1,52.5,2|0,1:0|2:0,2:0:0:0:
72,303,180240,2,0,P|120:302|183:279,1,105,6|4,2:1|2:3,2:0:0:0:
193,206,180668,1,4,2:3:0:0:
6,256,180811,6,0,P|8:218|4:147,1,105,14|0,1:0|2:0,2:0:0:0:
5,151,181382,1,6,1:0:0:0:
125,36,181525,1,4,2:3:0:0:
0,73,181668,2,0,P|1:50|-1:20,1,52.5,2|0,1:0|2:0,2:0:0:0:
122,126,181954,5,6,1:0:0:0:
245,85,182097,1,4,2:3:0:0:
330,133,182240,2,0,P|329:156|331:186,1,52.5,2|0,1:0|2:0,2:0:0:0:
478,113,182525,2,0,P|476:151|480:222,1,105,6|0,2:1|2:0,2:0:0:0:
471,297,182954,1,4,2:3:0:0:
481,374,183097,5,14,1:0:0:0:
481,374,183668,1,6,1:0:0:0:
355,346,183811,1,4,2:3:0:0:
262,366,183954,2,0,P|230:364|185:369,1,52.5,2|0,1:0|2:0,2:0:0:0:
337,264,184240,1,6,1:0:0:0:
255,164,184382,1,4,2:3:0:0:
331,109,184525,2,0,P|330:83|332:46,1,52.5,2|0,1:0|2:0,2:0:0:0:
174,0,184811,2,2,P|175:60|172:111,1,105,6|4,2:1|2:3,2:1:0:0:
173,185,185240,5,4,2:3:0:0:
38,86,185382,5,14,1:0:0:0:
38,86,185954,1,4,2:3:0:0:
38,165,186097,1,4,2:3:0:0:
38,165,186525,6,2,P|40:203|37:242,1,70,6|2,1:0|2:0,2:1:0:0:
474,165,187668,6,2,P|472:203|475:242,1,70,2|2,2:0|2:0,2:1:0:0:
128,202,188811,5,2,2:0:0:0:
384,202,189382,1,2,2:0:0:0:
128,202,189954,5,2,2:0:0:0:
384,202,190240,2,0,P|384:192|385:177,2,17.5,8|4|8,2:3|2:3|2:3,2:0:0:0:
362,201,190382,1,4,2:3:0:0:
341,207,190454,1,8,2:3:0:0:
323,220,190525,1,4,2:3:0:0:
128,202,190811,1,4,2:3:0:0:
256,320,190954,1,0,3:0:0:0:
256,320,191025,1,0,3:0:0:0:
256,320,191097,1,6,1:0:0:0:
256,192,191132,12,4,196775,2:1:0:0:
256,0,197097,5,4,2:1:0:0:
256,0,197489,2,0,P|257:49|254:113,1,105,4|0,2:1|2:0,2:0:0:0:
255,105,198739,5,2,2:0:0:0:
255,105,198847,2,0,P|211:110|174:127,1,78.75,2|2,2:0|2:0,2:0:0:0:
191,206,199382,5,2,2:0:0:0:
191,206,199561,2,0,P|235:211|249:216,1,56.875,2|2,2:0|2:0,2:0:0:0:
246,296,199954,5,2,2:0:0:0:
246,296,200168,2,0,P|216:299|189:308,1,52.5,4|4,2:1|2:0,2:0:0:0:
55,296,200775,6,0,P|85:299|104:306,1,43.75,2|2,2:0|2:0,2:0:0:0:
246,296,201097,5,4,2:1:0:0:
318,332,201275,1,4,2:0:0:0:
388,308,201454,2,2,P|387:257|389:148,1,157.5,4|0,2:1|2:0,2:1:0:0:
389,151,202347,5,2,2:0:0:0:
335,97,202525,1,2,2:0:0:0:
270,136,202704,2,0,L|238:136,1,26.25,2|4,2:0|2:1,2:0:0:0:
224,122,202918,2,0,P|197:123|177:122,1,43.75,2|2,2:0|2:0,2:0:0:0:
113,89,203311,1,2,2:0:0:0:
47,118,203561,1,6,2:1:0:0:
47,118,203954,6,0,P|48:162|46:184,2,61.25,2|2|2,2:0|2:0|2:0,2:0:0:0:
47,257,204704,1,2,2:0:0:0:
137,232,204918,1,4,2:0:0:0:
212,260,205132,1,4,2:1:0:0:
288,242,205311,5,2,2:0:0:0:
288,242,205489,2,0,P|311:241|329:243,2,35,2|4|2,2:0|2:1|2:0,2:0:0:0:
452,241,205918,1,0,2:0:0:0:
452,241,206061,2,0,P|429:240|411:241,2,39.375,2|2|2,2:0|2:0|2:0,2:0:0:0:
500,161,206525,5,2,2:0:0:0:
464,94,206668,1,2,2:0:0:0:
500,30,206811,1,2,2:0:0:0:
500,30,206954,1,2,2:0:0:0:
367,121,207097,6,0,B|371:94|371:94|366:63,1,52.5000000000001,2|0,1:3|2:0,2:0:0:0:
250,17,207382,2,0,B|245:43|245:43|250:74,1,52.5000000000001,2|0,1:3|2:0,2:0:0:0:
178,136,207668,2,0,L|173:168,2,26.2500000000001,2|0|0,1:3|3:0|3:0,2:0:0:0:
118,89,207954,1,6,1:0:0:0:
256,224,208239,5,0,1:0:0:0:
256,224,208311,2,0,P|297:222|333:227,1,70,2|4,1:0|1:0,2:0:0:0:
345,303,208525,2,0,P|306:304|229:336,1,105,2|0,1:0|2:0,2:0:0:0:
173,295,208847,2,0,P|174:279|169:242,2,52.5,4|0|0,1:0|1:0|1:0,2:0:0:0:
98,321,209168,1,4,2:3:0:0:
79,320,209239,1,8,2:3:0:0:
62,327,209311,1,4,2:3:0:0:
51,341,209382,5,4,1:0:0:0:
11,254,209525,1,4,2:3:0:0:
38,160,209668,1,10,1:0:0:0:
38,160,209954,1,2,1:0:0:0:
140,82,210097,1,4,2:3:0:0:
217,187,210239,1,10,1:0:0:0:
115,265,210382,1,4,2:3:0:0:
38,160,210525,6,0,P|40:128|39:87,1,70,2|0,1:0|2:0,2:0:0:0:
228,33,210811,2,0,P|226:65|227:106,1,70,10|0,1:0|2:0,2:0:0:0:
135,186,211097,1,2,2:1:0:0:
196,263,211239,1,0,2:0:0:0:
158,332,211382,1,10,1:0:0:0:
158,332,211668,6,0,P|122:332|31:282,2,140,2|10|2,2:1|1:0|2:1,2:0:0:0:
277,286,212382,1,0,2:0:0:0:
351,315,212525,2,0,P|349:358|350:401,1,70,10|0,1:0|2:0,2:0:0:0:
387,246,212811,2,0,P|423:246|514:196,1,140,2|8,2:1|1:0,2:0:0:0:
490,122,213239,1,0,2:0:0:0:
316,212,213382,2,0,P|320:138|316:60,1,140,2|8,2:1|1:0,2:0:0:0:
317,72,213954,5,2,1:0:0:0:
198,118,214097,1,4,2:3:0:0:
105,86,214239,2,0,P|105:126|103:169,1,70,10|0,1:0|2:0,2:0:0:0:
240,257,214525,2,0,P|239:216|242:174,1,70,2|0,2:1|2:0,2:0:0:0:
77,287,214811,1,10,1:0:0:0:
176,368,214954,1,4,2:3:0:0:
240,257,215097,6,0,P|203:255|157:259,1,70,2|0,1:0|2:0,2:0:0:0:
360,262,215382,2,0,P|420:271|492:319,1,140,10|2,1:0|2:1,2:0:0:0:
426,366,215811,1,0,2:0:0:0:
332,189,215954,2,0,P|334:151|332:104,1,70,10|0,1:0|2:0,2:0:0:0:
512,16,216239,2,0,P|510:83|485:157,1,140,2|10,2:1|1:0,2:0:0:0:
410,136,216668,1,0,2:0:0:0:
334,149,216811,5,2,2:1:0:0:
334,149,217097,2,0,P|299:147|257:149,1,70,10|0,1:0|2:0,2:0:0:0:
158,21,217382,2,0,P|224:42|293:45,1,140,2|8,2:1|1:0,2:0:0:0:
370,45,217811,1,0,2:0:0:0:
335,172,217954,2,0,P|265:174|199:196,1,140,2|8,2:1|1:0,2:0:0:0:
199,196,218525,5,2,1:0:0:0:
100,280,218668,1,4,2:3:0:0:
193,369,218811,2,0,P|245:367|273:370,1,70,10|0,1:0|2:0,2:0:0:0:
344,320,219097,2,0,P|413:317|479:295,1,140,2|10,2:1|1:0,2:0:0:0:
494,218,219525,1,4,2:3:0:0:
335,242,219668,6,0,P|337:190|334:162,1,70,2|0,1:0|2:0,2:0:0:0:
472,73,219954,2,0,P|470:125|473:153,1,70,10|0,1:0|2:0,2:0:0:0:
321,94,220239,1,2,1:0:0:0:
229,186,220382,1,4,2:3:0:0:
335,258,220525,2,0,P|387:256|415:259,1,70,10|0,1:0|2:0,2:0:0:0:
247,307,220811,5,2,1:0:0:0:
127,271,220954,1,4,2:3:0:0:
38,308,221097,1,10,1:0:0:0:
38,308,221382,2,0,P|40:268|39:213,1,70,2|0,2:1|2:0,2:0:0:0:
157,181,221668,1,10,1:0:0:0:
157,259,221811,1,4,2:3:0:0:
33,156,221954,6,2,P|37:99|81:23,1,140,2|8,2:1|1:0,2:1:0:0:
77,28,222525,1,2,1:0:0:0:
197,71,222668,1,4,2:3:0:0:
286,32,222811,2,0,P|285:80|286:107,1,70,10|0,1:0|2:0,2:0:0:0:
227,218,223097,5,2,1:0:0:0:
278,298,223239,1,4,2:3:0:0:
227,357,223382,2,0,P|189:355|151:359,1,70,10|0,1:0|2:0,2:0:0:0:
317,384,223668,1,2,2:1:0:0:
393,365,223811,2,0,P|431:363|469:367,1,70,2|8,2:1|1:0,2:0:0:0:
504,271,224097,5,2,1:0:0:0:
433,237,224239,1,4,2:3:0:0:
359,258,224382,2,0,P|357:220|361:182,1,70,2|8,2:1|1:0,2:0:0:0:
360,112,224668,1,0,2:0:0:0:
203,197,224811,5,2,1:0:0:0:
278,298,224954,1,4,2:3:0:0:
217,372,225097,2,0,P|179:370|141:374,1,70,10|0,1:0|2:0,2:0:0:0:
20,276,225382,5,4,2:3:0:0:
20,276,225525,1,4,2:3:0:0:
20,276,225668,1,8,1:0:0:0:
20,276,225954,2,0,P|17:227|28:126,1,140,0|8,2:0|1:0,2:0:0:0:
75,74,226382,1,4,2:3:0:0:
75,74,226525,2,0,P|93:76|113:74,1,35,8|4,1:0|2:3,2:0:0:0:
209,169,226668,1,8,2:3:0:0:
209,169,226739,1,4,2:3:0:0:
209,169,226811,1,8,2:3:0:0:
228,176,226882,1,4,2:3:0:0:
248,176,226954,1,8,2:3:0:0:
267,169,227025,1,4,2:3:0:0:
300,179,227097,1,8,2:3:0:0:
319,172,227168,1,4,2:3:0:0:
339,172,227239,1,8,2:3:0:0:
358,179,227311,1,4,2:3:0:0:
392,171,227382,1,8,1:0:0:0:
392,171,227668,5,6,1:0:0:0:
219,83,227811,1,4,2:3:0:0:
125,252,227954,1,10,1:0:0:0:
298,340,228097,1,4,2:3:0:0:
392,171,228239,2,0,P|387:122|395:58,1,105,2|0,1:0|2:3,2:3:0:0:
277,255,228525,5,10,1:0:0:0:
113,147,228668,1,4,2:3:0:0:
9,316,228811,6,0,P|15:264|9:211,1,105,2|0,1:0|2:3,2:3:0:0:
219,83,229097,2,0,P|212:134|218:187,1,105,10|0,1:0|2:3,2:3:0:0:
298,340,229382,2,2,P|409:294|534:321,1,210,2|10,2:1|1:0,2:1:0:0:
297,374,229811,1,0,2:0:0:0:
392,171,229954,6,0,P|447:175|509:169,1,105,2|0,2:1|2:0,2:0:0:0:
277,255,230239,1,10,1:0:0:0:
151,207,230382,1,0,2:0:0:0:
32,261,230525,2,0,P|34:309|29:383,1,105,2|0,2:1|2:0,2:0:0:0:
32,42,230811,5,10,1:0:0:0:
32,261,230954,1,0,2:0:0:0:
226,152,231097,5,0,2:0:0:0:
226,152,231382,1,10,1:0:0:0:
226,152,231668,2,0,P|287:157|391:225,1,175,2|8,2:1|1:0,2:0:0:0:
447,174,232097,1,0,2:0:0:0:
330,279,232239,5,2,1:0:0:0:
226,152,232382,1,4,2:3:0:0:
343,47,232525,2,0,P|393:50|447:49,1,87.5,8|0,1:0|2:0,2:0:0:0:
463,205,232811,2,0,P|461:289|466:388,1,175,2|10,2:1|1:0,2:0:0:0:
330,279,233239,1,0,2:0:0:0:
186,349,233382,2,0,P|187:288|185:252,1,87.5,2|0,1:0|2:0,2:0:0:0:
25,144,233668,6,0,P|25:210|41:274,1,131.25,10|0,1:0|2:0,2:0:0:0:
83,340,233954,1,2,2:1:0:0:
186,262,234097,1,0,2:0:0:0:
302,304,234239,2,0,P|301:243|303:207,1,87.5,10|0,1:0|2:0,2:0:0:0:
463,97,234525,2,0,P|462:162|445:226,1,131.25,2|0,2:1|2:0,2:0:0:0:
436,305,234811,2,0,P|484:302|527:309,1,87.5,10|0,1:0|2:0,2:0:0:0:
302,333,235097,2,0,P|254:330|211:337,1,87.5,2|0,2:1|2:0,2:0:0:0:
92,295,235382,1,10,1:0:0:0:
4,333,235525,1,4,2:3:0:0:
225,178,235668,6,0,P|151:178|48:134,1,175,2|8,2:1|1:0,2:0:0:0:
59,62,236097,1,0,2:0:0:0:
215,101,236239,2,0,P|214:63|220:-2,1,87.5,2|0,2:1|2:0,2:0:0:0:
322,177,236525,1,8,1:0:0:0:
218,258,236668,1,0,2:1:0:0:
308,353,236811,5,2,1:0:0:0:
412,272,236954,1,4,2:3:0:0:
311,374,237097,2,0,P|260:371|214:378,1,87.5,8|0,1:0|2:0,2:0:0:0:
51,221,237382,2,0,P|130:255|217:257,1,175,2|8,2:1|1:0,2:0:0:0:
322,177,237811,1,4,2:3:0:0:
434,245,237954,6,0,P|434:201|436:151,1,87.5,2|0,1:0|2:0,2:0:0:0:
380,77,238239,1,10,1:0:0:0:
422,15,238382,1,0,2:0:0:0:
262,115,238525,1,2,1:0:0:0:
139,78,238668,1,4,2:3:0:0:
51,117,238811,2,0,P|51:161|49:211,1,87.5,10|0,1:0|2:0,2:0:0:0:
307,294,239097,5,2,1:0:0:0:
218,258,239239,1,4,2:3:0:0:
145,290,239382,2,0,P|145:334|143:384,1,87.5,10|0,1:0|2:0,2:0:0:0:
379,251,239668,2,0,P|379:207|381:157,1,87.5,2|0,2:1|2:0,2:0:0:0:
262,115,239954,1,10,1:0:0:0:
173,158,240097,1,4,2:3:0:0:
282,325,240239,6,0,P|330:324|453:372,1,175,2|8,1:0|1:0,2:0:0:0:
495,304,240668,1,0,2:0:0:0:
282,325,240811,1,2,1:0:0:0:
153,297,240954,1,4,2:3:0:0:
60,329,241097,2,0,P|63:288|61:231,1,87.5,8|0,1:0|2:0,2:0:0:0:
62,113,241382,5,10,1:0:0:0:
62,113,241954,1,2,2:0:0:0:
131,147,242525,1,2,2:0:0:0:
131,147,243097,1,2,2:0:0:0:
196,112,243668,1,2,2:0:0:0:
196,112,244811,2,0,P|236:113|269:103,1,43.75,8|4,1:0|2:3,2:0:0:0:
315,157,244954,1,4,2:3:0:0:
315,157,245025,1,8,2:3:0:0:
315,157,245097,5,4,1:3:0:0:
307,181,245168,1,8,2:3:0:0:
302,207,245239,1,4,2:3:0:0:
302,233,245311,1,8,2:3:0:0:
306,259,245382,1,4,1:3:0:0:
314,284,245454,1,8,2:3:0:0:
318,310,245525,1,4,2:3:0:0:
318,336,245597,1,0,2:3:0:0:
313,362,245668,1,10,1:0:0:0:
313,362,245954,5,6,1:0:0:0:
392,347,246096,1,4,2:3:0:0:
465,365,246239,1,4,2:3:0:0:
465,365,246525,1,4,2:1:0:0:
465,365,246811,2,0,P|464:344|466:317,1,35,4|4,2:3|2:3,2:0:0:0:
315,222,247096,2,0,P|316:300|313:367,1,140,12|4,1:0|1:0,2:0:0:0:
313,361,247811,1,4,2:3:0:0:
197,323,248239,5,4,1:0:0:0:
126,354,248382,1,4,2:3:0:0:
59,326,248525,1,4,2:3:0:0:
59,326,248811,2,0,P|60:294|59:249,1,70,4|4,2:1|2:3,2:0:0:0:
59,256,249239,1,4,2:3:0:0:
59,256,249382,1,12,1:0:0:0:
158,232,249954,1,4,1:0:0:0:
158,232,250096,1,4,2:3:0:0:
222,275,250525,5,4,1:0:0:0:
293,306,250668,1,4,2:3:0:0:
360,278,250811,1,4,2:3:0:0:
360,278,251096,2,0,P|359:258|362:202,1,70,4|4,2:1|2:3,2:0:0:0:
361,208,251525,1,4,2:3:0:0:
361,208,251668,1,12,1:0:0:0:
443,245,252239,1,4,2:1:0:0:
512,211,252811,5,4,1:0:0:0:
512,211,252954,1,0,2:3:0:0:
512,211,253096,2,0,P|511:176|512:140,1,70,4|4,2:3|2:1,2:0:0:0:
512,141,253668,1,4,2:3:0:0:
436,160,253811,1,4,2:3:0:0:
366,142,253954,1,12,1:0:0:0:
366,142,254525,2,0,P|366:120|366:98,1,35,4|4,1:0|2:3,2:0:0:0:
366,142,255096,5,4,1:0:0:0:
292,113,255239,1,4,2:3:0:0:
222,137,255382,1,4,2:3:0:0:
153,168,255668,1,4,2:1:0:0:
88,137,255954,1,4,2:3:0:0:
88,137,256096,1,4,2:3:0:0:
24,179,256239,2,0,P|24:229|23:262,1,70,14|0,1:0|2:0,2:0:0:0:
24,249,256811,1,6,2:1:0:0:
24,249,257382,5,6,1:0:0:0:
93,291,257525,1,4,2:3:0:0:
161,261,257668,1,4,2:3:0:0:
161,261,257954,2,0,P|200:264|244:260,1,70,6|0,2:1|2:0,2:0:0:0:
295,302,258382,1,4,2:3:0:0:
246,357,258525,1,14,1:0:0:0:
246,357,259096,1,6,1:0:0:0:
180,319,259239,1,4,2:3:0:0:
488,249,259668,5,6,1:0:0:0:
419,291,259811,1,4,2:3:0:0:
351,261,259954,1,4,2:3:0:0:
351,261,260239,2,0,P|352:223|351:177,1,70,4|4,2:1|2:3,2:0:0:0:
351,191,260668,1,4,2:3:0:0:
417,152,260811,1,12,1:0:0:0:
417,152,261382,1,4,1:0:0:0:
482,187,261525,1,4,2:3:0:0:
256,0,261954,5,4,1:0:0:0:
296,67,262096,1,4,2:3:0:0:
261,129,262239,1,4,2:3:0:0:
213,193,262525,1,4,2:1:0:0:
263,255,262811,1,4,2:3:0:0:
303,322,262954,1,4,2:3:0:0:
268,384,263096,6,0,P|251:382|229:385,1,35,8|4,2:3|2:3,2:0:0:0:
120,384,263239,2,0,P|137:382|159:385,1,35,8|4,2:3|2:3,2:0:0:0:
349,384,263382,1,8,2:3:0:0:
366,378,263454,1,4,2:3:0:0:
384,378,263525,1,8,2:3:0:0:
401,384,263596,1,4,2:3:0:0:
428,370,263668,1,8,2:3:0:0:
445,376,263739,1,4,2:3:0:0:
463,376,263811,1,8,2:3:0:0:
480,370,263882,1,4,2:3:0:0:
508,381,263954,1,12,1:0:0:0:
508,381,264239,6,2,P|506:337|514:222,1,140,14|0,1:0|2:0,2:1:0:0:
396,175,264525,2,0,P|397:198|396:217,1,35,4|0,2:3|2:0,2:0:0:0:
305,245,264811,2,0,P|304:222|305:203,1,35,4|0,2:3|2:0,2:0:0:0:
214,181,265096,2,0,P|215:204|214:223,1,35,4|0,2:3|2:0,2:0:0:0:
126,247,265382,2,0,P|87:261|58:286,3,70,2|4|4|4,1:0|2:3|2:3|2:3,2:0:0:0:
65,278,266525,6,2,P|67:234|59:119,1,140,14|0,1:0|2:0,2:1:0:0:
59,9,266811,2,0,P|58:35|59:55,1,35,4|0,2:3|2:0,2:0:0:0:
67,9,267096,2,0,P|66:35|67:55,1,35,4|0,2:3|2:0,2:0:0:0:
447,278,267382,6,2,P|445:234|453:119,1,140,14|0,1:0|2:0,2:1:0:0:
453,9,267668,2,0,P|454:35|453:55,1,35,4|0,2:3|2:0,2:0:0:0:
445,9,267954,2,0,P|446:35|445:55,1,35,4|0,2:3|2:0,2:0:0:0:
65,278,268239,6,2,P|67:234|59:119,1,140,14|0,1:0|2:0,2:1:0:0:
59,9,268525,2,0,P|58:35|59:55,1,35,4|0,2:3|2:0,2:0:0:0:
67,9,268811,2,0,P|66:35|67:55,1,35,4|0,2:3|2:0,2:0:0:0:
247,146,269096,6,0,P|247:129|248:112,1,35,2|0,1:0|2:0,2:0:0:0:
256,112,269382,2,0,P|255:138|256:158,1,35,4|0,2:3|2:0,2:0:0:0:
263,146,269668,2,0,P|263:129|264:112,1,35,4|0,2:3|2:0,2:0:0:0:
0,323,269954,6,2,P|44:325|159:317,1,140,14|0,1:0|2:0,2:1:0:0:
275,361,270239,2,0,P|254:361|227:364,1,35,4|0,2:3|2:0,2:0:0:0:
512,323,270525,6,2,P|468:325|353:317,1,140,14|0,1:0|2:0,2:1:0:0:
237,361,270811,2,0,P|258:361|285:364,1,35,4|0,2:3|2:0,2:0:0:0:
0,323,271096,6,2,P|44:325|159:317,1,140,14|0,1:0|2:0,2:1:0:0:
275,361,271382,2,0,P|254:361|227:364,1,35,4|0,2:3|2:0,2:0:0:0:
512,323,271668,6,0,P|491:323|464:326,1,35,2|0,1:0|2:0,2:0:0:0:
512,331,271954,2,0,P|491:331|464:334,1,35,4|0,2:3|2:0,2:0:0:0:
0,323,272239,6,0,P|21:323|48:326,1,35,2|0,1:0|2:0,2:0:0:0:
0,331,272525,2,0,P|21:331|48:334,1,35,4|0,2:3|2:0,2:0:0:0:
512,323,272811,6,0,P|491:323|464:326,1,35,2|0,1:0|2:0,2:0:0:0:
512,331,273096,2,0,P|491:331|464:334,1,35,4|0,2:3|2:0,2:0:0:0:
469,34,273382,6,2,P|467:116|470:181,1,140,14|0,1:0|2:0,2:1:0:0:
477,324,273668,2,0,P|477:303|474:276,1,35,4|0,2:3|2:0,2:0:0:0:
469,324,273954,2,0,P|469:303|466:276,1,35,4|0,2:3|2:0,2:0:0:0:
43,34,274239,6,2,P|45:116|42:181,1,140,14|0,1:0|2:0,2:1:0:0:
35,324,274525,2,0,P|35:303|38:276,1,35,4|0,2:3|2:0,2:0:0:0:
43,324,274811,2,0,P|43:303|46:276,1,35,4|0,2:3|2:0,2:0:0:0:
256,151,275096,5,10,1:0:0:0:
256,231,275382,1,4,2:3:0:0:
256,231,275668,6,2,P|255:278|258:307,1,70,6|4,1:0|2:3,2:1:0:0:
406,364,276239,2,2,P|407:317|404:288,1,70,14|4,1:0|2:3,2:1:0:0:
192,364,276811,1,6,1:0:0:0:
192,364,277096,1,4,2:3:0:0:
47,289,277382,2,2,P|46:336|49:365,1,70,14|4,1:0|2:3,2:1:0:0:
256,231,277954,6,2,P|254:164|245:91,1,140,6|14,1:0|1:0,2:1:0:0:
235,15,278811,1,4,2:3:0:0:
119,171,279096,2,2,P|118:218|121:247,1,70,6|4,1:0|2:3,2:1:0:0:
362,354,279668,2,2,P|363:307|360:278,1,70,14|4,1:0|2:3,2:1:0:0:
254,161,280239,1,2,2:0:0:0:
421,110,284239,5,10,1:0:0:0:
421,110,284811,1,6,1:0:0:0:
306,56,284953,1,4,2:3:0:0:
241,164,285096,2,0,P|241:204|237:238,1,52.5,2|0,1:0|2:0,2:0:0:0:
360,331,285382,2,2,P|361:276|371:224,1,105,6|4,2:1|2:3,2:1:0:0:
321,166,285811,1,4,2:3:0:0:
141,380,285953,6,2,P|140:325|130:273,1,105,14|0,1:0|2:0,2:1:0:0:
131,276,286525,1,6,1:0:0:0:
130,131,286668,2,0,P|129:168|130:193,1,52.5,4|0,2:3|2:0,2:0:0:0:
130,183,287096,5,6,1:0:0:0:
36,98,287239,1,4,2:3:0:0:
131,15,287382,1,2,1:0:0:0:
225,100,287525,1,2,2:0:0:0:
300,79,287668,2,0,P|301:112|298:155,1,52.5,6|0,2:1|2:0,2:0:0:0:
351,210,287953,1,4,2:3:0:0:
302,267,288096,1,4,2:3:0:0:
462,360,288239,6,2,P|422:344|356:344,1,105,14|0,1:0|2:0,2:1:0:0:
361,343,288811,1,6,1:0:0:0:
274,381,288953,1,4,2:3:0:0:
204,351,289096,2,0,P|205:324|204:298,1,52.5,2|0,2:1|2:0,2:0:0:0:
146,219,289382,5,6,1:0:0:0:
73,253,289525,1,4,2:3:0:0:
6,226,289668,2,0,P|7:199|6:173,1,52.5,2|0,2:1|2:0,2:0:0:0:
144,87,289953,2,0,P|142:113|144:140,1,52.5,6|0,2:1|2:0,2:0:0:0:
243,220,290239,1,2,1:0:0:0:
315,187,290382,1,4,2:3:0:0:
375,234,290525,2,2,P|371:290|341:355,1,105,14|0,1:0|2:0,2:1:0:0:
354,335,291096,1,6,1:0:0:0:
414,384,291239,2,0,P|443:382|473:385,1,52.5,4|2,2:3|2:1,2:0:0:0:
508,324,291525,1,0,2:0:0:0:
286,375,291668,5,6,1:0:0:0:
236,260,291811,1,4,2:3:0:0:
275,173,291953,2,0,P|277:147|276:112,1,52.5,2|0,1:0|2:0,2:0:0:0:
388,40,292239,2,2,P|384:98|389:155,1,105,4|4,2:1|2:3,2:1:0:0:
346,212,292668,1,4,2:3:0:0:
189,103,292811,5,14,1:0:0:0:
296,31,292953,1,8,2:1:0:0:
296,31,293025,1,8,2:1:0:0:
296,31,293096,1,8,1:0:0:0:
189,194,293239,5,8,2:3:0:0:
99,165,293382,1,4,2:3:0:0:
26,192,293525,1,8,2:3:0:0:
189,285,293668,6,0,P|236:283|279:287,1,87.5,10|0,1:0|2:0,2:0:0:0:
104,288,293953,5,6,1:0:0:0:
236,381,294096,1,4,2:3:0:0:
363,278,294239,2,2,P|369:330|367:382,1,105,2|4,1:0|2:1,2:1:0:0:
368,382,294811,1,2,1:0:0:0:
483,330,294953,1,4,2:3:0:0:
363,278,295096,2,0,P|337:276|289:280,1,52.5,14|0,1:0|2:0,2:0:0:0:
311,277,295525,5,2,2:1:0:0:
235,255,295668,1,4,1:0:0:0:
163,272,295811,1,4,2:3:0:0:
39,250,295953,2,0,P|65:248|113:252,1,52.5,2|0,1:0|2:0,2:0:0:0:
203,185,296239,1,6,1:0:0:0:
151,347,296382,1,4,2:3:0:0:
58,170,296525,2,2,P|56:125|59:66,1,105,2|4,1:0|2:1,2:1:0:0:
59,65,297096,1,2,1:0:0:0:
177,107,297239,1,4,2:3:0:0:
277,28,297382,6,2,P|332:34|399:26,1,105,14|0,1:0|2:0,2:1:0:0:
444,76,297811,1,2,2:1:0:0:
321,181,297953,1,6,1:0:0:0:
416,269,298096,1,4,2:3:0:0:
359,354,298239,2,0,P|394:353|425:358,1,52.5,2|0,1:0|2:0,2:0:0:0:
284,324,298525,1,6,1:0:0:0:
201,379,298668,1,4,2:3:0:0:
126,349,298811,2,0,P|91:348|60:353,1,52.5,2|0,1:0|2:0,2:0:0:0:
25,171,299096,6,2,P|26:237|23:287,1,105,6|4,2:1|2:3,2:1:0:0:
126,349,299525,1,4,2:3:0:0:
213,253,299668,2,2,P|212:187|215:137,1,105,14|0,1:0|2:0,2:1:0:0:
161,95,300096,1,2,2:1:0:0:
104,148,300239,1,4,1:0:0:0:
159,202,300382,1,4,2:3:0:0:
300,126,300525,2,0,P|301:91|296:60,1,52.5,2|0,1:0|2:0,2:0:0:0:
374,212,300811,5,6,1:0:0:0:
291,308,300953,1,4,2:3:0:0:
396,380,301096,2,0,P|361:379|330:384,1,52.5,2|0,1:0|2:0,2:0:0:0:
198,324,301382,2,2,P|152:324|96:300,1,105,6|4,2:1|2:3,2:1:0:0:
49,241,301811,1,4,2:3:0:0:
53,370,301953,5,14,1:0:0:0:
200,241,302096,1,8,2:3:0:0:
200,241,302168,1,4,2:3:0:0:
200,241,302239,1,8,2:3:0:0:
167,81,302382,1,4,2:3:0:0:
9,306,302525,5,8,2:3:0:0:
49,241,302668,1,4,2:3:0:0:
13,171,302811,1,14,1:0:0:0:
13,171,303096,5,6,1:0:0:0:
136,202,303239,1,4,2:3:0:0:
167,81,303382,1,2,1:0:0:0:
44,50,303525,1,4,2:3:0:0:
13,171,303668,1,6,2:1:0:0:
13,171,303953,1,4,2:3:0:0:
113,298,304096,1,4,2:3:0:0:
231,237,304239,2,2,P|232:301|229:351,1,105,14|0,1:0|2:0,2:1:0:0:
230,342,304811,1,6,1:0:0:0:
349,301,304953,1,4,2:3:0:0:
440,329,305096,2,0,P|466:329|492:333,1,52.5,2|0,1:0|2:0,2:0:0:0:
275,129,305382,5,6,1:0:0:0:
363,92,305525,1,4,2:3:0:0:
438,121,305668,2,2,P|436:189|438:237,1,105,2|4,1:0|2:1,2:1:0:0:
437,226,306239,2,0,P|407:223|368:231,1,52.5,4|4,2:3|2:3,2:0:0:0:
272,286,306525,2,2,P|194:278|126:238,1,157.5,14|0,1:0|2:0,2:1:0:0:
126,158,307096,1,4,1:0:0:0:
198,192,307239,1,4,2:3:0:0:
124,271,307382,2,0,P|92:268|63:272,1,52.5,2|0,1:0|2:0,2:0:0:0:
37,86,307668,5,6,1:0:0:0:
126,55,307811,1,4,2:3:0:0:
199,87,307953,2,2,P|196:158|199:203,1,105,2|4,1:0|2:1,2:1:0:0:
198,192,308525,2,0,P|227:189|267:197,1,52.5,4|4,2:3|2:3,2:0:0:0:
382,285,308811,2,2,P|307:297|240:359,1,157.5,14|0,1:0|2:0,2:1:0:0:
171,324,309382,1,4,1:0:0:0:
100,346,309525,1,4,2:3:0:0:
100,346,309668,2,0,P|73:347|46:341,1,52.5,2|0,1:0|2:0,2:0:0:0:
169,245,309953,5,6,1:0:0:0:
291,284,310096,1,4,2:3:0:0:
383,262,310239,2,0,P|410:263|437:257,1,52.5,2|0,1:0|2:0,2:0:0:0:
505,282,310525,1,6,2:1:0:0:
505,282,310811,1,4,2:3:0:0:
362,354,310953,1,4,2:3:0:0:
306,204,311096,2,2,P|308:146|306:88,1,105,14|4,1:0|2:3,2:1:0:0:
307,99,311668,5,12,1:0:0:0:
260,74,311763,5,8,2:1:0:0:
208,87,311858,5,8,2:1:0:0:
188,135,311953,6,0,P|188:164|187:180,2,35,8|8|8,1:0|2:1|2:1,2:0:0:0:
233,231,312239,5,6,1:0:0:0:
113,186,312382,1,4,2:3:0:0:
32,286,312525,2,0,P|33:326|31:360,1,52.5,2|0,1:0|2:0,2:0:0:0:
94,384,312811,1,6,2:1:0:0:
94,384,313096,1,4,2:3:0:0:
208,328,313239,1,4,2:3:0:0:
272,374,313382,6,2,P|307:372|407:286,1,157.5,14|0,1:0|2:0,2:1:0:0:
429,227,313953,1,6,1:0:0:0:
412,153,314096,1,4,2:3:0:0:
412,153,314239,2,0,P|383:154|358:152,1,52.5,2|0,1:0|2:0,2:0:0:0:
321,227,314525,5,6,1:0:0:0:
494,143,314668,1,4,2:3:0:0:
365,46,314811,2,2,P|315:48|257:42,1,105,2|6,1:0|2:1,2:1:0:0:
261,43,315382,2,0,P|262:78|261:103,1,52.5,4|4,2:3|2:3,2:0:0:0:
138,255,315668,2,2,P|123:206|118:84,1,157.5,14|0,1:0|2:0,2:1:0:0:
116,100,316239,1,6,1:0:0:0:
231,221,316382,1,4,2:3:0:0:
108,330,316525,2,0,P|77:328|48:331,1,52.5,2|0,1:0|2:0,2:0:0:0:
187,369,316811,5,6,1:0:0:0:
273,331,316953,1,4,2:3:0:0:
347,358,317096,2,0,P|378:356|407:359,1,52.5,2|0,1:0|2:0,2:0:0:0:
507,216,317382,2,2,P|504:264|477:322,1,105,6|4,2:1|2:3,2:1:0:0:
481,315,317811,1,4,2:3:0:0:
325,223,317953,6,2,P|303:175|295:60,1,157.5,14|0,1:0|2:0,2:1:0:0:
328,4,318525,1,4,1:0:0:0:
328,4,318668,1,4,2:3:0:0:
388,51,318811,2,0,P|386:87|387:115,1,52.5,2|0,2:1|2:0,2:0:0:0:
187,267,319096,5,10,1:0:0:0:
53,87,319239,1,8,1:0:0:0:
264,156,319382,1,10,1:0:0:0:
264,156,319953,5,10,1:0:0:0:
54,224,320096,1,8,1:0:0:0:
187,45,320239,1,10,1:0:0:0:
