osu file format v14

[General]
AudioFilename: audio.mp3
AudioLeadIn: 0
PreviewTime: 209301
Countdown: 0
SampleSet: Soft
StackLeniency: 0.4
Mode: 0
LetterboxInBreaks: 0
WidescreenStoryboard: 1

[Editor]
DistanceSpacing: 0.4
BeatDivisor: 2
GridSize: 32
TimelineZoom: 0.8999987

[Metadata]
Title:Southern Constellations & The Boy Who Could Fly
TitleUnicode:Southern Constellations & The Boy Who Could Fly
Artist:Pierce The Veil
ArtistUnicode:Pierce The Veil
Creator:Ruiz Duchamp
Version:Easy
Source:
Tags:selfish machines english alternative punk rock post hardcore
BeatmapID:4005495
BeatmapSetID:1867138

[Difficulty]
HPDrainRate:3
CircleSize:3
OverallDifficulty:3
ApproachRate:4
SliderMultiplier:0.8
SliderTickRate:0.5

[Events]
//Background and Video events
0,0,"IJnLGgqk6Uc.jpg",0,0
//Break Periods
2,61948,64063
2,123582,129205
2,196975,208348
//Storyboard Layer 0 (Background)
//Storyboard Layer 1 (Fail)
//Storyboard Layer 2 (Pass)
//Storyboard Layer 3 (Foreground)
//Storyboard Layer 4 (Overlay)
//Storyboard Sound Samples

[TimingPoints]
1383,571.428571428571,4,2,1,20,1,0
12811,-100,4,2,1,30,0,0
13953,-100,4,2,1,10,0,0
15097,-100,4,2,1,30,0,0
16240,-100,4,2,1,20,0,0
17382,-100,4,2,1,30,0,0
19667,-100,4,2,11,5,0,0
20240,-100,4,2,1,30,0,0
20811,-100,4,2,1,20,0,0
21954,-100,4,2,1,30,0,0
23087,576.923076923077,4,2,1,20,1,0
23663,566.037735849057,4,2,1,20,1,0
24229,576.923076923077,4,2,1,30,1,0
24805,582.52427184466,4,2,1,20,1,0
25387,550.45871559633,4,2,1,20,1,0
26487,588.235294117647,4,2,1,30,1,0
27663,-100,4,2,1,20,0,0
28839,540.540540540541,4,2,1,10,1,0
29379,571.428571428571,4,2,1,20,1,0
31093,571.428571428571,4,2,1,30,1,0
32235,-100,4,2,1,20,0,0
33949,-100,4,2,1,10,0,0
34521,560.747663551402,4,2,1,20,1,0
35642,594.059405940594,4,2,1,30,1,0
36830,-100,4,2,1,20,0,0
37424,521.739130434783,4,2,1,20,1,0
37945,571.428571428571,4,2,1,20,1,0
39087,-100,4,2,1,30,0,0
39658,-100,4,2,1,20,0,0
40230,-100,4,2,1,30,0,0
41372,-100,4,2,1,20,0,0
41945,-100,4,2,1,30,0,0
42516,-100,4,2,1,20,0,0
44230,-100,4,2,1,15,0,0
44802,-100,4,2,1,30,0,0
45944,-100,4,2,1,20,0,0
48230,600,4,2,1,20,1,0
49430,571.428571428571,4,2,1,30,1,0
50572,-100,4,2,1,15,0,0
51715,-100,4,2,1,10,0,0
52858,-100,4,2,1,30,0,0
53429,-100,4,2,2,10,0,0
54001,-100,4,2,1,30,0,0
55143,-100,4,2,2,20,0,0
56287,-100,4,2,1,30,0,0
57430,545.454545454546,4,2,1,30,1,0
58520,571.428571428571,4,2,1,30,1,0
61377,-100,4,2,1,10,0,0
65383,285.714285714286,4,2,1,80,1,0
66525,-100,4,2,1,70,0,0
85954,-100,4,2,1,60,0,0
95097,-100,4,2,1,50,0,0
96240,-100,4,2,1,55,0,0
97383,-100,4,2,1,60,0,0
98525,-100,4,2,1,65,0,0
99954,-100,4,2,1,45,0,0
100240,-100,4,2,1,50,0,0
100525,-100,4,2,1,55,0,0
100811,-100,4,2,1,60,0,0
101383,-100,4,2,1,65,0,0
101954,-100,4,2,1,70,0,0
103097,-100,4,2,2,70,0,0
103668,-100,4,2,1,70,0,0
103954,-100,4,2,1,80,0,0
104240,571.428571428571,4,2,2,70,1,0
104240,-50,4,2,2,70,0,0
112240,-50,4,2,1,70,0,0
113382,-50,4,2,2,70,0,0
121382,-50,4,2,1,70,0,0
122525,285.714285714286,4,2,1,75,1,0
131667,-100,4,2,1,65,0,0
149953,-100,4,2,1,55,0,0
166524,-100,4,2,2,25,0,0
167095,-100,4,2,2,20,0,0
167667,-100,4,2,2,40,0,0
168240,571.428571428571,4,2,2,70,1,0
168240,-50,4,2,2,70,0,0
176240,-50,4,2,1,70,0,0
177382,-50,4,2,2,70,0,0
186525,-50,4,2,1,70,0,0
187096,-50,4,2,2,40,0,0
191097,285.714285714286,4,2,2,40,1,0
196775,-100,4,2,2,20,0,0
209668,-100,4,2,1,60,0,0
227668,-100,4,2,1,80,0,1
231097,-100,4,2,1,40,0,0
231668,-100,4,2,1,65,0,0
241953,-100,4,2,1,30,0,0
244811,-100,4,2,1,60,0,0
245954,571.428571428571,4,2,2,60,1,0
248239,-50,4,2,2,60,0,0
264239,-50,4,2,1,80,0,0
264810,-50,4,2,1,60,0,0
266525,-50,4,2,1,80,0,0
267096,-50,4,2,1,60,0,0
267382,-50,4,2,1,80,0,0
267953,-50,4,2,1,60,0,0
268239,-50,4,2,1,80,0,0
269096,-50,4,2,1,60,0,0
269954,-50,4,2,1,80,0,0
270239,-50,4,2,1,60,0,0
270525,-50,4,2,1,80,0,0
270810,-50,4,2,1,60,0,0
271096,-50,4,2,1,80,0,0
271667,-50,4,2,1,60,0,0
273382,-50,4,2,1,80,0,0
273953,-50,4,2,1,60,0,0
274239,-50,4,2,1,80,0,0
274810,-50,4,2,1,60,0,0
275096,-50,4,2,1,80,0,0
275668,-50,4,2,1,60,0,0
280239,-50,4,2,1,30,0,0
284239,-50,4,2,1,60,0,0
284811,-50,4,2,2,70,0,0
301954,-50,4,2,1,70,0,0
303096,-50,4,2,2,70,0,0
311096,-50,4,2,1,70,0,0
312239,-50,4,2,2,70,0,0

[Colours]
Combo1 : 250,147,107
Combo2 : 179,227,227
Combo3 : 255,196,155
Combo4 : 173,199,231

[HitObjects]
498,195,12811,6,0,P|443:192|336:197,1,160,2|0,2:0|2:0,2:0:0:0:
338,196,15097,1,2,2:0:0:0:
338,196,16240,1,2,2:0:0:0:
348,277,16811,1,2,2:0:0:0:
335,355,17382,6,0,P|229:350|10:355,1,320,2|0,2:0|2:0,2:0:0:0:
7,274,20240,2,0,P|6:237|-3:184,2,80,2|0|0,2:0|2:0|2:0,2:0:0:0:
87,270,21954,6,0,P|120:188|165:127,1,158.74,2|0,2:0|2:0,2:0:0:0:
241,142,23663,1,0,2:0:0:0:
319,126,24229,2,0,P|340:167|368:202,1,80,2|0,2:0|2:0,2:0:0:0:
440,199,25387,1,0,2:0:0:0:
497,143,25937,1,0,2:0:0:0:
468,68,26487,6,0,P|418:32|305:16,2,160,2|0|0,2:0|2:0|2:0,2:0:0:0:
497,143,29379,2,0,P|468:176|449:207,1,80,2|0,2:1|2:0,2:0:0:0:
444,286,30521,1,0,2:0:0:0:
371,320,31093,6,0,P|286:285|201:279,1,160,2|0,2:0|2:0,2:0:0:0:
139,289,32807,1,0,2:0:0:0:
84,230,33378,2,0,P|103:188|117:138,1,80,2|0,2:0|2:0,2:0:0:0:
188,128,34521,2,0,P|200:89|217:53,1,80,2|0,2:0|2:0,2:0:0:0:
147,14,35642,6,0,P|73:42|21:105,1,160,2|0,2:0|2:0,2:0:0:0:
52,176,37424,1,0,2:0:0:0:
52,176,39087,2,0,P|83:209|107:245,1,80,0|0,2:0|2:0,2:0:0:0:
174,272,40230,6,0,P|248:244|300:181,1,160,2|0,2:0|2:0,2:0:0:0:
287,104,41945,1,0,2:0:0:0:
309,27,42516,2,0,P|357:31|400:27,1,80,2|0,2:0|2:0,2:0:0:0:
442,88,43659,1,2,2:0:0:0:
411,162,44230,1,0,2:0:0:0:
465,220,44802,6,0,P|463:310|473:385,2,160,2|0|2,2:0|2:0|2:0,2:0:0:0:
335,126,48230,2,0,P|298:128|245:124,1,80,2|0,2:0|2:0,2:0:0:0:
196,179,49430,6,0,P|117:196|48:253,2,160,2|0|0,2:0|2:0|2:0,2:0:0:0:
323,276,52858,2,0,P|360:278|413:274,1,80,2|0,2:0|2:0,2:0:0:0:
465,220,54001,6,2,P|448:141|391:72,1,160,2|0,2:0|2:0,2:1:0:0:
256,8,56287,2,2,P|212:12|170:8,1,80,0|0,2:0|2:0,2:1:0:0:
128,72,57430,1,0,2:0:0:0:
256,192,58520,12,2,61377,2:0:0:0:
256,192,65383,5,6,1:0:0:0:
144,237,65811,2,0,P|145:296|143:326,1,80,10|10,1:0|1:0,2:0:0:0:
257,356,66525,2,2,P|356:349|423:314,1,160,14|14,1:0|1:0,2:1:0:0:
462,263,67383,1,8,1:0:0:0:
436,187,67668,6,0,P|435:150|437:101,1,80,6|4,1:0|2:3,2:0:0:0:
371,60,68240,2,0,P|334:61|285:59,1,80,6|4,1:0|2:3,2:0:0:0:
238,119,68811,2,2,P|277:208|278:282,1,160,6|4,1:0|2:3,2:1:0:0:
211,311,69668,1,2,1:0:0:0:
141,271,69954,2,0,P|102:275|53:271,1,80,6|4,1:0|2:3,2:0:0:0:
17,205,70525,2,0,P|13:166|17:117,1,80,6|4,1:0|2:3,2:0:0:0:
76,72,71097,1,6,1:0:0:0:
138,121,71383,1,2,1:0:0:0:
213,94,71668,2,0,P|254:96|308:90,1,80,2|2,1:0|1:0,2:0:0:0:
360,135,72240,6,0,P|401:133|455:139,1,80,6|2,1:0|1:0,2:0:0:0:
492,196,72811,1,2,1:0:0:0:
454,266,73097,1,2,1:0:0:0:
466,345,73383,2,2,P|398:342|295:349,1,160,6|6,1:0|1:0,2:1:0:0:
227,332,74240,1,2,1:0:0:0:
148,346,74525,2,2,P|82:336|17:294,1,120,6|8,1:0|1:0,2:1:0:0:
36,230,75240,1,8,1:0:0:0:
123,147,75668,2,2,P|190:146|280:93,1,160,14|14,1:0|1:0,2:1:0:0:
327,47,76525,1,8,1:0:0:0:
403,71,76811,5,6,1:0:0:0:
472,169,77240,2,0,P|469:236|472:272,1,80,8|8,1:0|1:0,2:0:0:0:
378,326,77954,2,2,P|312:315|226:242,1,160,6|2,1:0|1:0,2:1:0:0:
242,180,78811,1,2,1:0:0:0:
239,99,79097,2,2,P|183:102|106:94,1,120,6|10,1:0|1:0,2:1:0:0:
57,146,79811,1,10,1:0:0:0:
57,266,80240,2,2,P|123:277|209:350,1,160,6|2,1:0|1:0,2:1:0:0:
312,220,81383,6,0,P|356:223|401:220,1,80,6|4,1:0|2:3,2:0:0:0:
465,251,81954,1,2,1:0:0:0:
508,97,82525,2,0,P|505:60|507:12,1,80,6|4,1:0|1:3,2:0:0:0:
427,3,83097,1,6,1:0:0:0:
348,17,83383,1,8,1:0:0:0:
268,7,83668,2,2,P|267:94|250:170,1,160,6|4,1:0|2:3,2:1:0:0:
173,146,84525,1,4,2:3:0:0:
94,163,84811,1,2,1:3:0:0:
95,323,85383,2,0,P|150:323|184:325,1,80,4|2,2:3|1:0,2:0:0:0:
245,361,85954,6,2,P|301:359|394:308,1,160,6|2,1:0|1:0,2:1:0:0:
294,183,87097,2,2,P|238:185|145:236,1,160,2|2,1:0|1:0,2:1:0:0:
100,297,87954,1,4,2:3:0:0:
29,258,88240,2,0,P|31:217|27:158,1,80,2|4,1:0|2:3,2:0:0:0:
93,130,88811,2,0,P|91:89|95:30,1,80,4|2,2:3|1:0,2:0:0:0:
164,14,89383,2,2,P|220:16|313:67,1,160,2|2,1:0|1:0,2:1:0:0:
302,143,90240,1,4,2:3:0:0:
308,222,90525,5,2,1:0:0:0:
390,359,91097,2,0,P|445:359|479:361,1,80,2|4,1:0|2:3,2:0:0:0:
509,290,91668,2,2,P|512:242|499:121,1,160,2|2,1:0|1:0,2:1:0:0:
445,73,92525,1,4,2:3:0:0:
377,115,92811,2,0,P|322:115|288:117,1,80,2|4,1:0|2:3,2:0:0:0:
225,79,93383,1,2,1:0:0:0:
98,176,93954,2,2,P|87:255|90:335,1,160,6|8,1:0|2:3,2:1:0:0:
163,367,94811,1,8,1:0:0:0:
239,344,95097,1,6,1:0:0:0:
314,369,95383,6,0,L|418:348,1,80,10|4,1:0|2:3,2:0:0:0:
443,291,95954,1,10,1:0:0:0:
397,225,96240,2,0,L|293:204,1,80,4|10,2:3|1:0,2:0:0:0:
250,251,96811,2,0,L|146:272,1,80,4|10,2:3|1:0,2:0:0:0:
105,221,97383,1,4,2:3:0:0:
142,150,97668,2,0,L|220:134,1,80,10|4,1:0|2:3,2:0:0:0:
282,82,98240,1,10,1:0:0:0:
350,123,98525,2,0,L|428:138,1,80,4|10,2:3|1:0,2:0:0:0:
489,86,99097,2,0,L|504:7,1,80,4|10,2:3|1:0,2:0:0:0:
256,192,99668,12,2,101954,1:3:0:0:
124,135,103097,6,2,P|126:224|122:314,1,160,10|2,1:0|1:0,2:1:0:0:
169,360,103954,1,12,1:0:0:0:
244,333,104240,2,2,P|297:320|378:236,1,160,6|6,1:0|2:1,2:1:0:0:
306,103,105382,2,2,P|253:90|172:6,1,160,14|6,1:0|1:0,2:1:0:0:
104,52,106240,2,2,P|102:152|82:268,1,160,2|2,1:0|1:0,2:1:0:0:
77,289,107097,1,4,2:1:0:0:
220,359,107668,2,2,B|295:337|295:337|409:374,1,160,14|4,1:0|1:0,2:1:0:0:
495,259,108811,6,0,P|492:222|497:160,1,80,6|2,1:0|1:0,2:0:0:0:
429,132,109382,2,0,P|432:95|427:33,1,80,6|2,2:1|1:0,2:0:0:0:
365,3,109954,2,2,P|300:19|231:89,1,160,14|6,1:0|1:0,2:1:0:0:
249,161,110811,1,2,1:0:0:0:
213,233,111097,2,2,P|151:229|51:237,1,160,6|6,1:0|2:1,2:1:0:0:
154,360,112240,2,2,P|216:356|316:364,1,160,14|8,1:0|2:3,2:1:0:0:
375,314,113097,1,14,1:0:0:0:
347,239,113382,6,2,P|345:171|351:78,1,160,6|6,1:0|2:1,2:1:0:0:
282,36,114240,1,2,1:0:0:0:
209,69,114525,1,14,1:0:0:0:
210,229,115097,2,0,P|209:297|207:319,1,80,4|2,1:0|1:0,2:0:0:0:
148,361,115668,2,2,P|74:335|8:257,1,160,6|6,1:0|2:1,2:1:0:0:
35,199,116525,1,4,2:3:0:0:
27,119,116811,1,14,1:0:0:0:
173,54,117382,1,6,1:0:0:0:
318,120,117954,6,2,P|396:114|486:120,1,160,6|6,1:0|2:1,2:1:0:0:
498,196,118811,1,4,2:3:0:0:
480,274,119097,1,14,1:0:0:0:
333,338,119668,1,6,1:0:0:0:
184,279,120239,1,6,1:0:0:0:
184,279,121382,2,0,L|105:257,1,80,14|8,1:0|1:0,2:0:0:0:
92,178,121954,2,0,L|171:156,1,80,14|8,1:0|2:1,2:0:0:0:
232,107,122525,2,2,B|341:148|341:148|484:97,1,240,6|2,1:0|1:0,2:1:0:0:
256,160,130525,6,0,L|235:63,1,80,8|10,1:3|1:3,2:0:0:0:
163,55,131096,2,0,L|146:133,1,80,4|4,2:3|2:3,2:0:0:0:
73,167,131667,2,2,P|75:259|69:328,1,160,6|2,1:0|1:0,2:1:0:0:
184,363,132667,2,2,P|250:355|315:318,1,120,10|2,1:0|1:0,2:1:0:0:
351,272,133382,1,2,1:0:0:0:
300,209,133667,2,2,P|234:217|169:254,1,120,2|10,1:0|1:0,2:1:0:0:
130,298,134382,1,10,1:0:0:0:
58,263,134667,2,2,P|59:198|51:125,1,120,10|2,1:0|1:0,2:1:0:0:
148,69,135525,1,10,1:0:0:0:
413,158,136525,6,0,P|412:205|416:261,1,80,4|2,2:3|1:0,2:0:0:0:
357,294,137096,1,2,1:0:0:0:
281,266,137382,1,2,1:0:0:0:
175,323,137810,2,0,P|142:319|62:329,1,80,10|10,1:0|1:0,2:0:0:0:
39,264,138382,2,0,P|40:218|37:183,1,80,10|10,1:0|1:0,2:0:0:0:
106,144,138953,1,10,1:0:0:0:
178,176,139239,1,10,1:0:0:0:
271,101,139667,1,6,2:3:0:0:
341,139,139953,2,2,P|339:245|346:313,1,160,8|4,2:1|2:3,2:1:0:0:
275,340,140810,6,2,P|205:333|113:259,1,160,6|4,1:0|2:3,2:1:0:0:
148,206,141667,1,4,2:3:0:0:
137,126,141953,1,2,1:0:0:0:
189,17,142382,2,0,P|234:22|283:14,1,80,10|10,1:0|1:0,2:0:0:0:
339,55,142953,1,10,1:0:0:0:
413,26,143239,1,10,1:0:0:0:
482,65,143525,1,8,1:0:0:0:
481,184,143953,2,2,P|476:301|481:370,1,160,2|4,1:0|2:3,2:1:0:0:
359,327,144953,5,10,1:0:0:0:
283,352,145239,1,10,1:0:0:0:
207,325,145525,2,2,P|212:208|207:139,1,160,10|8,1:0|1:0,2:1:0:0:
98,120,146525,1,2,1:0:0:0:
19,210,146953,2,0,P|20:259|16:302,1,80,10|10,1:0|1:0,2:0:0:0:
115,359,147667,2,2,B|227:316|227:316|348:370,1,240,14|8,1:0|1:0,2:1:0:0:
406,321,148810,2,2,P|403:241|409:154,1,160,12|8,1:0|2:3,2:1:0:0:
344,112,149667,1,8,2:3:0:0:
279,158,149953,1,6,1:0:0:0:
72,36,150810,5,2,1:0:0:0:
2,75,151096,2,2,P|3:148|-1:199,1,120,2|8,1:0|1:0,2:1:0:0:
0,276,151810,1,8,1:0:0:0:
120,273,152239,2,2,B|244:248|210:363|343:378,1,240,6|4,1:0|2:3,2:1:0:0:
376,314,153382,2,2,B|435:298|435:298|499:321,1,120,2|10,1:0|1:0,2:1:0:0:
512,240,154096,1,10,1:0:0:0:
419,163,154525,6,2,P|338:168|270:156,2,120,6|10|2,1:0|1:0|1:0,2:1:0:0:
471,103,155667,1,2,1:0:0:0:
389,15,156096,1,10,1:0:0:0:
278,61,156525,1,4,2:3:0:0:
202,35,156810,2,2,P|127:43|38:35,2,160,6|2|6,1:0|1:0|1:0,2:1:0:0:
262,183,158525,2,0,P|259:239|262:278,1,80,8|8,1:0|2:3,2:0:0:0:
215,329,159096,6,2,P|124:323|-2:236,1,240,6|4,1:0|2:3,2:1:0:0:
6,162,160239,1,2,1:0:0:0:
120,125,160667,2,0,P|167:129|221:123,1,80,10|10,1:0|1:0,2:0:0:0:
304,186,161382,2,2,P|356:187|470:228,1,160,6|2,1:0|1:0,2:1:0:0:
484,296,162239,1,4,2:3:0:0:
415,337,162525,2,2,P|363:338|275:368,1,120,2|10,1:0|1:0,2:1:0:0:
228,315,163239,1,10,1:0:0:0:
116,358,163667,5,6,1:0:0:0:
21,284,164096,2,2,P|25:232|23:142,1,120,10|4,1:0|2:3,2:1:0:0:
92,122,164810,1,2,1:0:0:0:
166,152,165096,2,2,P|231:158|299:153,1,120,4|10,2:3|1:0,2:1:0:0:
381,227,165953,2,2,P|459:263|506:324,2,160,6|2|2,1:0|2:0|2:0,2:1:0:0:
239,302,167667,1,2,2:0:0:0:
105,212,168240,6,0,P|107:172|105:121,1,80,6|2,1:0|1:0,2:0:0:0:
167,80,168811,2,2,P|240:79|322:36,1,160,6|14,2:1|1:0,2:1:0:0:
384,185,169954,1,6,1:0:0:0:
337,249,170240,2,2,P|256:240|173:246,1,160,2|2,1:0|1:0,2:1:0:0:
105,212,171097,1,6,2:1:0:0:
167,64,171668,2,2,P|240:63|322:20,1,160,14|6,1:0|1:0,2:1:0:0:
389,57,172525,1,2,1:0:0:0:
467,41,172811,6,2,P|467:161|461:245,1,160,6|6,1:0|2:1,2:1:0:0:
478,279,173668,1,2,1:0:0:0:
445,351,173954,2,0,L|304:336,1,80,14|0,1:0|2:0,2:0:0:0:
285,340,174525,2,0,L|205:348,1,80,6|2,1:0|1:0,2:0:0:0:
126,361,175097,1,6,1:0:0:0:
20,240,175668,1,6,2:1:0:0:
151,148,176240,2,2,P|240:153|338:145,1,160,14|8,1:0|2:3,2:1:0:0:
383,181,177097,1,14,1:0:0:0:
457,153,177382,6,0,P|454:110|460:64,1,80,6|2,1:0|1:0,2:0:0:0:
404,13,177954,2,0,P|366:18|310:14,1,80,6|2,2:1|1:0,2:0:0:0:
247,37,178525,2,2,P|179:36|87:96,1,160,14|6,2:1|1:0,2:1:0:0:
118,158,179382,2,2,P|186:157|278:217,1,160,2|2,1:0|1:0,2:1:0:0:
262,282,180240,1,6,2:1:0:0:
403,357,180811,2,0,P|460:356|486:359,1,80,14|0,1:0|2:0,2:0:0:0:
511,283,181382,1,6,1:0:0:0:
408,160,181954,2,0,P|406:108|409:66,1,80,6|2,1:0|1:0,2:0:0:0:
348,26,182525,1,6,2:1:0:0:
228,132,183097,6,2,P|242:209|241:299,1,160,14|6,1:0|1:0,2:1:0:0:
168,321,183954,1,2,1:0:0:0:
93,292,184240,2,0,P|95:249|91:191,1,80,6|2,1:0|1:0,2:0:0:0:
53,143,184811,1,6,2:1:0:0:
173,38,185382,1,14,1:0:0:0:
311,118,185954,2,0,P|359:122|403:118,1,80,4|0,2:3|2:0,2:0:0:0:
457,164,186525,2,2,P|454:265|459:335,1,160,6|2,1:0|2:0,2:1:0:0:
303,365,187668,2,2,P|306:264|301:194,1,160,2|2,2:0|2:0,2:1:0:0:
161,128,188811,2,2,P|158:229|163:299,1,160,2|2,2:0|2:0,2:1:0:0:
11,341,189954,2,2,P|14:240|9:170,1,160,2|8,2:0|2:3,2:1:0:0:
26,102,190811,1,4,2:3:0:0:
5,24,191097,1,6,1:0:0:0:
256,192,191239,12,4,196775,2:1:0:0:
71,178,209668,6,0,P|73:224|68:276,1,80,10|2,1:0|1:0,2:0:0:0:
127,314,210239,1,10,1:0:0:0:
204,292,210525,2,0,P|201:245|207:194,1,80,2|10,1:0|1:0,2:0:0:0:
250,146,211097,2,0,P|313:145|360:130,1,80,2|10,2:1|1:0,2:0:0:0:
388,88,211668,1,2,2:1:0:0:
460,121,211954,1,10,1:0:0:0:
455,200,212239,1,2,2:1:0:0:
334,305,212811,1,2,2:1:0:0:
204,212,213382,1,2,2:1:0:0:
46,239,213954,6,0,P|49:204|45:135,1,80,2|10,1:0|1:0,2:0:0:0:
123,132,214525,2,0,P|119:97|124:28,1,80,2|10,2:1|1:0,2:0:0:0:
190,11,215097,2,0,P|236:27|291:23,1,80,2|10,1:0|1:0,2:0:0:0:
343,4,215668,1,2,2:1:0:0:
419,28,215954,1,10,1:0:0:0:
418,107,216239,2,0,P|416:164|420:209,1,80,2|10,2:1|1:0,2:0:0:0:
474,243,216811,2,0,P|476:300|472:345,1,80,2|10,2:1|1:0,2:0:0:0:
409,370,217382,2,2,P|330:338|242:331,1,160,2|2,2:1|2:1,2:1:0:0:
97,351,218525,5,2,1:0:0:0:
54,282,218811,1,10,1:0:0:0:
96,214,219097,2,0,P|99:175|94:122,1,80,2|10,2:1|1:0,2:0:0:0:
161,87,219668,2,0,P|200:90|253:85,1,80,2|10,1:0|1:0,2:0:0:0:
297,143,220239,1,2,1:0:0:0:
269,218,220525,1,10,1:0:0:0:
309,286,220811,2,2,P|415:288|481:308,1,160,2|2,1:0|2:1,2:1:0:0:
510,235,221668,1,10,1:0:0:0:
487,158,221954,1,2,2:1:0:0:
361,58,222525,6,0,P|315:62|269:55,1,80,2|10,1:0|1:0,2:0:0:0:
216,105,223097,1,2,1:0:0:0:
275,253,223668,1,2,2:1:0:0:
160,364,224239,2,0,P|120:360|49:364,1,80,4|8,2:3|1:0,2:0:0:0:
28,299,224811,1,2,1:0:0:0:
75,234,225097,1,10,1:0:0:0:
29,168,225382,2,0,P|32:128|30:80,1,80,4|8,2:3|1:0,2:0:0:0:
96,41,225954,2,0,P|135:44|184:42,1,80,0|8,2:0|1:0,2:0:0:0:
230,101,226525,2,0,P|321:113|398:152,1,160,8|8,1:0|2:3,2:0:0:0:
367,220,227382,1,8,1:0:0:0:
379,299,227668,6,2,P|432:298|476:304,1,80,6|10,1:0|1:0,2:1:0:0:
509,239,228239,1,2,1:0:0:0:
485,162,228525,1,10,1:0:0:0:
498,81,228811,2,2,P|445:82|401:76,1,80,2|10,1:0|1:0,2:1:0:0:
353,31,229382,2,2,P|300:32|256:26,1,80,2|10,2:1|1:0,2:1:0:0:
210,79,229954,2,2,P|161:121|125:214,1,160,2|2,2:1|2:1,2:1:0:0:
162,278,230811,1,10,1:0:0:0:
239,259,231097,5,2,2:1:0:0:
376,341,231668,1,2,2:1:0:0:
491,230,232239,2,0,P|489:193|492:139,1,80,2|8,1:0|1:0,2:0:0:0:
437,89,232811,2,0,P|400:91|346:88,1,80,2|10,2:1|1:0,2:0:0:0:
293,137,233382,1,2,1:0:0:0:
225,94,233668,1,10,1:0:0:0:
161,142,233954,2,0,P|165:192|163:245,1,80,2|10,2:1|1:0,2:0:0:0:
110,281,234525,1,2,2:1:0:0:
34,255,234811,1,10,1:0:0:0:
19,176,235097,2,0,P|15:126|17:73,1,80,2|10,2:1|1:0,2:0:0:0:
79,48,235668,1,2,2:1:0:0:
228,104,236239,1,2,2:1:0:0:
372,33,236811,6,0,P|417:36|464:33,1,80,2|8,1:0|1:0,2:0:0:0:
503,95,237382,2,0,P|500:139|503:186,1,80,2|8,2:1|1:0,2:0:0:0:
434,219,237954,1,2,1:0:0:0:
360,188,238239,1,10,1:0:0:0:
288,223,238525,2,0,P|289:276|282:325,1,80,2|10,1:0|1:0,2:0:0:0:
222,351,239097,2,2,P|145:341|76:292,1,160,2|2,1:0|2:1,2:1:0:0:
105,219,239954,1,10,1:0:0:0:
94,139,240239,2,2,P|170:129|240:80,1,160,2|2,1:0|1:0,2:1:0:0:
360,188,241382,6,2,P|357:296|361:352,1,160,10|2,1:0|2:0,2:1:0:0:
203,381,242525,2,2,P|206:273|202:217,1,160,2|2,2:0|2:0,2:1:0:0:
55,156,243668,1,2,2:0:0:0:
55,156,244811,2,2,P|158:134|264:15,1,240,8|10,1:0|1:0,2:1:0:0:
328,19,245954,5,6,1:0:0:0:
403,45,246239,1,4,2:3:0:0:
402,205,246811,1,4,2:3:0:0:
327,231,247096,1,12,1:0:0:0:
203,128,247668,1,4,1:0:0:0:
69,215,248239,2,0,P|71:267|64:313,1,80,4|4,1:0|2:3,2:0:0:0:
213,361,249096,2,0,P|211:309|218:263,1,80,4|12,2:3|1:0,2:0:0:0:
369,239,249954,1,4,1:0:0:0:
373,79,250525,5,4,1:0:0:0:
304,37,250811,1,4,2:3:0:0:
144,33,251382,1,4,2:3:0:0:
75,75,251668,1,12,1:0:0:0:
75,75,252811,1,4,1:0:0:0:
73,154,253096,1,4,2:3:0:0:
187,266,253668,1,4,2:3:0:0:
185,345,253954,1,12,1:0:0:0:
331,280,254525,1,4,1:0:0:0:
330,120,255096,6,0,P|381:124|414:119,1,80,4|4,1:0|2:3,2:0:0:0:
508,246,255954,2,0,P|504:297|509:330,1,80,4|14,2:3|1:0,2:0:0:0:
508,325,257382,2,2,P|432:320|331:327,1,160,6|6,1:0|2:1,2:1:0:0:
269,338,258239,1,4,2:3:0:0:
189,328,258525,1,14,1:0:0:0:
94,199,259096,1,6,1:0:0:0:
201,80,259668,2,2,P|277:85|378:78,1,160,6|4,1:0|2:1,2:1:0:0:
403,147,260525,1,4,2:3:0:0:
366,218,260811,1,12,1:0:0:0:
206,218,261382,1,4,1:0:0:0:
85,112,261954,5,4,1:0:0:0:
87,32,262239,1,4,2:3:0:0:
246,13,262811,1,4,2:3:0:0:
244,93,263096,2,0,P|244:152|239:207,1,80,8|8,2:3|2:3,2:0:0:0:
298,230,263668,2,0,P|298:289|303:344,1,80,8|12,2:3|1:0,2:0:0:0:
235,358,264239,6,2,P|145:342|85:299,1,160,14|4,1:0|2:3,2:1:0:0:
112,227,265096,1,4,2:3:0:0:
99,148,265382,2,2,P|188:132|249:89,1,160,2|4,1:0|2:3,2:1:0:0:
367,0,266525,2,2,P|433:42|512:54,1,160,14|4,1:0|2:3,2:1:0:0:
512,137,267382,2,2,P|433:148|366:191,1,160,14|4,1:0|2:3,2:1:0:0:
366,271,268239,1,14,1:0:0:0:
127,271,269096,1,2,1:0:0:0:
246,64,269954,6,0,P|312:66|352:62,1,80,14|4,1:0|2:3,2:0:0:0:
388,15,270525,2,0,P|454:17|494:13,1,80,14|4,1:0|2:3,2:0:0:0:
510,85,271096,2,2,P|487:183|485:256,1,160,14|2,1:0|1:0,2:1:0:0:
330,199,272239,1,2,1:0:0:0:
201,295,272811,1,2,1:0:0:0:
49,244,273382,2,2,P|43:164|23:86,1,160,14|4,1:0|2:3,2:1:0:0:
84,34,274239,2,2,P|173:41|263:32,1,160,14|4,1:0|2:3,2:1:0:0:
298,94,275096,1,10,1:0:0:0:
199,219,275668,6,2,P|307:239|465:388,1,320,6|6,1:0|1:0,2:1:0:0:
508,224,277382,1,14,1:0:0:0:
478,66,277954,2,2,B|330:129|330:129|181:62,1,320,6|6,1:0|1:0,2:1:0:0:
98,199,279668,1,14,1:0:0:0:
173,340,280239,1,2,2:0:0:0:
314,339,284239,5,10,1:0:0:0:
472,313,284811,2,2,P|475:239|472:146,1,160,6|6,1:0|2:1,2:1:0:0:
402,113,285668,1,4,2:3:0:0:
331,151,285954,1,14,1:0:0:0:
185,85,286525,1,6,1:0:0:0:
111,116,286811,2,2,P|114:190|111:283,1,160,0|2,2:0|1:0,2:1:0:0:
184,309,287668,1,6,2:1:0:0:
300,199,288239,2,0,P|298:160|302:88,1,80,14|0,1:0|2:0,2:0:0:0:
363,71,288811,1,6,1:0:0:0:
495,160,289382,6,2,P|493:274|499:341,1,160,6|6,1:0|2:1,2:1:0:0:
424,355,290239,1,2,1:0:0:0:
349,325,290525,1,14,1:0:0:0:
193,363,291096,2,0,P|148:359|90:365,1,80,6|2,1:0|2:1,2:0:0:0:
44,319,291668,2,2,P|46:205|40:138,1,160,6|4,1:0|2:1,2:1:0:0:
114,124,292525,1,4,2:3:0:0:
189,149,292811,2,0,P|236:148|280:153,1,80,14|8,1:0|1:0,2:0:0:0:
333,104,293382,2,0,P|380:105|424:100,1,80,4|10,2:3|1:0,2:0:0:0:
475,151,293954,6,2,P|460:230|457:314,1,160,6|4,1:0|2:1,2:1:0:0:
383,341,294811,1,2,1:0:0:0:
308,313,295096,1,14,1:0:0:0:
170,230,295668,1,4,1:0:0:0:
101,270,295954,2,0,P|63:265|19:268,1,80,2|6,1:0|1:0,2:0:0:0:
2,190,296525,2,2,P|50:114|111:83,1,160,2|2,1:0|1:0,2:1:0:0:
186,107,297382,1,14,1:0:0:0:
333,168,297954,1,6,1:0:0:0:
406,137,298239,2,0,P|404:95|408:35,1,80,2|6,1:0|1:0,2:0:0:0:
325,42,298811,6,2,P|257:53|181:114,1,160,2|4,1:0|2:3,2:1:0:0:
187,187,299668,1,14,1:0:0:0:
332,252,300239,2,0,P|334:317|332:345,1,80,4|2,1:0|1:0,2:0:0:0:
405,367,300811,2,2,P|455:305|473:227,1,160,6|6,1:0|2:1,2:1:0:0:
447,152,301668,1,4,2:3:0:0:
468,75,301954,1,14,1:0:0:0:
321,9,302525,1,8,2:3:0:0:
222,134,303096,6,2,P|225:188|217:302,1,160,6|6,1:0|2:1,2:1:0:0:
146,329,303954,1,4,2:3:0:0:
71,300,304239,1,14,1:0:0:0:
74,139,304811,1,6,1:0:0:0:
101,64,305096,2,0,P|157:67|220:56,1,80,2|6,1:0|1:0,2:0:0:0:
246,110,305668,1,2,1:0:0:0:
320,82,305953,1,4,2:1:0:0:
455,167,306525,2,2,P|451:299|457:357,1,160,14|4,1:0|1:0,2:1:0:0:
381,363,307382,1,2,1:0:0:0:
308,328,307668,6,0,P|311:285|308:224,1,80,6|2,1:0|1:0,2:0:0:0:
314,168,308239,1,4,2:1:0:0:
156,194,308811,2,2,P|156:300|150:372,1,160,14|4,1:0|1:0,2:1:0:0:
74,374,309668,1,2,1:0:0:0:
12,323,309953,1,6,1:0:0:0:
14,162,310525,1,6,2:1:0:0:
153,84,311096,2,0,P|196:88|235:84,1,80,14|4,1:0|2:3,2:0:0:0:
293,137,311668,1,12,1:0:0:0:
449,105,312239,6,2,P|446:219|451:285,1,160,6|6,1:0|2:1,2:1:0:0:
384,312,313096,1,4,2:3:0:0:
311,277,313382,1,14,1:0:0:0:
162,218,313953,1,6,1:0:0:0:
17,286,314525,2,0,P|18:344|15:369,1,80,6|2,1:0|1:0,2:0:0:0:
94,375,315096,1,6,2:1:0:0:
253,356,315668,2,0,P|300:354|365:362,1,80,14|0,1:0|2:0,2:0:0:0:
412,359,316239,1,6,1:0:0:0:
474,308,316525,1,2,1:0:0:0:
472,227,316811,6,2,P|469:141|473:58,1,160,6|6,1:0|2:1,2:1:0:0:
404,24,317668,1,4,2:3:0:0:
334,63,317953,2,0,P|336:127|334:152,1,80,14|0,1:0|2:0,2:0:0:0:
266,184,318525,1,4,1:0:0:0:
193,149,318811,1,2,2:1:0:0:
134,202,319096,1,10,1:0:0:0:
160,277,319382,1,10,1:0:0:0:
319,291,319953,1,10,1:0:0:0:
345,366,320239,1,10,1:0:0:0:
