osu file format v14

[General]
AudioFilename: audio.mp3
AudioLeadIn: 0
PreviewTime: 209301
Countdown: 0
SampleSet: Soft
StackLeniency: 0.4
Mode: 0
LetterboxInBreaks: 0
WidescreenStoryboard: 1

[Editor]
DistanceSpacing: 1
BeatDivisor: 4
GridSize: 32
TimelineZoom: 3.199998

[Metadata]
Title:Southern Constellations & The Boy Who Could Fly
TitleUnicode:Southern Constellations & The Boy Who Could Fly
Artist:Pierce The Veil
ArtistUnicode:Pierce The Veil
Creator:Ruiz Duchamp
Version:Another
Source:
Tags:selfish machines english alternative punk rock post hardcore
BeatmapID:4089099
BeatmapSetID:1867138

[Difficulty]
HPDrainRate:6
CircleSize:4
OverallDifficulty:8
ApproachRate:9
SliderMultiplier:1.4
SliderTickRate:0.5

[Events]
//Background and Video events
0,0,"IJnLGgqk6Uc.jpg",0,0
//Break Periods
2,61948,64234
2,196975,208782
//Storyboard Layer 0 (Background)
//Storyboard Layer 1 (Fail)
//Storyboard Layer 2 (Pass)
//Storyboard Layer 3 (Foreground)
//Storyboard Layer 4 (Overlay)
//Storyboard Sound Samples

[TimingPoints]
1383,571.428571428571,4,2,1,20,1,0
12811,-200,4,2,1,30,0,0
13953,-200,4,2,1,15,0,0
15097,-200,4,2,1,30,0,0
16240,-200,4,2,1,20,0,0
17382,-200,4,2,1,30,0,0
20811,-200,4,2,1,20,0,0
21954,-200,4,2,1,30,0,0
23087,576.923076923077,4,2,1,20,1,0
23087,-200,4,2,1,20,0,0
23663,566.037735849057,4,2,1,20,1,0
24229,576.923076923077,4,2,1,30,1,0
24229,-200,4,2,1,30,0,0
24805,582.52427184466,4,2,1,30,1,0
25387,550.45871559633,4,2,1,30,1,0
25937,-100,4,2,1,20,0,0
26487,588.235294117647,4,2,1,30,1,0
27663,-100,4,2,1,20,0,0
28839,540.540540540541,4,2,1,15,1,0
28839,-200,4,2,1,15,0,0
29109,-100,4,2,1,20,0,0
29379,571.428571428571,4,2,1,20,1,0
29521,-200,4,2,1,30,0,0
29949,-200,4,2,1,20,0,0
31093,571.428571428571,4,2,1,30,1,0
31093,-200,4,2,1,30,0,0
32235,-200,4,2,1,20,0,0
33949,-200,4,2,1,10,0,0
34521,560.747663551402,4,2,1,20,1,0
34521,-200,4,2,1,20,0,0
35642,594.059405940594,4,2,1,30,1,0
36830,-100,4,2,1,20,0,0
37424,521.739130434783,4,2,1,20,1,0
37945,571.428571428571,4,2,1,30,1,0
37945,-200,4,2,1,30,0,0
39659,-100,4,2,1,20,0,0
40230,-200,4,2,1,30,0,0
41372,-200,4,2,1,20,0,0
41945,-200,4,2,1,30,0,0
42516,-200,4,2,1,20,0,0
44230,-200,4,2,1,15,0,0
44802,-200,4,2,1,30,0,0
45944,-200,4,2,1,20,0,0
48230,600,4,2,1,20,1,0
48230,-200,4,2,1,20,0,0
49430,571.428571428571,4,2,1,30,1,0
49430,-100,4,2,1,30,0,0
50572,-100,4,2,1,15,0,0
52858,-100,4,2,1,30,0,0
54001,-200,4,2,1,30,0,0
55144,-200,4,2,2,20,0,0
55715,-200,4,2,1,15,0,0
56287,-200,4,2,1,30,0,0
57430,545.454545454546,4,2,1,30,1,0
58520,571.428571428571,4,2,1,30,1,0
61377,-100,4,2,1,10,0,0
65383,285.714285714286,4,2,1,80,1,0
65383,-80,4,2,1,80,0,0
66525,-80,4,2,1,70,0,0
67668,-90.9090909090909,4,2,1,70,0,0
85954,-100,4,2,1,60,0,0
95097,-100,4,2,1,50,0,0
96240,-100,4,2,1,55,0,0
97383,-100,4,2,1,60,0,0
98525,-100,4,2,1,65,0,0
99668,-133.333333333333,4,2,1,40,0,0
99954,-133.333333333333,4,2,1,45,0,0
100240,-133.333333333333,4,2,1,50,0,0
100525,-133.333333333333,4,2,1,55,0,0
100811,-133.333333333333,4,2,1,60,0,0
101383,-133.333333333333,4,2,1,65,0,0
101954,-133.333333333333,4,2,1,70,0,0
103097,-133.333333333333,4,2,2,70,0,0
103239,-133.333333333333,4,2,1,60,0,0
103668,-133.333333333333,4,2,1,70,0,0
103954,-133.333333333333,4,2,1,80,0,0
104240,571.428571428571,4,2,2,70,1,0
104811,-76.9230769230769,4,2,2,70,0,0
112240,-76.9230769230769,4,2,1,70,0,0
113382,-76.9230769230769,4,2,2,70,0,0
121382,-55.5555555555556,4,2,1,70,0,0
122525,285.714285714286,4,2,1,75,1,0
122525,-90.9090909090909,4,2,1,75,0,0
131667,-100,4,2,1,65,0,0
144810,-100,4,2,0,65,0,0
144953,-100,4,2,1,65,0,0
149953,-100,4,2,1,55,0,0
167667,-100,4,2,2,40,0,0
168240,571.428571428571,4,2,2,70,1,0
168811,-76.9230769230769,4,2,2,70,0,0
176240,-76.9230769230769,4,2,1,70,0,0
177382,-76.9230769230769,4,2,2,70,0,0
186525,-76.9230769230769,4,2,1,70,0,0
187097,-76.9230769230769,4,2,2,40,0,0
191097,285.714285714286,4,2,2,40,1,0
196775,-100,4,2,2,20,0,0
209382,-100,4,2,1,60,0,0
209668,-90.9090909090909,4,2,1,60,0,0
227668,-90.9090909090909,4,2,1,80,0,1
228239,-80,4,2,1,80,0,1
231097,-80,4,2,1,40,0,0
231382,-80,4,2,1,65,0,0
231668,-86.9565217391304,4,2,1,65,0,0
241954,-86.9565217391304,4,2,1,30,0,0
244811,-86.9565217391304,4,2,1,60,0,0
245954,571.428571428571,4,2,2,60,1,0
263096,-50,4,2,2,60,0,0
264239,-76.9230769230769,4,2,1,80,0,0
264810,-76.9230769230769,4,2,1,60,0,0
266525,-50,4,2,1,80,0,0
266810,-50,4,2,1,60,0,0
267382,-50,4,2,1,80,0,0
267667,-50,4,2,1,60,0,0
268239,-50,4,2,1,80,0,0
268524,-50,4,2,1,60,0,0
269954,-50,4,2,1,80,0,0
270096,-50,4,2,11,5,0,0
270239,-50,4,2,1,60,0,0
270525,-50,4,2,1,80,0,0
270667,-50,4,2,11,5,0,0
270811,-50,4,2,1,60,0,0
271096,-50,4,2,1,80,0,0
271238,-50,4,2,11,5,0,0
271382,-50,4,2,1,60,0,0
273382,-50,4,2,1,80,0,0
273667,-50,4,2,1,60,0,0
274239,-50,4,2,1,80,0,0
274524,-50,4,2,1,60,0,0
275096,-50,4,2,1,80,0,0
275381,-50,4,2,1,60,0,0
275668,-90.9090909090909,4,2,1,60,0,0
280239,-90.9090909090909,4,2,1,30,0,0
284239,-90.9090909090909,4,2,1,60,0,0
284811,-90.9090909090909,4,2,2,70,0,0
285382,-76.9230769230769,4,2,2,70,0,0
293953,-76.9230769230769,4,2,2,65,0,0
301953,-76.9230769230769,4,2,1,65,0,0
303096,-76.9230769230769,4,2,2,60,0,0
311096,-76.9230769230769,4,2,1,60,0,0
311668,-62.5,4,2,1,60,0,0
312239,-62.5,4,2,2,55,0,0
312525,-76.9230769230769,4,2,2,55,0,0
319096,-76.9230769230769,4,2,2,70,0,0

[Colours]
Combo1 : 250,147,107
Combo2 : 179,227,227
Combo3 : 255,196,155
Combo4 : 173,199,231

[HitObjects]
35,367,12668,5,0,2:0:0:0:
35,367,12740,1,0,2:0:0:0:
35,367,12811,2,0,P|38:302|32:218,1,140,2|0,2:0|2:0,2:0:0:0:
33,227,14852,1,2,2:1:0:0:
97,185,15097,2,0,P|134:192|215:190,1,105,2|0,2:0|2:0,2:0:0:0:
266,236,16240,2,0,L|315:233,2,35,2|0|2,2:0|2:0|2:0,2:0:0:0:
221,299,17382,1,2,2:0:0:0:
221,299,20240,1,2,2:0:0:0:
266,236,20811,1,0,2:0:0:0:
201,192,21382,1,0,2:0:0:0:
254,135,21954,6,0,P|321:153|361:153,1,105,2|0,2:0|2:0,2:0:0:0:
427,123,23087,2,0,P|423:85|426:37,1,70,0|0,2:0|2:0,2:0:0:0:
271,4,24229,2,0,P|199:25|129:22,1,140.606666666667,2|0,2:0|2:0,2:0:0:0:
94,91,25937,1,0,2:0:0:0:
139,154,26487,1,2,2:0:0:0:
139,154,27663,1,0,2:0:0:0:
139,154,28839,2,0,P|137:179|140:204,1,35,0|0,2:0|2:0,2:0:0:0:
192,250,29379,1,2,2:1:0:0:
192,250,29521,2,0,P|228:248|259:254,1,52.5,2|0,2:0|2:0,2:0:0:0:
307,294,30521,1,0,2:0:0:0:
420,222,31093,6,0,P|425:189|428:152,2,70,2|0|0,2:0|2:0|2:0,2:0:0:0:
420,222,32807,1,0,2:0:0:0:
305,162,33378,2,0,P|299:129|297:92,1,70,2|0,2:0|2:0,2:0:0:0:
211,42,34521,2,0,P|208:76|203:111,1,70,2|0,2:0|2:0,2:0:0:0:
138,189,35642,1,2,2:0:0:0:
138,189,36830,1,0,2:0:0:0:
93,252,37424,1,0,2:0:0:0:
141,315,37945,2,0,P|186:313|225:320,1,70,2|0,2:0|2:0,2:0:0:0:
302,278,39087,1,0,2:0:0:0:
361,354,39659,1,0,2:0:0:0:
449,313,40230,6,0,P|449:237|459:169,1,140,2|0,2:0|2:0,2:0:0:0:
417,84,41945,1,0,2:0:0:0:
324,112,42516,2,0,P|289:114|252:112,1,70,2|0,2:0|2:0,2:0:0:0:
191,67,43659,1,2,2:0:0:0:
136,126,44230,1,0,2:0:0:0:
42,85,44802,2,0,P|33:177|37:238,1,140,2|0,2:0|2:0,2:0:0:0:
106,292,46516,1,0,2:0:0:0:
177,257,47087,1,2,2:0:0:0:
177,257,48230,1,2,2:0:0:0:
249,298,48680,1,0,2:0:0:0:
249,298,48830,2,0,L|306:292,1,52.5,0|0,2:0|2:0,2:0:0:0:
358,242,49430,5,2,2:0:0:0:
458,158,50572,1,0,2:0:0:0:
371,60,51715,1,0,2:0:0:0:
271,144,52858,1,2,2:0:0:0:
271,144,54001,2,2,P|169:135|130:115,1,140,2|0,2:0|2:0,2:1:0:0:
137,119,55715,1,0,2:0:0:0:
69,163,56287,2,2,P|73:251|69:306,1,140,0|0,2:0|2:0,2:1:0:0:
129,356,57975,1,0,2:0:0:0:
200,329,58520,1,2,2:0:0:0:
256,192,58662,12,2,61377,2:0:0:0:
256,192,65383,6,0,P|260:149|255:77,1,87.5,6|10,1:0|1:0,2:0:0:0:
387,65,65668,1,4,2:3:0:0:
387,65,65740,1,4,2:3:0:0:
387,65,65811,2,0,P|383:108|388:180,1,87.5,10|4,1:0|2:3,2:0:0:0:
349,242,66097,1,10,1:0:0:0:
378,314,66240,1,4,1:3:0:0:
378,314,66525,6,0,P|376:345|379:365,3,43.75,14|8|8|8,1:0|2:1|2:1|2:1,2:0:0:0:
278,383,66811,2,0,P|280:352|277:332,3,43.75,8|8|4|8,1:0|2:3|2:3|2:3,2:0:0:0:
189,293,67097,2,0,P|187:324|190:344,3,43.75,14|8|8|8,1:0|2:1|2:1|2:1,2:0:0:0:
97,372,67383,1,8,1:0:0:0:
97,372,67454,1,8,2:1:0:0:
97,372,67525,1,8,2:1:0:0:
97,372,67597,1,8,2:1:0:0:
97,372,67668,6,2,P|88:280|96:187,1,154,6|4,1:0|2:3,2:1:0:0:
170,158,68097,1,8,1:0:0:0:
242,193,68240,2,0,P|287:197|331:191,1,77,6|8,1:0|1:0,2:0:0:0:
400,141,68525,1,4,2:3:0:0:
400,141,68668,1,8,1:0:0:0:
309,43,68811,6,2,P|220:51|142:40,1,154,6|4,1:0|2:3,2:1:0:0:
50,127,69240,1,8,1:0:0:0:
95,222,69383,1,4,2:3:0:0:
95,222,69525,1,8,1:0:0:0:
37,316,69668,2,0,P|92:315|130:320,1,77,2|8,1:0|1:0,2:0:0:0:
237,361,69954,6,2,P|298:366|393:312,1,154,6|4,1:0|2:3,2:1:0:0:
403,304,70311,1,4,2:3:0:0:
403,304,70383,1,8,1:0:0:0:
336,215,70525,2,2,P|275:220|180:166,1,154,6|4,1:0|2:3,2:1:0:0:
170,158,70883,1,4,2:3:0:0:
170,158,70954,1,8,1:0:0:0:
248,98,71097,2,0,P|291:103|346:94,1,77,6|8,1:0|1:0,2:0:0:0:
418,0,71383,2,0,P|375:5|320:-4,1,77,2|8,1:0|1:0,2:0:0:0:
184,40,71668,1,2,1:0:0:0:
184,40,71811,1,8,1:0:0:0:
61,0,71954,1,2,1:0:0:0:
61,0,72097,1,8,1:0:0:0:
3,119,72240,6,2,P|8:222|1:275,1,154,6|2,1:0|1:0,2:1:0:0:
125,226,72668,1,8,1:0:0:0:
210,269,72811,2,0,P|207:329|210:356,1,77,2|8,1:0|1:0,2:0:0:0:
290,382,73097,1,2,1:0:0:0:
290,382,73168,1,4,2:3:0:0:
290,382,73240,1,8,1:0:0:0:
136,368,73383,5,6,1:0:0:0:
380,279,73668,1,6,1:0:0:0:
380,279,73954,1,6,1:0:0:0:
380,279,74240,1,6,1:0:0:0:
257,177,74525,6,2,P|194:175|113:130,1,154,6|4,1:0|2:3,2:1:0:0:
98,102,74883,1,4,2:3:0:0:
98,102,74954,1,8,1:0:0:0:
179,46,75097,1,4,2:3:0:0:
242,92,75240,2,0,P|286:97|330:92,2,77,8|4|8,1:0|2:3|1:0,2:0:0:0:
397,40,75668,6,0,L|439:35,3,38.5,14|8|8|8,1:0|2:1|2:1|2:1,2:0:0:0:
511,107,75954,2,0,L|469:102,3,38.5,8|8|4|8,1:0|2:3|2:3|2:3,2:0:0:0:
404,178,76240,2,0,L|446:173,3,38.5,14|8|8|8,1:0|2:1|2:1|2:1,2:0:0:0:
512,271,76525,1,8,1:0:0:0:
512,271,76597,1,4,2:3:0:0:
512,271,76668,1,8,2:3:0:0:
512,271,76740,1,4,2:3:0:0:
512,271,76811,6,2,P|441:264|357:274,1,154,6|4,1:0|2:3,2:1:0:0:
257,373,77240,2,0,P|218:369|162:377,1,77,8|4,1:0|2:3,2:0:0:0:
127,217,77525,2,0,P|166:221|222:213,1,77,8|4,1:0|2:3,2:0:0:0:
241,213,77740,1,4,2:3:0:0:
241,213,77811,1,8,1:0:0:0:
166,97,77954,6,2,P|237:104|321:94,1,154,6|4,1:0|2:3,2:1:0:0:
391,25,78383,1,8,1:0:0:0:
456,68,78525,2,0,P|454:120|457:160,1,77,2|8,1:0|1:0,2:0:0:0:
327,257,78811,2,0,P|329:205|326:165,1,77,2|8,1:0|1:0,2:0:0:0:
511,271,79097,6,2,P|466:307|364:318,1,154,6|4,1:0|2:3,2:1:0:0:
257,373,79525,2,0,P|218:369|162:377,1,77,10|4,1:0|2:3,2:0:0:0:
127,217,79811,2,0,P|166:221|222:213,1,77,10|4,1:0|2:3,2:0:0:0:
86,98,80097,1,8,1:0:0:0:
166,97,80240,2,2,P|243:87|310:37,1,154,6|4,1:0|2:3,2:1:0:0:
325,20,80597,1,4,2:3:0:0:
325,20,80668,1,8,1:0:0:0:
413,63,80811,6,0,P|411:120|419:166,1,77,2|8,1:0|1:0,2:0:0:0:
491,199,81097,2,0,P|488:231|490:247,2,38.5,4|4|8,2:3|2:3|1:0,2:0:0:0:
373,320,81383,2,0,P|375:263|367:217,1,77,6|8,1:0|1:0,2:0:0:0:
281,200,81668,2,0,P|284:168|282:152,2,38.5,4|4|8,2:3|2:3|1:0,2:0:0:0:
199,259,81954,1,2,1:0:0:0:
117,211,82097,1,8,1:0:0:0:
51,254,82240,2,0,P|54:286|52:302,2,38.5,4|4|8,2:3|2:3|1:0,2:0:0:0:
0,195,82525,5,6,1:0:0:0:
185,14,82811,1,4,1:3:0:0:
185,14,83097,1,6,1:0:0:0:
185,14,83383,1,8,1:0:0:0:
265,67,83668,6,2,P|259:242|268:383,1,308,6|4,1:0|2:3,2:1:0:0:
382,310,84383,1,8,1:0:0:0:
458,356,84525,1,4,2:3:0:0:
458,356,84597,1,4,2:3:0:0:
458,356,84668,1,8,1:0:0:0:
510,295,84811,2,2,P|517:228|514:134,1,154,2|2,1:3|1:0,2:1:0:0:
331,24,85383,1,4,2:3:0:0:
331,24,85454,1,8,2:3:0:0:
331,24,85525,1,4,2:3:0:0:
265,67,85668,2,0,P|267:119|263:157,1,77,2|8,1:0|1:0,2:0:0:0:
200,191,85954,6,2,P|130:189|59:158,1,140,6|4,1:0|2:3,2:1:0:0:
31,291,86383,1,8,1:0:0:0:
87,347,86525,2,0,P|131:345|172:351,1,70,2|8,1:0|1:0,2:0:0:0:
246,314,86811,1,4,2:3:0:0:
246,314,86954,1,8,1:0:0:0:
322,372,87097,6,2,P|392:374|463:354,1,140,2|4,1:0|2:3,2:1:0:0:
379,258,87525,1,8,1:0:0:0:
441,211,87668,2,0,P|485:213|526:207,1,70,2|8,1:0|1:0,2:0:0:0:
420,113,87954,1,4,2:3:0:0:
354,154,88097,1,8,1:0:0:0:
284,84,88240,6,2,P|214:86|143:66,1,140,2|4,1:0|2:3,2:1:0:0:
80,141,88668,1,8,1:0:0:0:
135,198,88811,2,0,P|133:250|136:290,1,70,4|8,2:3|1:0,2:0:0:0:
61,350,89097,2,0,P|43:348|26:349,2,35,2|0|8,1:0|2:0|1:0,2:0:0:0:
147,384,89383,5,2,1:0:0:0:
147,384,89525,1,8,1:0:0:0:
229,282,89668,1,2,1:0:0:0:
229,282,89811,1,8,1:0:0:0:
157,172,89954,1,2,1:0:0:0:
157,172,90097,1,8,1:0:0:0:
30,206,90240,1,4,2:3:0:0:
30,206,90383,1,8,1:0:0:0:
12,72,90525,6,2,P|117:78|178:68,1,140,2|4,1:0|2:3,2:1:0:0:
233,21,90954,1,8,1:0:0:0:
302,52,91097,2,0,P|349:55|398:46,1,70,2|8,1:0|1:0,2:0:0:0:
439,92,91383,2,0,P|468:91|485:93,2,35,4|4|8,2:3|2:3|1:0,2:0:0:0:
373,164,91668,6,2,P|368:241|379:323,1,140,2|4,1:0|2:3,2:1:0:0:
263,371,92097,1,8,1:0:0:0:
199,326,92240,2,0,P|201:292|200:253,1,70,2|8,1:0|1:0,2:0:0:0:
257,202,92525,2,0,P|286:203|303:201,2,35,4|4|8,2:3|2:3|1:0,2:0:0:0:
96,263,92811,6,2,P|94:206|65:110,1,140,2|4,1:0|2:3,2:1:0:0:
150,21,93240,1,8,1:0:0:0:
214,69,93383,2,0,P|211:134|215:166,1,70,2|8,1:0|1:0,2:0:0:0:
323,68,93668,2,0,P|324:39|322:22,2,35,4|4|8,2:3|2:3|1:0,2:0:0:0:
439,92,93954,6,0,L|457:188,1,70,6|8,1:0|2:1,2:0:0:0:
464,200,94168,1,8,2:1:0:0:
464,200,94240,2,0,L|446:296,1,70,8|4,1:0|2:3,2:0:0:0:
423,366,94525,1,8,2:3:0:0:
351,302,94668,1,4,2:3:0:0:
277,371,94811,1,8,1:0:0:0:
277,371,94954,1,8,1:0:0:0:
202,304,95097,6,0,P|214:210|212:146,2,140,6|10|4,1:0|1:0|2:3,2:0:0:0:
94,242,95811,1,8,2:3:0:0:
122,170,95954,2,0,P|126:129|122:90,1,70,10|0,1:0|2:0,2:0:0:0:
204,32,96240,5,4,2:3:0:0:
204,32,96383,1,8,2:3:0:0:
290,82,96525,2,0,P|286:123|290:162,1,70,10|0,1:0|2:0,2:0:0:0:
391,235,96811,1,4,2:3:0:0:
391,235,96954,1,8,2:3:0:0:
351,302,97097,2,0,P|347:343|351:382,1,70,10|0,1:0|2:0,2:0:0:0:
202,304,97383,6,0,P|214:210|212:146,2,140,4|10|4,2:3|1:0|2:3,2:0:0:0:
94,242,98097,1,8,2:3:0:0:
122,170,98240,2,0,P|126:129|122:90,1,70,10|0,1:0|2:0,2:0:0:0:
204,32,98525,5,4,2:3:0:0:
204,32,98668,1,8,2:3:0:0:
290,82,98811,2,0,P|286:123|290:162,1,70,10|0,1:0|2:0,2:0:0:0:
391,235,99097,1,4,2:3:0:0:
391,235,99240,1,8,2:3:0:0:
462,202,99383,2,0,P|469:160|464:88,1,105,10|0,1:0|2:0,2:0:0:0:
435,79,99668,6,0,P|404:84|379:81,1,52.5000000000001,4|0,1:3|3:0,2:0:0:0:
327,0,99954,2,0,P|296:5|271:2,1,52.5000000000001,8|0,1:3|3:0,2:0:0:0:
204,32,100240,1,4,1:3:0:0:
204,32,100383,1,0,3:0:0:0:
125,90,100525,2,0,P|94:85|69:88,1,52.5000000000001,8|0,2:3|3:0,2:0:0:0:
18,145,100811,5,4,1:3:0:0:
18,145,100954,1,4,2:3:0:0:
91,207,101097,2,0,P|117:205|142:209,1,52.5000000000001,4|4,1:3|2:3,2:0:0:0:
198,265,101383,1,4,1:3:0:0:
77,378,101668,1,4,1:3:0:0:
6,232,101954,1,2,1:3:0:0:
6,232,103097,6,0,L|11:198,3,26.2500000000001,10|0|4|8,1:0|2:0|2:3|2:3,2:0:0:0:
83,172,103383,2,0,L|77:126,3,26.2500000000001,4|8|4|8,2:3|2:3|2:3|2:3,2:0:0:0:
140,93,103668,2,0,L|123:56,3,26.2500000000001,2|8|4|8,1:0|2:3|2:3|2:3,2:0:0:0:
172,4,103954,1,12,1:0:0:0:
172,4,104240,5,6,1:0:0:0:
243,38,104382,1,4,2:3:0:0:
316,15,104525,1,2,1:0:0:0:
316,15,104811,2,2,P|316:78|311:123,1,91,6|4,2:1|2:3,2:1:0:0:
354,176,105240,1,4,2:3:0:0:
354,176,105382,1,14,1:0:0:0:
200,234,105954,2,0,L|197:189,1,45.5,6|4,1:0|2:3,2:0:0:0:
151,125,106240,1,2,1:0:0:0:
46,246,106525,5,6,1:0:0:0:
83,314,106668,1,4,2:3:0:0:
61,384,106811,1,2,1:0:0:0:
61,384,107097,2,0,P|116:382|164:386,1,91,4|2,2:1|1:0,2:0:0:0:
224,350,107525,1,4,2:3:0:0:
224,350,107668,1,14,1:0:0:0:
354,384,107954,1,0,1:0:0:0:
354,384,108097,1,2,2:1:0:0:
357,256,108382,1,0,1:0:0:0:
357,256,108525,1,2,1:0:0:0:
484,293,108811,6,2,P|495:231|496:96,1,182,6|6,1:0|2:1,2:1:0:0:
415,55,109668,1,2,1:0:0:0:
343,86,109811,1,4,2:3:0:0:
272,57,109954,2,0,P|228:60|176:55,1,91,14|2,1:0|1:0,2:0:0:0:
102,121,110525,2,0,L|51:124,1,45.5,6|4,1:0|2:3,2:0:0:0:
2,178,110811,1,2,1:0:0:0:
62,256,111097,6,0,P|106:253|158:258,1,91,6|2,1:0|1:0,2:0:0:0:
226,327,111668,1,6,2:1:0:0:
325,317,111954,1,4,2:3:0:0:
396,348,112097,1,4,2:3:0:0:
468,320,112240,2,0,L|477:257,1,45.5,14|8,1:0|2:1,2:0:0:0:
483,247,112454,1,8,2:1:0:0:
483,247,112525,1,8,1:0:0:0:
491,169,112668,1,4,2:3:0:0:
420,134,112811,1,8,2:3:0:0:
354,172,112954,1,4,2:3:0:0:
285,139,113097,1,14,1:0:0:0:
285,139,113382,6,2,P|215:149|100:136,1,182,6|6,1:0|2:1,2:1:0:0:
54,225,114239,1,2,1:0:0:0:
54,225,114382,1,4,2:3:0:0:
54,225,114525,1,14,1:0:0:0:
122,342,114811,1,4,2:3:0:0:
122,342,114954,1,2,2:1:0:0:
236,270,115239,1,4,2:3:0:0:
236,270,115382,1,2,1:0:0:0:
310,329,115668,5,6,1:0:0:0:
383,298,115811,1,4,2:3:0:0:
452,333,115954,2,0,P|467:293|474:237,1,91,2|6,1:0|2:1,2:0:0:0:
414,166,116525,1,4,2:3:0:0:
414,166,116668,1,4,2:3:0:0:
414,166,116811,1,14,1:0:0:0:
507,70,117097,1,4,2:3:0:0:
507,70,117239,1,2,2:1:0:0:
389,17,117525,1,4,2:3:0:0:
389,17,117668,1,2,1:0:0:0:
298,110,117954,5,6,1:0:0:0:
226,78,118097,1,4,2:3:0:0:
155,107,118239,1,2,1:0:0:0:
63,68,118525,1,6,2:1:0:0:
15,157,118811,1,4,2:3:0:0:
15,157,118954,1,4,2:3:0:0:
15,157,119097,2,0,P|18:240|14:305,2,136.5,14|2|2,1:0|2:1|1:0,2:0:0:0:
126,230,120239,1,6,1:0:0:0:
126,230,121382,6,0,P|156:229|171:232,3,31.5,14|8|8|8,1:0|2:1|2:1|2:1,2:0:0:0:
230,205,121668,2,0,P|260:204|275:207,3,31.5,8|8|4|8,1:0|2:3|2:3|2:3,2:0:0:0:
311,267,121954,2,0,P|341:266|356:269,3,31.5,14|8|8|8,1:0|2:1|2:1|2:1,2:0:0:0:
433,264,122239,1,8,2:1:0:0:
433,264,122311,1,4,2:3:0:0:
433,264,122382,1,8,2:3:0:0:
433,264,122454,1,4,2:3:0:0:
433,264,122525,6,2,P|458:206|478:39,1,231,6|10,1:0|1:0,2:1:0:0:
389,0,123096,1,2,1:0:0:0:
298,33,123239,1,10,1:0:0:0:
298,33,123382,2,0,P|255:37|207:34,1,77,2|10,1:0|1:0,2:0:0:0:
121,117,123667,6,2,P|56:129|3:166,2,115.5,6|2|10,1:0|1:0|1:0,2:1:0:0:
198,176,124239,1,2,1:0:0:0:
274,117,124382,1,10,1:0:0:0:
347,167,124525,1,4,2:3:0:0:
347,167,124596,1,4,2:3:0:0:
347,167,124667,1,10,1:0:0:0:
283,281,124810,1,2,1:0:0:0:
213,251,124953,2,2,P|156:258|54:253,1,154,14|8,1:0|1:0,2:1:0:0:
29,359,125382,5,2,1:0:0:0:
156,390,125596,5,2,1:0:0:0:
282,359,125810,5,10,1:0:0:0:
375,383,125953,5,6,1:0:0:0:
375,383,126096,2,2,P|385:345|389:278,1,77,10|4,1:0|2:3,2:1:0:0:
326,194,126382,1,10,1:0:0:0:
213,251,126525,2,0,P|203:289|199:356,2,77,2|10|2,1:0|1:0|1:0,2:0:0:0:
159,167,126953,1,8,1:0:0:0:
38,235,127096,6,2,P|48:151|44:4,1,231,6|10,1:0|1:0,2:1:0:0:
160,68,127667,1,2,1:0:0:0:
247,26,127810,1,8,1:0:0:0:
247,26,127953,2,0,P|292:30|333:24,1,77,2|8,1:0|1:0,2:0:0:0:
406,76,128239,5,6,1:0:0:0:
213,251,128525,1,6,1:0:0:0:
213,251,128810,1,6,1:0:0:0:
213,251,129096,1,14,1:0:0:0:
313,336,129382,5,6,1:0:0:0:
313,336,129453,1,0,1:0:0:0:
313,336,129525,1,10,1:0:0:0:
394,281,129667,1,2,1:0:0:0:
394,281,129739,1,4,2:3:0:0:
394,281,129810,1,10,1:0:0:0:
461,350,129953,1,2,1:0:0:0:
509,289,130096,2,0,P|507:248|509:203,1,77,10|8,1:0|1:3,2:0:0:0:
510,182,130310,1,4,1:3:0:0:
510,182,130382,1,4,2:3:0:0:
436,123,130525,5,8,1:3:0:0:
311,232,130810,1,10,1:3:0:0:
272,72,131096,1,4,2:3:0:0:
272,72,131167,1,8,2:3:0:0:
272,72,131239,1,4,2:3:0:0:
197,138,131382,1,4,2:3:0:0:
110,95,131525,1,8,1:0:0:0:
41,138,131667,6,2,P|46:238|37:358,1,210,6|8,1:0|1:0,2:1:0:0:
168,384,132239,2,0,P|166:356|169:297,1,70,2|8,1:0|1:0,2:0:0:0:
294,260,132525,1,4,2:3:0:0:
294,260,132596,1,4,2:3:0:0:
294,260,132667,2,2,P|296:316|293:357,1,70,10|0,1:0|2:0,2:1:0:0:
381,381,132953,1,8,1:0:0:0:
454,349,133096,6,0,L|463:278,1,70,2|8,1:0|1:0,2:0:0:0:
369,141,133382,2,0,L|360:210,1,70,2|8,1:0|1:0,2:0:0:0:
239,168,133667,1,2,1:0:0:0:
149,215,133810,2,2,L|131:65,1,140,8|10,1:0|1:0,2:1:0:0:
205,13,134239,1,4,2:3:0:0:
275,50,134382,2,0,P|314:53|352:50,1,70,10|4,1:0|2:3,2:0:0:0:
439,140,134667,6,0,P|400:143|362:140,1,70,10|4,1:0|2:3,2:0:0:0:
347,168,134882,1,4,2:3:0:0:
347,168,134953,1,10,1:0:0:0:
416,284,135096,2,0,P|377:281|339:284,1,70,2|8,1:0|1:0,2:0:0:0:
235,352,135382,1,4,2:3:0:0:
235,352,135453,1,4,2:3:0:0:
235,352,135525,2,2,P|164:348|100:308,1,140,10|8,1:0|1:0,2:1:0:0:
156,228,135953,2,0,L|192:230,2,35,4|4|8,2:3|2:3|1:0,2:0:0:0:
101,171,136239,2,0,L|12:186,1,70,4|8,2:3|1:0,2:0:0:0:
101,71,136525,2,0,L|137:73,2,35,4|4|8,2:3|2:3|1:0,2:0:0:0:
223,118,136810,6,2,L|361:94,1,140,2|2,1:0|1:0,2:1:0:0:
438,151,137239,1,8,1:0:0:0:
409,225,137382,1,2,1:0:0:0:
483,333,137525,2,2,L|398:327,1,70,10|0,1:0|2:0,2:1:0:0:
387,354,137739,1,4,2:3:0:0:
387,354,137810,2,0,L|306:372,2,70,10|2|10,1:0|1:0|1:0,2:0:0:0:
483,333,138239,1,4,2:3:0:0:
331,274,138382,6,2,P|259:282|187:274,1,140,10|10,1:0|1:0,2:1:0:0:
69,326,138810,1,4,2:3:0:0:
69,326,138882,1,4,2:3:0:0:
69,326,138953,2,2,P|71:284|69:256,1,70,10|4,1:0|2:3,2:1:0:0:
222,198,139239,2,0,P|220:156|222:128,1,70,10|4,1:0|2:3,2:0:0:0:
203,106,139453,1,4,2:3:0:0:
203,106,139525,1,8,1:0:0:0:
136,40,139667,5,6,2:3:0:0:
22,155,139953,2,0,L|32:202,3,35,8|8|8|8,2:1|2:1|2:1|2:1,2:0:0:0:
69,256,140239,2,0,L|59:303,3,35,8|8|4|8,2:1|2:3|2:3|2:3,2:0:0:0:
31,370,140525,1,4,2:3:0:0:
31,370,140596,1,8,2:1:0:0:
31,370,140667,1,8,2:1:0:0:
31,370,140739,1,8,2:1:0:0:
31,370,140810,6,2,P|132:368|244:376,1,210,6|8,1:0|1:0,2:1:0:0:
324,325,141382,1,4,2:3:0:0:
410,362,141525,2,0,P|449:359|509:371,1,70,8|4,1:0|2:3,2:0:0:0:
377,239,141810,1,10,1:0:0:0:
430,179,141953,2,0,P|469:182|529:170,1,70,2|8,1:0|1:0,2:0:0:0:
417,80,142239,1,4,2:3:0:0:
417,80,142310,1,4,2:3:0:0:
417,80,142382,2,2,P|367:79|279:42,1,140,10|10,1:0|1:0,2:1:0:0:
203,103,142810,1,0,2:3:0:0:
119,60,142953,5,10,1:0:0:0:
58,107,143096,1,2,1:0:0:0:
111,189,143239,2,0,P|152:188|185:191,1,70,10|4,1:0|2:3,2:0:0:0:
213,218,143453,1,4,2:3:0:0:
213,218,143525,1,8,1:0:0:0:
90,326,143667,2,2,P|140:327|228:364,1,140,2|2,1:0|1:0,2:1:0:0:
306,310,144096,5,8,1:0:0:0:
352,376,144239,1,2,1:0:0:0:
428,320,144382,2,2,P|437:258|437:177,1,140,8|10,1:0|1:0,2:1:0:0:
417,103,144810,1,6,2:3:0:0:
297,158,144953,2,2,P|295:123|295:83,1,70,10|4,1:0|2:3,2:1:0:0:
344,4,145239,1,10,1:0:0:0:
417,25,145382,1,2,1:0:0:0:
221,48,145525,6,2,P|159:49|84:24,1,140,10|8,1:0|1:0,2:1:0:0:
23,103,145953,1,4,2:3:0:0:
69,167,146096,2,0,P|111:165|149:169,1,70,8|4,1:0|2:3,2:0:0:0:
162,193,146310,1,4,2:3:0:0:
162,193,146382,1,10,1:0:0:0:
33,290,146525,2,2,P|81:295|169:343,1,140,2|4,1:0|2:3,2:1:0:0:
185,364,146882,1,4,2:3:0:0:
185,364,146953,2,2,P|227:361|265:365,1,70,10|4,1:0|2:3,2:1:0:0:
398,230,147239,2,2,P|350:235|262:283,1,140,10|10,1:0|1:0,2:1:0:0:
397,373,147667,6,0,P|422:371|447:378,3,35,14|8|8|8,1:0|2:1|2:1|2:1,2:0:0:0:
472,306,147953,2,0,P|500:306|521:310,3,35,8|8|4|8,1:0|2:3|2:3|2:3,2:0:0:0:
398,230,148239,1,12,1:0:0:0:
391,217,148310,1,8,2:1:0:0:
389,202,148382,1,8,2:1:0:0:
392,188,148453,1,8,2:1:0:0:
401,177,148525,1,8,1:0:0:0:
406,164,148596,1,4,2:3:0:0:
406,150,148667,1,8,2:3:0:0:
401,136,148739,1,4,2:3:0:0:
391,126,148810,6,0,P|388:107|390:84,7,35,12|8|8|8|8|8|8|8,1:0|2:1|2:1|2:1|1:0|2:1|2:1|2:1,2:0:0:0:
297,44,149382,2,0,P|300:63|298:86,3,35,8|4|8|4,2:3|2:3|2:3|2:3,2:0:0:0:
212,131,149667,2,0,P|209:112|211:89,3,35,8|4|8|4,2:3|2:3|2:3|2:3,2:0:0:0:
107,68,149953,5,6,1:0:0:0:
107,68,150096,2,2,P|109:144|104:217,1,140,8|8,1:0|1:0,2:1:0:0:
178,316,150525,2,0,P|218:316|262:328,1,70,4|8,2:3|1:0,2:0:0:0:
331,277,150810,2,0,L|374:274,2,35,2|4|8,1:0|2:3|1:0,2:0:0:0:
455,323,151096,6,2,P|468:257|470:173,1,140,2|4,1:0|2:3,2:1:0:0:
467,155,151453,1,4,2:3:0:0:
467,155,151525,1,8,1:0:0:0:
373,187,151667,1,4,2:3:0:0:
309,141,151810,2,0,P|315:99|313:59,1,70,8|4,1:0|2:3,2:0:0:0:
313,42,152025,1,4,2:3:0:0:
313,42,152096,1,8,1:0:0:0:
198,103,152239,6,2,P|142:96|47:105,1,140,6|4,1:0|2:3,2:1:0:0:
31,124,152596,1,4,2:3:0:0:
31,124,152667,1,8,1:0:0:0:
96,232,152810,1,4,2:3:0:0:
192,206,152953,2,0,P|191:257|193:278,1,70,8|4,1:0|2:3,2:0:0:0:
202,313,153167,1,4,2:3:0:0:
202,313,153239,1,8,1:0:0:0:
281,365,153382,6,2,P|335:361|432:370,1,140,2|4,1:0|2:3,2:1:0:0:
490,293,153810,2,0,P|494:256|489:205,1,70,10|4,1:0|2:3,2:0:0:0:
315,136,154096,2,2,P|311:200|336:284,1,140,10|8,1:0|1:0,2:1:0:0:
456,149,154525,6,2,P|459:90|451:8,1,140,6|4,1:0|2:3,2:1:0:0:
325,47,154953,2,2,P|264:52|176:29,1,140,10|8,1:0|1:0,2:1:0:0:
119,105,155382,1,2,1:0:0:0:
119,105,155453,1,4,2:3:0:0:
119,105,155525,1,8,1:0:0:0:
199,222,155667,6,0,P|162:218|103:225,1,70,2|8,1:0|1:0,2:0:0:0:
56,335,155953,1,4,2:3:0:0:
56,335,156025,1,4,2:3:0:0:
56,335,156096,2,2,P|144:360|197:359,1,140,10|8,1:0|1:0,2:1:0:0:
275,306,156525,2,0,P|322:308|364:305,1,70,4|8,2:3|1:0,2:0:0:0:
458,227,156810,6,2,P|474:172|480:81,1,140,6|8,1:0|2:3,2:1:0:0:
477,60,157167,1,4,2:3:0:0:
477,60,157239,1,8,1:0:0:0:
355,12,157382,2,0,P|354:74|360:109,2,70,2|8|4,1:0|1:0|2:3,2:0:0:0:
240,125,157810,1,8,1:0:0:0:
156,72,157953,6,2,P|79:77|11:65,1,140,6|4,1:0|2:3,2:1:0:0:
1,99,158310,1,0,2:0:0:0:
1,99,158382,2,0,P|2:128|1:143,1,35,8|4,2:3|2:3,2:0:0:0:
57,216,158525,1,8,1:0:0:0:
57,216,158596,1,8,2:1:0:0:
57,216,158667,1,8,2:1:0:0:
57,216,158739,1,8,2:1:0:0:
57,216,158810,2,0,P|56:248|58:266,3,35,8|4|8|4,2:3|2:3|2:3|2:3,2:0:0:0:
121,298,159096,6,2,B|231:278|216:368|312:385,1,210,6|8,1:0|1:0,2:1:0:0:
391,332,159667,1,4,2:3:0:0:
489,368,159810,2,0,P|486:337|490:279,1,70,8|4,1:0|2:3,2:0:0:0:
468,271,160025,1,4,2:3:0:0:
468,271,160096,1,8,1:0:0:0:
306,293,160239,6,2,P|315:228|315:154,1,140,2|4,1:0|2:3,2:1:0:0:
312,123,160596,1,4,2:3:0:0:
312,123,160667,1,10,1:0:0:0:
193,176,160810,1,4,2:3:0:0:
131,103,160953,2,0,P|135:65|136:32,1,70,10|4,1:0|2:3,2:0:0:0:
163,9,161167,1,4,2:3:0:0:
163,9,161239,1,8,1:0:0:0:
290,37,161382,6,2,P|357:37|448:-1,1,140,6|4,1:0|2:3,2:1:0:0:
457,0,161739,1,4,2:3:0:0:
457,0,161810,1,8,1:0:0:0:
497,90,161953,2,0,P|494:139|499:174,1,70,2|8,1:0|1:0,2:0:0:0:
411,209,162239,2,0,P|411:235|410:260,2,35,4|4|8,2:3|2:3|1:0,2:0:0:0:
322,168,162525,6,2,P|255:177|175:165,1,140,2|4,1:0|2:3,2:1:0:0:
160,199,162882,1,4,2:3:0:0:
160,199,162953,2,0,P|160:246|157:274,1,70,10|4,1:0|2:3,2:0:0:0:
245,371,163239,2,2,P|300:355|395:360,1,140,10|8,1:0|1:0,2:1:0:0:
475,315,163667,6,0,P|486:277|489:241,1,70,6|8,1:0|1:0,2:0:0:0:
327,273,163953,1,4,2:3:0:0:
327,273,164025,1,4,2:3:0:0:
327,273,164096,2,0,P|320:221|325:150,1,105,10|0,1:0|2:0,2:0:0:0:
328,136,164382,1,8,1:0:0:0:
462,92,164525,2,0,P|481:92|506:88,2,35,4|4|8,2:3|2:3|1:0,2:0:0:0:
345,36,164810,6,2,P|273:45|203:35,1,140,2|4,1:0|2:3,2:1:0:0:
182,65,165167,1,4,2:3:0:0:
182,65,165239,1,10,1:0:0:0:
101,14,165382,1,4,2:3:0:0:
38,60,165525,2,0,P|40:94|36:143,1,70,10|4,1:0|2:3,2:0:0:0:
55,165,165739,1,4,2:3:0:0:
55,165,165810,1,8,1:0:0:0:
31,239,165953,1,6,1:0:0:0:
256,192,166025,12,2,167667,2:0:0:0:
31,239,168240,5,6,1:0:0:0:
97,283,168382,1,4,2:3:0:0:
167,253,168525,1,2,1:0:0:0:
167,253,168811,2,0,P|226:258|261:251,1,91,6|2,2:1|1:0,2:0:0:0:
328,294,169240,1,4,2:3:0:0:
328,294,169382,1,14,1:0:0:0:
440,171,169954,2,0,L|446:112,1,45.5,6|4,1:0|2:3,2:0:0:0:
406,60,170240,1,2,1:0:0:0:
258,128,170525,5,6,1:0:0:0:
186,92,170668,1,4,2:3:0:0:
113,120,170811,1,2,1:0:0:0:
13,86,171097,2,0,P|15:148|9:199,1,91,6|2,2:1|1:0,2:0:0:0:
43,253,171525,1,4,2:3:0:0:
43,253,171668,1,14,1:0:0:0:
0,376,171954,1,4,2:3:0:0:
0,376,172097,1,2,2:1:0:0:
129,339,172382,1,4,2:3:0:0:
129,339,172525,1,2,1:0:0:0:
227,373,172811,6,2,P|267:370|412:380,1,182,6|6,1:0|2:1,2:1:0:0:
473,303,173668,1,2,1:0:0:0:
442,231,173811,1,4,2:3:0:0:
475,163,173954,2,2,P|473:118|475:61,1,91,14|0,1:0|2:0,2:1:0:0:
396,17,174525,1,6,1:0:0:0:
396,17,174668,1,4,2:3:0:0:
255,101,175097,6,0,L|261:160,1,45.5,6|4,1:0|2:3,2:0:0:0:
307,209,175382,1,2,1:0:0:0:
220,309,175668,1,4,2:1:0:0:
137,250,175954,1,2,1:0:0:0:
64,282,176097,1,4,2:3:0:0:
0,243,176240,2,0,L|4:182,1,45.5,14|8,1:0|2:1,2:0:0:0:
10,169,176454,1,8,2:1:0:0:
10,169,176525,1,8,1:0:0:0:
114,93,176811,1,8,2:3:0:0:
186,129,176954,1,4,2:3:0:0:
255,101,177097,1,14,1:0:0:0:
255,101,177382,6,2,P|325:111|440:98,1,182,6|6,1:0|2:1,2:1:0:0:
503,187,178240,1,2,1:0:0:0:
503,187,178382,1,4,2:3:0:0:
503,187,178525,1,14,2:1:0:0:
418,291,178811,1,4,2:3:0:0:
418,291,178954,1,2,2:1:0:0:
312,215,179240,1,4,2:3:0:0:
312,215,179382,1,2,1:0:0:0:
231,279,179668,6,0,P|227:341|219:379,1,91,6|2,1:0|1:0,2:0:0:0:
105,305,180240,1,6,2:1:0:0:
142,186,180525,1,4,2:3:0:0:
111,117,180668,1,4,2:3:0:0:
138,50,180811,1,14,1:0:0:0:
258,113,181097,1,4,2:3:0:0:
258,113,181240,1,2,2:1:0:0:
345,15,181525,1,4,2:3:0:0:
345,15,181668,1,2,1:0:0:0:
423,75,181954,6,2,P|419:188|427:266,1,182,6|6,1:0|2:1,2:1:0:0:
338,350,182811,1,4,2:3:0:0:
270,316,182954,1,4,2:3:0:0:
203,349,183097,1,14,1:0:0:0:
87,289,183382,1,4,2:3:0:0:
87,289,183525,1,2,2:1:0:0:
126,163,183811,1,4,2:3:0:0:
126,163,183954,1,2,1:0:0:0:
224,208,184240,6,0,P|233:167|239:89,1,91,6|2,1:0|1:0,2:0:0:0:
358,48,184811,2,2,P|362:93|372:137,1,91,6|4,2:1|2:3,2:1:0:0:
436,187,185240,1,4,2:3:0:0:
512,166,185382,1,14,1:0:0:0:
512,166,185954,1,4,2:3:0:0:
512,90,186097,1,4,2:3:0:0:
512,90,186525,5,6,1:0:0:0:
358,48,187097,1,2,2:0:0:0:
286,191,187668,1,2,2:0:0:0:
440,233,188240,1,2,2:0:0:0:
512,90,188811,1,2,2:0:0:0:
358,48,189382,1,2,2:0:0:0:
286,191,189954,1,2,2:0:0:0:
440,233,190239,1,8,2:3:0:0:
498,303,190382,1,4,2:3:0:0:
498,303,190454,1,8,2:3:0:0:
498,303,190525,1,4,2:3:0:0:
498,303,190811,1,4,2:3:0:0:
498,303,191097,1,6,1:0:0:0:
256,192,191168,12,4,196775,2:1:0:0:
256,192,209382,5,4,1:0:0:0:
185,156,209525,1,4,2:3:0:0:
134,213,209668,2,0,P|136:264|134:299,1,77,10|0,1:0|2:0,2:0:0:0:
294,361,209954,2,0,P|292:310|294:275,1,77,2|4,1:0|2:3,2:0:0:0:
390,196,210239,1,10,1:0:0:0:
457,237,210382,1,4,2:3:0:0:
512,182,210525,2,0,P|507:145|510:22,2,154,2|10|2,1:0|1:0|2:1,2:0:0:0:
512,182,211382,1,10,1:0:0:0:
364,114,211668,5,2,2:1:0:0:
364,114,211954,1,10,1:0:0:0:
256,192,212239,1,2,2:1:0:0:
256,192,212525,1,10,1:0:0:0:
133,136,212811,2,0,P|134:182|133:226,1,77,2|0,2:1|2:0,2:0:0:0:
68,260,213097,1,8,1:0:0:0:
5,216,213239,1,0,2:0:0:0:
64,340,213382,2,0,P|142:342|216:374,1,154,2|8,2:1|1:0,2:0:0:0:
211,371,213954,5,2,1:0:0:0:
279,329,214097,1,4,2:3:0:0:
351,354,214239,2,0,P|395:353|440:358,1,77,10|0,1:0|2:0,2:0:0:0:
499,238,214525,2,0,P|455:239|410:234,1,77,2|0,2:1|2:0,2:0:0:0:
359,159,214811,1,10,1:0:0:0:
401,93,214954,1,4,2:3:0:0:
275,145,215097,2,0,P|277:102|273:56,1,77,2|0,1:0|2:0,2:0:0:0:
118,23,215382,2,0,P|122:97|158:186,1,154,10|2,1:0|2:1,2:0:0:0:
111,263,215811,1,0,2:0:0:0:
145,353,215954,2,0,P|108:351|68:354,1,77,10|0,1:0|2:0,2:0:0:0:
279,329,216239,5,2,2:1:0:0:
351,354,216382,1,0,2:0:0:0:
423,328,216525,2,0,P|425:291|422:251,1,77,10|0,1:0|2:0,2:0:0:0:
299,143,216811,2,0,P|226:168|149:171,1,154,2|10,2:1|1:0,2:0:0:0:
92,93,217239,1,0,2:0:0:0:
124,24,217382,1,2,2:1:0:0:
124,24,217668,1,8,1:0:0:0:
246,71,217954,1,2,2:1:0:0:
246,71,218239,1,8,1:0:0:0:
367,21,218525,5,2,1:0:0:0:
435,61,218668,1,4,2:3:0:0:
511,38,218811,2,0,P|509:86|514:127,1,77,10|0,1:0|2:0,2:0:0:0:
373,195,219097,2,0,P|375:147|370:106,1,77,2|0,2:1|2:0,2:0:0:0:
246,71,219382,1,10,1:0:0:0:
222,171,219525,1,4,2:3:0:0:
247,248,219668,2,0,P|205:244|161:247,1,77,2|0,1:0|2:0,2:0:0:0:
73,108,219954,2,0,P|115:112|159:109,1,77,10|0,1:0|2:0,2:0:0:0:
246,71,220239,1,2,1:0:0:0:
208,2,220382,1,4,2:3:0:0:
372,118,220525,2,0,P|369:77|372:34,1,77,10|0,1:0|2:0,2:0:0:0:
470,172,220811,5,2,1:0:0:0:
410,252,220954,1,4,2:3:0:0:
431,330,221097,2,0,P|390:327|347:330,1,77,10|0,1:0|2:0,2:0:0:0:
232,379,221382,2,0,P|144:370|86:333,1,154,2|10,2:1|1:0,2:0:0:0:
140,251,221811,1,4,2:3:0:0:
79,177,221954,2,2,P|38:180|-5:176,1,77,2|0,2:1|2:0,2:1:0:0:
149,110,222239,2,0,P|190:113|233:109,1,77,8|0,1:0|2:0,2:0:0:0:
292,190,222525,1,2,1:0:0:0:
292,190,222668,1,4,2:3:0:0:
257,263,222811,1,10,1:0:0:0:
257,263,223097,5,2,1:0:0:0:
314,341,223239,2,0,P|364:339|395:343,1,77,4|10,2:3|1:0,2:0:0:0:
197,326,223525,1,0,2:0:0:0:
124,359,223668,2,0,P|74:357|43:361,1,77,2|2,2:1|2:1,2:0:0:0:
140,251,223954,1,8,1:0:0:0:
69,224,224097,1,2,1:0:0:0:
0,251,224239,2,0,P|-4:209|0:172,1,77,4|2,2:3|2:1,2:0:0:0:
53,93,224525,1,8,1:0:0:0:
194,177,224811,1,2,1:0:0:0:
267,146,224954,1,4,2:3:0:0:
336,173,225097,1,10,1:0:0:0:
336,173,225382,6,0,P|385:171|424:176,1,77,4|4,2:3|2:3,2:0:0:0:
477,130,225668,1,8,1:0:0:0:
339,43,225954,1,0,2:0:0:0:
343,271,226239,1,8,1:0:0:0:
343,271,226382,1,4,2:3:0:0:
491,212,226525,6,0,P|490:240|491:254,3,38.5,8|4|8|4,1:0|2:3|2:3|2:3,2:0:0:0:
437,330,226811,2,0,P|438:358|437:372,3,38.5,8|4|8|4,2:3|2:3|2:3|2:3,2:0:0:0:
343,270,227097,2,0,P|341:290|342:309,3,38.5,8|4|8|4,2:3|2:3|2:3|2:3,2:0:0:0:
279,357,227382,1,8,1:0:0:0:
279,357,227668,5,6,1:0:0:0:
177,278,227811,1,4,2:3:0:0:
242,167,227954,1,10,1:0:0:0:
344,246,228097,1,4,2:3:0:0:
412,204,228239,2,0,P|410:158|413:109,1,87.5,2|0,1:0|2:3,2:3:0:0:
284,7,228525,2,0,P|286:53|283:102,1,87.5,10|4,1:0|2:3,2:0:0:0:
148,186,228811,2,2,P|80:179|-9:98,2,175,2|10|2,1:0|1:0|2:1,2:1:0:0:
177,278,229525,1,0,2:0:0:0:
134,346,229668,2,0,P|82:342|35:347,1,87.5,10|0,1:0|2:0,2:0:0:0:
259,274,229954,6,2,P|347:270|445:202,1,175,2|10,2:1|1:0,2:1:0:0:
307,115,230382,1,0,2:0:0:0:
374,43,230525,2,0,P|427:47|473:40,1,87.5,2|0,2:1|2:0,2:0:0:0:
393,155,230811,1,10,1:0:0:0:
447,241,230954,1,0,2:0:0:0:
404,333,231097,5,0,2:0:0:0:
404,333,231382,1,10,1:0:0:0:
404,333,231668,2,0,P|363:330|302:336,1,80.5,2|0,2:1|2:0,2:0:0:0:
234,295,231954,1,8,1:0:0:0:
162,331,232097,1,0,2:0:0:0:
59,256,232239,6,0,P|65:191|64:93,1,161,2|8,1:0|1:0,2:0:0:0:
165,15,232668,1,0,2:0:0:0:
240,75,232811,2,0,P|239:136|242:178,1,80.5,2|0,2:1|2:0,2:0:0:0:
309,224,233097,1,10,1:0:0:0:
376,180,233239,1,0,2:0:0:0:
464,227,233382,2,0,P|461:304|433:404,2,161,2|10|2,1:0|1:0|2:1,2:0:0:0:
512,73,234239,1,10,1:0:0:0:
364,7,234525,6,0,P|321:11|283:9,1,80.5,2|0,2:1|2:0,2:0:0:0:
240,75,234811,1,10,1:0:0:0:
122,14,234954,1,0,2:0:0:0:
58,63,235097,2,0,P|60:142|50:235,1,161,2|10,2:1|1:0,2:0:0:0:
172,164,235525,1,4,2:3:0:0:
240,205,235668,2,0,P|237:284|248:377,2,161,2|8|2,2:1|1:0|2:1,2:0:0:0:
240,205,236525,2,0,P|298:209|331:205,1,80.5,8|0,1:0|2:1,2:0:0:0:
396,268,236811,5,2,1:0:0:0:
466,201,236954,1,4,2:3:0:0:
391,139,237097,1,8,1:0:0:0:
321,206,237239,1,0,2:0:0:0:
250,170,237382,2,0,P|254:125|251:82,1,80.5,2|0,2:1|2:0,2:0:0:0:
321,20,237668,1,8,1:0:0:0:
391,55,237811,1,4,2:3:0:0:
487,22,237954,2,0,P|485:82|499:206,1,161,2|10,1:0|1:0,2:0:0:0:
494,182,238525,1,2,1:0:0:0:
396,268,238668,1,4,2:3:0:0:
488,360,238811,2,0,P|446:357|396:361,1,80.5,10|0,1:0|2:0,2:0:0:0:
294,295,239097,5,2,1:0:0:0:
211,344,239239,1,4,2:3:0:0:
138,314,239382,2,0,P|96:317|48:310,1,80.5,10|0,1:0|2:0,2:0:0:0:
205,182,239668,2,0,P|128:180|45:130,1,161,2|10,2:1|1:0,2:0:0:0:
159,54,240097,1,4,2:3:0:0:
247,93,240239,2,0,P|293:97|339:93,1,80.5,2|0,1:0|2:0,2:0:0:0:
428,10,240525,1,8,1:0:0:0:
428,10,240811,1,2,1:0:0:0:
482,94,240954,1,4,2:3:0:0:
450,167,241097,2,0,P|404:163|358:167,1,80.5,8|0,1:0|2:0,2:0:0:0:
485,279,241382,1,10,1:0:0:0:
256,192,241454,12,2,243668,2:0:0:0:
274,144,244811,5,8,1:0:0:0:
259,151,244882,1,4,2:3:0:0:
242,151,244954,1,4,2:3:0:0:
227,144,245025,1,8,2:3:0:0:
213,134,245097,1,4,1:3:0:0:
197,128,245168,1,8,2:3:0:0:
181,126,245239,1,4,2:3:0:0:
165,128,245311,1,8,2:3:0:0:
151,135,245382,2,0,P|151:165|149:183,3,40.25,4|8|4|0,1:3|2:3|2:3|2:3,2:0:0:0:
190,242,245668,1,10,1:0:0:0:
190,242,245954,5,6,1:0:0:0:
256,288,246096,1,4,2:3:0:0:
329,266,246239,1,4,2:3:0:0:
329,266,246525,1,4,2:1:0:0:
329,266,246811,1,4,2:3:0:0:
402,244,246954,1,4,2:3:0:0:
473,276,247096,2,0,P|488:224|491:132,1,140,12|4,1:0|1:0,2:0:0:0:
472,65,247811,1,4,2:3:0:0:
322,242,248239,5,4,1:0:0:0:
256,288,248382,1,4,2:3:0:0:
183,266,248525,1,4,2:3:0:0:
183,266,248811,1,4,2:1:0:0:
183,266,249096,1,4,2:3:0:0:
110,244,249239,1,4,2:3:0:0:
39,276,249382,2,0,P|24:224|21:132,1,140,12|4,1:0|1:0,2:0:0:0:
40,65,250096,1,4,2:3:0:0:
256,192,250525,5,4,1:0:0:0:
284,283,250668,1,4,2:3:0:0:
265,358,250811,1,4,2:3:0:0:
265,358,251096,1,4,2:1:0:0:
256,192,251382,5,4,2:3:0:0:
228,101,251525,1,4,2:3:0:0:
247,26,251668,1,12,1:0:0:0:
247,26,252239,1,4,2:1:0:0:
247,26,252811,5,4,1:0:0:0:
318,62,252954,1,0,2:3:0:0:
392,32,253096,1,4,2:3:0:0:
392,32,253382,1,4,2:1:0:0:
256,192,253668,1,4,2:3:0:0:
185,228,253811,1,4,2:3:0:0:
111,198,253954,1,12,1:0:0:0:
111,198,254525,1,4,1:0:0:0:
111,294,254668,1,4,2:3:0:0:
256,192,255096,5,4,1:0:0:0:
287,286,255239,1,4,2:3:0:0:
256,360,255382,1,4,2:3:0:0:
256,360,255668,1,4,2:1:0:0:
391,219,255954,1,4,2:3:0:0:
433,306,256096,1,4,2:3:0:0:
393,376,256239,1,14,1:0:0:0:
393,376,256811,1,6,2:1:0:0:
256,192,257382,6,2,P|218:202|113:192,1,140,6|6,1:0|2:1,2:1:0:0:
184,80,258239,1,4,2:3:0:0:
118,35,258382,1,4,2:3:0:0:
49,68,258525,2,0,P|49:97|46:141,1,70,14|0,1:0|2:0,2:0:0:0:
254,262,259096,2,0,P|253:232|257:189,1,70,6|0,1:0|2:0,2:0:0:0:
348,97,259668,5,6,1:0:0:0:
415,141,259811,1,4,2:3:0:0:
485,110,259954,1,4,2:3:0:0:
485,110,260239,1,4,2:1:0:0:
164,287,260525,5,4,2:3:0:0:
97,243,260668,1,4,2:3:0:0:
27,274,260811,1,12,1:0:0:0:
27,274,261382,1,4,1:0:0:0:
27,353,261525,1,4,2:3:0:0:
256,192,261954,5,4,1:0:0:0:
274,95,262096,1,4,2:3:0:0:
261,17,262239,2,0,P|220:20|163:13,1,70,4|4,2:3|2:1,2:0:0:0:
154,88,262811,1,4,2:3:0:0:
154,88,262954,1,4,2:3:0:0:
256,192,263096,6,0,P|278:191|296:194,3,35,8|4|8|4,2:3|2:3|2:3|2:3,2:0:0:0:
375,267,263382,2,0,P|353:266|335:269,3,35,8|4|8|4,2:3|2:3|2:3|2:3,2:0:0:0:
286,351,263668,1,8,2:3:0:0:
286,351,263739,1,4,2:3:0:0:
286,351,263811,1,8,2:3:0:0:
286,351,263882,1,4,2:3:0:0:
286,351,263954,1,12,1:0:0:0:
286,351,264239,6,2,P|216:347|89:357,1,182,14|4,1:0|2:3,2:1:0:0:
53,235,265096,1,4,2:3:0:0:
178,262,265382,1,2,1:0:0:0:
178,262,266525,6,2,P|175:184|180:106,1,140,14|4,1:0|2:3,2:1:0:0:
178,122,267096,1,4,2:3:0:0:
354,311,267382,2,2,P|357:233|352:155,1,140,14|4,1:0|2:3,2:1:0:0:
354,171,267954,1,4,2:3:0:0:
24,376,268239,2,2,P|21:298|26:220,1,140,14|4,1:0|2:3,2:1:0:0:
24,236,268811,1,4,2:3:0:0:
354,311,269954,6,2,P|315:309|279:313,1,70,14|0,1:0|2:0,2:1:0:0:
213,348,270239,1,4,2:3:0:0:
109,124,270525,2,2,P|148:126|184:122,1,70,14|0,1:0|2:0,2:1:0:0:
250,87,270811,1,4,2:3:0:0:
354,311,271096,2,2,P|315:309|279:313,1,70,14|0,1:0|2:0,2:1:0:0:
213,348,271382,1,4,2:3:0:0:
109,124,272811,1,2,1:0:0:0:
109,124,273382,6,0,P|108:219|105:266,1,140,14|4,1:0|2:3,2:0:0:0:
105,263,273954,1,4,2:3:0:0:
288,27,274239,2,0,P|289:122|292:169,1,140,14|4,1:0|2:3,2:0:0:0:
292,166,274811,1,4,2:3:0:0:
485,111,275096,2,0,P|484:206|481:253,1,140,10|4,1:0|2:3,2:0:0:0:
288,27,275668,6,2,P|346:23|412:-4,1,115.5,6|0,1:0|2:0,2:1:0:0:
472,33,276239,1,14,1:0:0:0:
384,170,276525,1,4,2:3:0:0:
233,97,276811,2,0,P|235:134|229:184,1,77,6|4,1:0|2:3,2:0:0:0:
394,337,277382,2,2,P|391:299|398:250,1,77,14|4,1:0|2:3,2:1:0:0:
152,361,277954,6,2,P|210:364|276:392,1,115.5,6|0,1:0|2:0,2:1:0:0:
315,327,278525,1,14,1:0:0:0:
172,243,278811,1,4,2:3:0:0:
43,348,279096,2,2,P|45:314|43:271,1,77,6|4,1:0|2:3,2:1:0:0:
165,72,279668,2,2,P|163:106|165:149,1,77,14|4,1:0|2:3,2:1:0:0:
246,290,280239,1,2,2:0:0:0:
246,290,284239,5,10,1:0:0:0:
246,290,284811,1,6,1:0:0:0:
274,214,284954,1,4,2:3:0:0:
244,144,285096,1,2,1:0:0:0:
244,144,285382,2,2,P|207:147|148:145,1,91,6|4,2:1|2:3,2:1:0:0:
107,211,285811,1,4,2:3:0:0:
107,211,285954,1,14,1:0:0:0:
246,290,286525,2,0,L|306:300,1,45.5,6|4,1:0|2:3,2:0:0:0:
346,350,286811,1,2,1:0:0:0:
463,242,287096,5,6,1:0:0:0:
430,172,287239,1,4,2:3:0:0:
452,100,287382,1,2,1:0:0:0:
363,8,287668,1,6,2:1:0:0:
286,70,287954,1,4,2:3:0:0:
286,70,288096,1,4,2:3:0:0:
286,70,288239,1,14,1:0:0:0:
170,9,288525,1,4,2:3:0:0:
170,9,288668,1,2,2:1:0:0:
170,148,288954,1,4,2:3:0:0:
170,148,289096,1,2,2:1:0:0:
11,105,289382,6,2,P|12:204|-1:302,1,182,6|6,1:0|2:1,2:1:0:0:
102,365,290239,1,2,1:0:0:0:
176,333,290382,1,4,2:3:0:0:
248,364,290525,2,2,P|304:361|342:368,1,91,14|0,1:0|2:0,2:1:0:0:
446,289,291096,2,0,L|456:232,1,45.5,6|4,1:0|2:3,2:0:0:0:
416,176,291382,1,2,1:0:0:0:
296,229,291668,5,6,1:0:0:0:
266,154,291811,1,4,2:3:0:0:
287,80,291954,1,2,1:0:0:0:
170,25,292239,2,2,P|123:29|79:27,1,91,4|4,2:1|2:3,2:1:0:0:
41,117,292668,1,4,2:3:0:0:
68,191,292811,2,0,P|69:229|66:249,1,45.5,14|8,1:0|2:1,2:0:0:0:
72,274,293025,1,8,2:1:0:0:
72,274,293096,1,8,1:0:0:0:
154,370,293382,1,4,2:3:0:0:
228,339,293525,1,8,2:3:0:0:
300,368,293668,1,10,1:0:0:0:
300,368,293953,6,2,P|365:372|470:313,1,182,6|4,1:0|2:1,2:1:0:0:
372,228,294811,1,2,1:0:0:0:
412,158,294953,1,4,2:3:0:0:
382,89,295096,1,14,1:0:0:0:
263,39,295382,1,4,2:3:0:0:
263,39,295525,1,2,2:1:0:0:
263,177,295811,1,4,2:3:0:0:
263,177,295953,1,2,1:0:0:0:
137,126,296239,6,2,P|137:201|127:265,1,136.5,6|0,1:0|2:0,2:1:0:0:
163,333,296811,1,4,2:1:0:0:
284,289,297096,1,2,1:0:0:0:
356,324,297239,1,4,2:3:0:0:
428,303,297382,1,14,1:0:0:0:
489,192,297668,1,4,2:3:0:0:
489,192,297811,1,2,2:1:0:0:
365,192,298096,1,4,2:3:0:0:
365,192,298239,1,2,1:0:0:0:
477,70,298525,6,2,P|410:76|291:31,1,182,6|6,1:0|2:1,2:1:0:0:
190,103,299382,1,4,2:3:0:0:
118,67,299525,1,4,2:3:0:0:
49,98,299668,2,2,P|50:187|42:245,2,136.5,14|2|2,1:0|2:1|1:0,2:1:0:0:
50,334,300811,5,6,1:0:0:0:
50,334,300953,1,4,2:3:0:0:
50,334,301096,1,2,1:0:0:0:
170,279,301382,1,6,2:1:0:0:
260,372,301668,1,4,2:3:0:0:
334,340,301811,1,4,2:3:0:0:
406,365,301953,2,0,P|430:362|458:365,1,45.5,14|8,1:0|2:3,2:0:0:0:
484,347,302168,1,4,2:3:0:0:
484,347,302239,1,8,2:3:0:0:
411,237,302525,1,8,2:3:0:0:
317,261,302668,1,4,2:3:0:0:
276,193,302811,1,14,1:0:0:0:
276,193,303096,6,2,P|281:132|274:35,1,136.5,6|4,1:0|2:3,2:1:0:0:
206,22,303668,2,0,P|158:27|99:18,1,91,6|4,2:1|2:3,2:0:0:0:
77,92,304096,1,4,2:3:0:0:
104,164,304239,1,14,1:0:0:0:
51,325,304811,2,0,P|80:324|116:330,1,45.5,6|4,1:0|2:3,2:0:0:0:
163,366,305096,1,2,1:0:0:0:
280,307,305382,5,6,1:0:0:0:
350,346,305525,1,4,2:3:0:0:
422,325,305668,1,2,1:0:0:0:
509,224,305953,2,0,P|504:177|506:124,1,91,4|4,2:1|2:3,2:0:0:0:
447,83,306382,1,4,2:3:0:0:
447,83,306525,1,14,1:0:0:0:
335,152,306811,1,4,2:3:0:0:
335,152,306953,1,2,2:1:0:0:
335,21,307239,1,4,2:3:0:0:
335,21,307382,1,2,1:0:0:0:
196,103,307668,5,6,1:0:0:0:
225,178,307811,1,4,2:3:0:0:
197,248,307953,1,2,1:0:0:0:
197,248,308239,2,0,P|153:242|93:248,1,91,4|4,2:1|2:3,2:0:0:0:
239,344,308668,1,4,2:3:0:0:
334,311,308811,2,2,P|378:317|478:308,2,136.5,14|0|2,1:0|2:0|1:0,2:1:0:0:
334,311,309953,5,6,1:0:0:0:
305,236,310096,1,4,2:3:0:0:
333,166,310239,2,0,P|337:117|333:61,1,91,2|6,1:0|2:1,2:0:0:0:
218,15,310811,1,4,2:3:0:0:
148,54,310953,1,4,2:3:0:0:
74,31,311096,2,2,P|75:94|69:154,1,91,14|4,1:0|2:3,2:1:0:0:
37,244,311668,6,0,P|18:246|-10:243,2,37.3333333333333,12|8|8,1:0|2:1|2:1,2:0:0:0:
143,323,311953,2,0,P|124:321|96:324,2,37.3333333333333,8|8|8,1:0|2:1|2:1,2:0:0:0:
239,285,312239,5,6,1:0:0:0:
334,311,312382,1,4,2:3:0:0:
299,380,312525,2,0,P|263:375|198:380,1,91,2|6,1:0|2:1,2:0:0:0:
139,227,313096,1,4,2:3:0:0:
173,156,313239,1,4,2:3:0:0:
149,86,313382,1,14,1:0:0:0:
273,43,313668,1,4,2:3:0:0:
273,43,313811,1,2,2:1:0:0:
273,175,314096,1,4,2:3:0:0:
273,175,314239,1,2,1:0:0:0:
391,113,314525,5,6,1:0:0:0:
413,189,314668,1,4,2:3:0:0:
393,263,314811,2,2,P|348:258|294:263,2,91,2|6|4,1:0|2:1|2:3,2:1:0:0:
446,329,315525,1,4,2:3:0:0:
446,329,315668,1,14,1:0:0:0:
328,384,315953,1,4,2:3:0:0:
328,384,316096,1,2,2:1:0:0:
229,301,316382,1,4,2:3:0:0:
229,301,316525,1,2,1:0:0:0:
140,343,316811,6,0,P|94:336|41:340,1,91,6|2,1:0|1:0,2:0:0:0:
36,143,317382,2,2,P|123:205|197:210,1,182,6|14,2:1|1:0,2:1:0:0:
273,105,318239,1,4,2:3:0:0:
273,105,318382,1,2,2:1:0:0:
166,32,318668,1,4,2:3:0:0:
166,32,318811,1,2,2:1:0:0:
80,77,319096,5,10,1:0:0:0:
115,167,319239,1,8,1:0:0:0:
83,258,319382,1,10,1:0:0:0:
432,307,319953,5,10,1:0:0:0:
397,217,320096,1,8,1:0:0:0:
429,126,320239,1,10,1:0:0:0:
