osu file format v14

[General]
AudioFilename: audio.mp3
AudioLeadIn: 0
PreviewTime: 59990
Countdown: 1
SampleSet: Soft
StackLeniency: 0.4
Mode: 0
LetterboxInBreaks: 0
WidescreenStoryboard: 1

[Editor]
Bookmarks: 61865,66065,102935,103769
DistanceSpacing: 1.2
BeatDivisor: 4
GridSize: 4
TimelineZoom: 2.2

[Metadata]
Title:She Sings In The Morning
TitleUnicode:She Sings In The Morning
Artist:Pierce The Veil
ArtistUnicode:Pierce The Veil
Creator:pishifat
Version:Extra
Source:
Tags:flair for dramatic metal punk post hardcore sharkie
BeatmapID:930297
BeatmapSetID:425053

[Difficulty]
HPDrainRate:5
CircleSize:2
OverallDifficulty:8.6
ApproachRate:9
SliderMultiplier:1
SliderTickRate:1

[Events]
//Background and Video events
0,0,"sssssssssssssssssssss.jpg",0,0
//Break Periods
2,28540,32540
//Storyboard Layer 0 (Background)
//Storyboard Layer 1 (Fail)
//Storyboard Layer 2 (Pass)
//Storyboard Layer 3 (Foreground)
//Storyboard Sound Samples

[TimingPoints]
223,342.857142857143,4,2,1,75,1,0
223,-66.6666666666667,4,2,1,75,0,0
1423,-58.8235294117647,4,2,1,75,0,0
11194,-100,4,2,1,75,0,0
11280,-100,4,2,1,55,0,0
11537,-100,4,2,1,75,0,0
11880,-100,4,2,1,44,0,0
12565,-80,4,2,1,75,0,0
13937,-100,4,2,1,56,0,0
15137,-50,4,2,1,75,0,0
17365,-83.3333333333333,4,2,1,75,0,0
17708,-100,4,2,1,5,0,0
17880,-90.9090909090909,4,2,1,75,0,0
19423,-100,4,2,1,44,0,0
20623,-50,4,2,1,75,0,0
21651,-100,4,2,1,50,0,0
21737,-100,4,2,1,55,0,0
21823,-100,4,2,1,61,0,0
21908,-100,4,2,1,67,0,0
21994,-50,4,2,1,73,0,0
22508,-50,4,2,1,55,0,0
22680,-50,4,2,1,65,0,0
22851,-100,4,2,1,75,0,0
23023,-100,4,2,1,65,0,0
23194,-100,4,2,1,55,0,0
23365,-181.818181818182,4,2,1,75,0,0
23537,-181.818181818182,4,2,1,5,0,0
25999,292.682926829268,4,2,2,50,1,0
28047,-83.3333333333333,4,2,2,50,0,0
28340,300,4,2,1,50,1,0
33140,-45.4545454545455,4,2,1,50,0,0
36740,-25,4,2,1,60,0,0
36815,-25,4,2,1,40,0,0
37190,-25,4,2,1,60,0,0
37265,-25,4,2,1,40,0,0
37640,-66.6666666666667,4,2,1,60,0,0
37715,-25,4,2,1,40,0,0
37940,-33.3333333333333,4,2,1,80,0,0
45215,-25,4,2,1,50,0,0
45590,-25,4,2,1,80,0,0
45890,-47.6190476190476,4,2,1,80,0,0
46190,-25,4,2,1,60,0,0
46340,-50,4,2,1,80,0,0
46640,-43.4782608695652,4,2,1,80,0,0
46940,-38.4615384615385,4,2,1,80,0,0
47540,-33.3333333333333,4,2,1,80,0,0
51140,300,5,2,1,80,1,0
51140,-50,5,2,1,80,0,0
52640,300,4,2,1,80,1,0
52640,-33.3333333333333,4,2,1,80,0,0
55490,-50,4,2,1,80,0,0
56015,-50,4,2,1,50,0,0
56240,-55.5555555555556,4,2,1,80,0,0
57290,-45.4545454545455,4,2,1,80,0,0
58040,-41.6666666666667,4,2,1,80,0,0
58340,-38.4615384615385,4,2,1,80,0,0
58640,-35.7142857142857,4,2,1,80,0,0
59090,-37.037037037037,4,2,1,80,0,0
59165,-25,4,2,1,20,0,0
59390,-29.4117647058824,4,2,1,80,0,0
59465,-25,4,2,1,20,0,0
59690,-71.4285714285714,4,2,1,80,0,0
62090,-43.4782608695652,4,2,1,80,0,1
65990,-25,4,2,1,65,0,1
66140,-50,4,2,1,80,0,1
66890,-55.5555555555556,4,2,1,80,0,1
70490,-50,4,2,1,80,0,1
70640,-50,4,2,1,80,0,0
70790,-50,4,2,1,60,0,0
70940,-50,4,2,1,80,0,0
71090,-50,4,2,1,60,0,0
71240,-50,4,2,1,80,0,0
71315,-50,4,2,1,65,0,0
71690,-43.4782608695652,4,2,1,80,0,1
75590,-25,4,2,1,60,0,1
75740,-43.4782608695652,4,2,1,80,0,1
76490,-55.5555555555556,4,2,1,80,0,1
80240,-25,4,2,1,80,0,0
80390,-25,4,2,1,60,0,0
80540,-25,4,2,1,80,0,0
80690,-25,4,2,1,60,0,0
80840,-25,4,2,1,80,0,0
80915,-25,4,2,1,55,0,0
80990,-25,4,2,1,80,0,0
81065,-25,4,2,1,55,0,0
81140,-25,4,2,1,80,0,0
81215,-25,4,2,1,55,0,0
81290,-50,4,2,1,80,0,1
81740,-25,4,2,1,80,0,0
83270,333.333333333333,4,2,1,75,1,0
83270,-125,4,2,1,75,0,0
83603,-25,4,2,1,5,0,0
83770,-50,4,2,1,75,0,0
83936,333.333333333333,4,2,1,75,1,0
83936,-50,4,2,1,75,0,0
86436,-125,4,2,1,75,0,0
87936,-25,4,2,1,44,0,0
88019,-25,4,2,1,75,0,0
89102,-50,4,2,1,75,0,0
90102,-25,4,2,1,50,0,0
90186,-25,4,2,1,55,0,0
90269,-25,4,2,1,61,0,0
90352,-25,4,2,1,67,0,0
90436,-50,4,2,1,74,0,0
91769,-50,4,2,1,75,0,0
93935,-25,4,2,1,75,0,0
94019,-25,4,2,1,75,0,0
94435,-50,4,2,1,75,0,0
96602,-125,4,2,1,75,0,0
96685,-25,4,2,1,5,0,0
97102,-66.6666666666667,4,2,1,75,0,0
99769,-50,4,2,1,75,0,0
100269,-25,4,2,1,75,0,0
100685,-25,4,2,1,75,0,0
102102,-62.5,4,2,1,75,0,0
102269,-25,4,2,1,5,0,0
102435,-50,4,2,1,75,0,0
105102,-62.5,4,2,1,75,0,0
107769,-43.4782608695652,4,2,1,75,0,0
110185,-25,4,2,1,55,0,0
110435,-43.4782608695652,4,2,1,75,0,0
111769,-133.333333333333,4,2,1,75,0,0
112019,-133.333333333333,4,2,1,5,0,0
112102,-133.333333333333,4,2,1,75,0,0
112352,-133.333333333333,4,2,1,5,0,0
112435,-133.333333333333,4,2,1,75,0,0
113102,-50,4,2,1,75,0,0
115769,-62.5,4,2,1,75,0,0
118435,-43.4782608695652,4,2,1,75,0,0
120769,-25,4,2,1,75,0,0
120852,-25,4,2,1,55,0,0
121102,-43.4782608695652,4,2,1,75,0,0
122435,-133.333333333333,4,2,1,75,0,0
122685,-133.333333333333,4,2,1,22,0,0
122769,-133.333333333333,4,2,1,75,0,0
123019,-133.333333333333,4,2,1,22,0,0
123102,-133.333333333333,4,2,1,75,0,0
128602,333.333333333333,4,2,1,75,1,1
128602,-200,4,2,1,75,0,1
128768,-200,4,2,1,75,0,0
147268,-142.857142857143,4,2,1,75,0,0
147601,-50,4,2,1,75,0,0
148268,-66.6666666666667,4,2,1,75,0,0
148601,324.324324324324,4,2,1,75,1,0
148601,-25,4,2,1,75,0,0
148682,-25,4,2,1,50,0,0
149087,-25,4,2,1,75,0,0
149168,-25,4,2,1,50,0,0
149573,-66.6666666666667,4,2,1,75,0,0
149898,315.789473684211,4,2,1,80,1,0
149898,-83.3333333333333,4,2,1,80,0,0
150213,-43.4782608695652,4,2,1,80,0,1
151476,-25,4,2,1,80,0,1
151792,-58.8235294117647,4,2,1,65,0,1
151950,-25,4,2,1,60,0,1
152108,-25,4,2,1,55,0,1
152266,-100,4,2,2,50,0,0
154003,-71.4285714285714,4,2,2,50,0,0
154792,-55.5555555555556,4,2,1,80,0,1
158740,-25,4,2,1,80,0,0
158898,-25,4,2,1,60,0,0
159055,-25,4,2,1,80,0,0
159213,-25,4,2,1,60,0,0
159371,-43.4782608695652,4,2,1,80,0,0
159450,-41.6666666666667,4,2,1,60,0,0
159687,-41.6666666666667,4,2,1,60,0,0
159845,-43.4782608695652,4,2,1,80,0,1
163240,-25,4,2,1,5,0,1
163476,-43.4782608695652,4,2,1,80,0,1
163555,-25,4,2,1,5,0,1
163792,-43.4782608695652,4,2,1,80,0,1
163950,-25,4,2,1,65,0,1
164108,-25,4,2,1,80,0,1
164424,-25,4,2,1,65,0,1
164661,-25,4,2,1,80,0,1
164898,-55.5555555555556,4,2,1,80,0,1
168845,-25,4,2,1,80,0,0
169950,-56.4971751412429,4,2,1,80,0,1
170108,326.086956521739,4,2,1,80,1,1
170434,-25,4,2,1,50,0,0
173613,-25,4,2,1,80,0,0
173858,-33.7837837837838,4,2,1,80,0,1
174021,333.333333333333,4,2,1,80,1,1
174354,-25,4,2,1,80,0,0
174521,-31.25,4,2,1,80,0,1
175021,-25,4,2,1,80,0,0
175187,-29.4117647058824,4,2,1,80,0,1
175521,-25,4,2,1,80,0,1
175687,-29.4117647058824,4,2,1,80,0,1
176187,-25,4,2,1,80,0,0

[Colours]
Combo1 : 173,171,171
Combo2 : 203,132,80
Combo3 : 137,98,170

[HitObjects]
196,50,223,6,0,P|143:29|67:39,1,112.500004291535,8|8,0:0|0:0,0:0:0:0:
67,42,565,1,8,0:0:0:0:
245,146,737,5,8,0:0:0:0:
126,131,908,1,8,0:0:0:0:
204,243,1080,5,8,0:3:0:0:
104,263,1251,1,4,0:3:0:0:
390,318,1423,5,4,0:0:0:0:
390,318,1765,1,2,0:0:0:0:
312,178,1937,2,0,P|324:137|351:104,1,85.0000016212464,8|0,0:0|0:0,0:0:0:0:
498,285,2280,1,10,0:0:0:0:
497,285,2451,2,0,P|493:242|478:203,1,85.0000016212464,2|8,0:0|0:0,0:0:0:0:
219,94,2794,5,2,0:0:0:0:
219,94,3137,1,2,0:0:0:0:
305,323,3308,2,0,L|389:317,1,85.0000016212464,8|0,0:0|0:0,0:0:0:0:
144,226,3651,1,10,0:0:0:0:
144,226,3823,2,0,L|240:241,1,85.0000016212464,2|8,0:0|0:0,0:0:0:0:
493,104,4165,5,2,0:0:0:0:
493,104,4508,1,2,0:0:0:0:
329,157,4680,2,0,P|262:138|227:110,1,85.0000016212464,8|0,0:0|0:0,0:0:0:0:
466,285,5023,1,10,0:0:0:0:
466,285,5194,2,0,P|405:315|350:315,1,85.0000016212464,2|8,0:0|0:0,0:0:0:0:
144,226,5537,6,0,L|134:73,1,127.50000243187,2|0,0:0|0:0,0:0:0:0:
134,77,5880,2,0,P|126:48|112:24,2,42.5000008106232,2|0|8,0:0|0:0|0:0,0:0:0:0:
272,352,6223,6,0,L|281:199,1,127.50000243187,2|0,0:0|0:0,0:0:0:0:
282,203,6565,2,0,P|290:171|307:144,2,42.5000008106232,2|0|8,0:0|0:0|0:0,0:0:0:0:
126,333,6908,5,2,0:0:0:0:
126,333,7251,2,0,L|119:275,1,42.5000008106232,2|0,0:0|0:0,0:0:0:0:
109,190,7423,2,0,P|149:162|199:154,1,85.0000016212464,8|0,0:0|0:0,0:0:0:0:
359,233,7765,1,10,0:0:0:0:
359,233,7937,2,0,P|323:218|293:220,2,42.5000008106232,2|0|8,0:0|0:0|0:0,0:0:0:0:
475,347,8280,5,2,0:0:0:0:
475,347,8623,1,2,0:0:0:0:
454,349,8708,1,0,0:0:0:0:
432,350,8794,2,0,L|347:356,1,85.0000016212464,8|0,0:0|0:0,0:0:0:0:
132,254,9137,1,10,0:0:0:0:
132,254,9308,2,0,L|194:260,1,42.5000008106232,2|0,0:0|0:0,0:0:0:0:
277,272,9480,1,8,0:0:0:0:
77,156,9651,5,2,0:0:0:0:
77,156,9994,2,0,P|108:149|134:135,1,42.5000008106232,2|0,0:0|0:0,0:0:0:0:
210,99,10165,2,0,L|222:-8,1,85.0000016212464,8|0,0:0|0:0,0:0:0:0:
457,225,10508,1,10,0:0:0:0:
457,225,10680,2,0,P|421:217|402:206,1,42.5000008106232,2|0,0:0|0:0,0:0:0:0:
332,151,10851,2,0,L|319:52,1,85.0000016212464,8|0,0:0|0:0,0:0:0:0:
401,329,11194,5,10,0:0:0:0:
364,338,11280,1,8,0:0:0:0:
328,347,11365,1,8,0:0:0:0:
291,356,11451,1,8,0:0:0:0:
255,342,11537,1,8,0:0:0:0:
255,342,11880,6,0,L|255:382,4,25,2|0|0|0|0,0:0|0:0|0:0|0:0|0:0,0:0:0:0:
256,28,12565,6,0,L|256:179,1,125,4|0,0:0|0:0,0:0:0:0:
256,174,13937,1,8,0:0:0:0:
255,193,15137,6,0,B|371:166|340:242|486:202,1,200,4|0,0:0|0:0,0:0:0:0:
507,76,15651,2,0,P|468:96|393:104,1,100,8|0,0:0|0:0,0:0:0:0:
196,23,15994,1,2,0:3:0:0:
213,12,16080,1,0,0:0:0:0:
328,176,16251,1,0,1:0:0:0:
309,169,16337,2,0,L|301:54,1,100,8|0,0:0|0:0,0:0:0:0:
472,322,16680,6,0,P|428:298|352:298,1,100,2|0,0:3|0:0,0:0:0:0:
360,301,16937,1,0,1:0:0:0:
341,309,17023,2,0,B|299:333|299:333|231:326,1,100,8|0,0:0|0:0,0:0:0:0:
70,210,17365,6,0,P|143:235|223:228,1,149.999995422363,8|0,0:0|0:0,0:0:0:0:
214,230,17880,6,0,B|137:259|137:259|60:203,1,165.000005035401,4|0,0:0|0:0,0:0:0:0:
53,197,19423,1,8,0:0:0:0:
199,266,20623,6,0,P|102:265|40:191,1,200,4|0,0:0|0:0,0:0:0:0:
116,18,21137,2,0,P|72:42|41:110,1,100,8|0,0:0|0:0,0:0:0:0:
277,188,21480,1,2,0:3:0:0:
258,30,21651,1,8,0:0:0:0:
238,26,21737,1,8,0:0:0:0:
218,23,21823,5,8,0:0:0:0:
246,54,21908,1,8,0:0:0:0:
289,63,21994,2,0,L|351:52,1,50,8|0,0:0|0:0,0:0:0:0:
483,27,22165,5,2,0:3:0:0:
385,146,22337,1,2,0:0:0:0:
388,167,22423,1,0,0:0:0:0:
391,189,22508,5,8,0:0:0:0:
414,210,22594,1,8,0:0:0:0:
450,198,22680,1,8,0:0:0:0:
446,151,22765,1,8,0:0:0:0:
405,118,22851,1,8,0:0:0:0:
345,128,22937,1,8,0:0:0:0:
312,175,23023,1,8,0:0:0:0:
317,227,23108,1,8,0:0:0:0:
338,272,23194,1,4,0:3:0:0:
343,318,23280,1,4,0:3:0:0:
336,357,23365,6,0,B|353:278|356:240|276:220|269:180|306:95|366:91|422:93|452:134|457:164|447:209,1,412.5,4|0,0:0|0:0,0:0:0:0:
445,215,25999,6,0,L|440:256,5,25,0|0|0|0|0|0,0:0|0:0|0:0|0:0|0:0|0:0,0:0:0:0:
397,223,26438,2,0,L|402:264,5,25,2|0|0|0|0|0,0:0|0:0|0:0|0:0|0:0|0:0,0:0:0:0:
349,245,26877,2,0,L|364:277,3,25,2|0|0|0,0:0|0:0|0:0|0:0,0:0:0:0:
260,185,27169,6,0,L|255:144,5,25,2|0|0|0|0|0,0:0|0:0|0:0|0:0|0:0|0:0,0:0:0:0:
212,177,27608,2,0,L|217:136,5,25,2|0|0|0|0|0,0:0|0:0|0:0|0:0|0:0|0:0,0:0:0:0:
165,157,28047,2,0,P|176:110|217:66,1,89.9999972534181,2|0,0:0|0:0,0:0:0:0:
301,43,28340,5,4,0:0:0:0:
197,169,33140,5,2,0:3:0:0:
412,145,33290,1,8,0:0:0:0:
412,145,33590,1,8,0:0:0:0:
412,145,33890,1,8,0:0:0:0:
412,145,34190,1,8,0:0:0:0:
309,111,34340,5,2,0:3:0:0:
432,271,34490,1,8,0:0:0:0:
432,271,34790,1,8,0:0:0:0:
432,271,35090,1,8,0:0:0:0:
432,271,35390,1,8,0:0:0:0:
388,40,35540,5,4,0:0:0:0:
334,215,35690,2,0,B|282:240|282:240|206:232,1,110.000003356934,8|0,0:0|0:0,0:0:0:0:
209,225,35915,1,0,0:0:0:0:
189,215,35990,1,8,0:0:0:0:
260,132,36140,1,2,0:3:0:0:
245,346,36290,1,8,0:0:0:0:
85,249,36440,2,0,L|77:184,2,55.0000016784668,2|0|8,0:3|0:0|0:0,0:0:0:0:
261,356,36740,5,8,1:2:0:0:
299,364,36815,1,8,0:0:0:0:
339,360,36890,1,8,0:0:0:0:
375,343,36965,1,8,0:0:0:0:
404,316,37040,1,8,0:0:0:0:
424,281,37115,1,8,0:0:0:0:
453,299,37190,5,8,1:2:0:0:
461,260,37265,1,8,0:0:0:0:
457,220,37340,1,8,0:0:0:0:
440,184,37415,1,8,0:0:0:0:
413,155,37490,1,8,0:0:0:0:
378,136,37565,1,8,0:0:0:0:
410,114,37640,6,0,L|415:72,3,37.5000014305115,8|8|8|8,0:3|0:3|0:3|0:3,0:0:0:0:
321,262,37940,6,0,B|245:273|245:273|141:210,1,150.000005722046,4|8,0:0|0:0,0:0:0:0:
221,29,38240,1,0,0:0:0:0:
221,29,38315,1,0,0:0:0:0:
221,29,38390,2,0,P|266:80|254:188,1,150.000005722046,8|0,0:0|0:0,0:0:0:0:
0,243,38690,1,8,0:0:0:0:
129,343,38840,1,0,0:0:0:0:
129,343,38915,1,0,0:0:0:0:
129,343,38990,1,8,0:0:0:0:
108,116,39140,5,2,0:3:0:0:
0,243,39290,2,0,L|85:232,1,75.0000028610231,8|0,0:0|0:0,0:0:0:0:
304,145,39440,1,0,0:0:0:0:
282,138,39515,1,0,0:0:0:0:
259,142,39590,2,0,B|209:193|209:193|215:302,1,150.000005722046,8|0,0:0|0:0,0:0:0:0:
431,368,39890,1,8,0:0:0:0:
405,209,40040,1,0,0:0:0:0:
405,209,40115,1,0,0:0:0:0:
405,209,40190,1,8,0:0:0:0:
268,368,40340,5,2,0:3:0:0:
488,276,40490,1,8,0:0:0:0:
498,255,40565,1,0,0:0:0:0:
505,233,40640,1,0,0:0:0:0:
508,210,40715,1,0,0:0:0:0:
509,187,40790,2,0,P|469:121|392:94,1,150.000005722046,8|0,0:0|0:0,0:0:0:0:
153,151,41090,1,8,0:0:0:0:
296,244,41240,2,0,L|286:154,1,75.0000028610231,0|0,0:0|0:0,0:0:0:0:
240,46,41390,1,8,0:0:0:0:
167,296,41540,5,2,0:3:0:0:
55,96,41690,2,0,P|132:43|182:43,1,75.0000028610231,8|0,0:0|0:0,0:0:0:0:
240,46,41840,1,0,0:0:0:0:
259,57,41915,1,0,0:0:0:0:
278,68,41990,2,0,B|298:98|303:124|303:124|286:160|286:160|296:238,1,150.000005722046,8|0,0:0|0:0,0:0:0:0:
459,356,42290,1,8,0:0:0:0:
407,194,42440,1,0,0:0:0:0:
407,194,42515,1,0,0:0:0:0:
407,194,42590,1,8,0:0:0:0:
225,348,42740,5,2,0:3:0:0:
87,210,42890,1,8,0:0:0:0:
95,189,42965,1,0,0:0:0:0:
103,168,43040,2,0,P|140:149|188:144,1,75.0000028610231,0|0,0:0|0:0,0:0:0:0:
287,169,43190,1,8,0:0:0:0:
189,247,43340,1,0,0:0:0:0:
264,65,43490,2,0,P|334:73|388:156,1,150.000005722046,8|0,0:0|0:0,0:0:0:0:
388,153,43715,1,0,0:0:0:0:
393,174,43790,1,8,0:0:0:0:
189,247,43940,5,2,0:3:0:0:
395,373,44090,1,8,0:0:0:0:
414,361,44165,1,0,0:0:0:0:
428,343,44240,1,0,0:0:0:0:
434,321,44315,1,0,0:0:0:0:
435,298,44390,2,0,B|369:263|369:263|278:275,1,150.000005722046,8|0,0:0|0:0,0:0:0:0:
54,323,44690,1,8,0:0:0:0:
200,140,44840,2,0,P|236:149|269:166,1,75.0000028610231,0|0,0:0|0:0,0:0:0:0:
236,375,44990,2,0,P|199:366|166:349,1,75.0000028610231,8|0,0:0|0:0,0:0:0:0:
93,120,45140,5,8,0:0:0:0:
116,75,45215,1,8,0:0:0:0:
155,44,45290,1,8,0:0:0:0:
203,33,45365,1,8,0:0:0:0:
252,36,45440,1,8,0:3:0:0:
298,55,45515,1,8,0:3:0:0:
347,64,45590,5,8,0:0:0:0:
347,64,45890,2,0,P|285:129|208:145,1,157.499995193482,8|0,0:0|0:0,0:0:0:0:
200,140,46190,1,8,0:0:0:0:
391,229,46340,6,0,P|389:254|381:278,2,50,8|0|0,0:0|0:0|0:0,0:0:0:0:
169,251,46640,2,0,P|171:276|188:316,2,57.5000010967255,4|0|4,0:3|0:0|0:3,0:0:0:0:
469,161,46940,6,0,P|489:192|498:243,2,64.9999970245363,8|0|8,0:3|0:0|0:3,0:0:0:0:
72,200,47240,1,8,0:0:0:0:
72,200,47540,6,0,B|125:147|125:147|265:133,1,150.000005722046,4|8,0:0|0:0,0:0:0:0:
359,362,47840,1,0,0:0:0:0:
337,356,47915,1,0,0:0:0:0:
314,351,47990,2,0,B|272:288|272:288|293:158,1,150.000005722046,8|0,0:0|0:0,0:0:0:0:
405,89,48290,1,8,0:0:0:0:
463,268,48440,1,0,0:0:0:0:
463,268,48515,1,0,0:0:0:0:
463,268,48590,1,8,0:0:0:0:
297,113,48740,5,2,0:3:0:0:
500,155,48890,2,0,L|512:59,1,75.0000028610231,8|0,0:0|0:0,0:0:0:0:
283,127,49040,2,0,L|272:243,1,75.0000028610231,0|0,0:0|0:0,0:0:0:0:
424,365,49190,1,8,0:0:0:0:
381,188,49340,1,0,0:0:0:0:
244,304,49490,2,0,L|71:315,1,150.000005722046,8|0,0:0|0:0,0:0:0:0:
73,303,49715,1,0,0:0:0:0:
52,293,49790,1,8,0:0:0:0:
275,201,49940,5,2,0:3:0:0:
132,80,50090,1,8,0:0:0:0:
110,88,50165,1,0,0:0:0:0:
94,104,50240,1,0,0:0:0:0:
88,125,50315,1,0,0:0:0:0:
90,147,50390,2,0,B|151:98|151:98|251:108,1,150.000005722046,8|0,0:0|0:0,0:0:0:0:
419,122,50690,1,8,0:0:0:0:
315,35,50840,1,0,0:0:0:0:
315,35,50915,1,0,0:0:0:0:
315,35,50990,1,8,0:0:0:0:
373,304,51140,5,2,0:0:0:0:
373,304,51327,2,0,P|312:280|239:288,1,125,8|8,0:0|0:0,0:0:0:0:
473,254,51665,5,2,0:0:0:0:
473,254,51890,2,0,P|461:176|398:108,1,150,8|4,0:0|0:3,0:0:0:0:
95,80,52340,5,10,0:0:0:0:
95,80,52640,6,0,B|168:67|168:67|266:124,1,150.000005722046,4|8,0:0|0:0,0:0:0:0:
240,299,52940,1,0,0:0:0:0:
217,303,53015,1,0,0:0:0:0:
195,308,53090,2,0,P|142:223|159:150,1,150.000005722046,8|0,0:0|0:0,0:0:0:0:
298,16,53390,1,8,0:0:0:0:
331,174,53540,1,0,0:0:0:0:
331,174,53615,1,0,0:0:0:0:
331,174,53690,1,8,0:0:0:0:
453,59,53840,5,2,0:3:0:0:
238,101,53990,1,8,0:0:0:0:
226,120,54065,1,0,0:0:0:0:
218,141,54140,1,0,0:0:0:0:
215,163,54215,1,0,0:0:0:0:
215,184,54290,2,0,P|250:248|359:279,1,150.000005722046,8|0,0:0|0:0,0:0:0:0:
512,190,54590,2,0,B|446:149|446:149|363:166,1,150.000005722046,8|0,0:0|0:0,0:0:0:0:
353,169,54815,1,0,0:0:0:0:
331,174,54890,1,8,0:0:0:0:
479,290,55040,5,4,0:0:0:0:
382,53,55190,1,2,0:3:0:0:
382,53,55490,2,0,B|255:75|323:-8|110:62,1,200,4|0,0:0|0:0,0:0:0:0:
170,167,55940,5,8,0:0:0:0:
170,167,56040,2,0,P|205:148|282:137,1,66.6666666666667,8|8,0:0|0:0,0:0:0:0:
403,179,56240,6,0,L|416:333,1,134.999995880127,2|0,0:3|0:0,0:0:0:0:
417,335,56540,1,0,0:0:0:0:
417,335,56840,2,0,P|354:282|270:289,1,134.999995880127,2|0,0:3|0:0,0:0:0:0:
282,285,57140,1,0,0:0:0:0:
486,246,57290,6,0,P|391:183|276:176,1,220.000006713867,12|0,0:0|0:0,0:0:0:0:
156,352,57740,2,0,P|159:287|199:230,1,110.000003356934,8|0,0:0|0:0,0:0:0:0:
479,110,58040,6,0,B|436:69|436:69|323:64,1,119.999996337891,8|0,0:0|0:0,0:0:0:0:
53,264,58340,2,0,B|66:199|66:199|128:148,1,129.999994049073,8|0,0:0|0:0,0:0:0:0:
486,246,58640,6,0,P|402:344|260:317,1,279.999991455078,8|8,0:0|0:0,0:0:0:0:
236,21,59090,6,0,P|250:54|252:116,1,67.5000002574921,2|0,0:3|0:0,0:0:0:0:
392,77,59390,6,0,P|372:111|362:157,1,85.0000016212464,2|0,0:3|0:0,0:0:0:0:
71,111,59690,6,0,P|139:125|191:201,1,139.999995727539,4|0,0:0|0:0,0:0:0:0:
16,84,62090,6,0,B|105:90|105:90|147:132|147:132|228:140,1,230.000004386902,4|0,0:0|0:0,0:0:0:0:
379,81,62540,1,8,0:0:0:0:
379,81,62690,1,0,0:0:0:0:
196,243,62840,1,2,0:3:0:0:
388,180,62990,1,0,0:0:0:0:
325,345,63140,2,0,B|295:291|295:291|306:210,1,115.000002193451,8|0,0:0|0:0,0:0:0:0:
477,24,63440,6,0,B|516:70|516:70|498:215,1,172.500003290176,2|0,0:3|0:0,0:0:0:0:
496,206,63740,2,0,P|443:180|371:184,1,115.000002193451,8|0,0:0|0:0,0:0:0:0:
195,319,64040,1,2,0:3:0:0:
195,319,64190,1,0,0:0:0:0:
417,283,64340,1,8,0:0:0:0:
112,243,64490,6,0,P|97:129|169:27,1,230.000004386902,4|0,0:0|0:0,0:0:0:0:
318,225,64940,2,0,B|259:229|259:229|177:186,1,115.000002193451,8|0,0:0|0:0,0:0:0:0:
58,82,65240,1,2,0:3:0:0:
58,82,65390,1,0,0:0:0:0:
280,121,65540,2,0,B|486:98,1,172.500003290176,8|0,0:0|0:0,0:0:0:0:
472,100,65840,5,2,0:3:0:0:
310,14,65990,1,8,0:3:0:0:
310,14,66065,1,8,0:3:0:0:
310,14,66140,1,8,0:0:0:0:
165,212,66290,1,8,0:0:0:0:
466,261,66440,5,8,0:0:0:0:
280,121,66590,2,0,B|262:164|262:164|273:221,1,100,4|8,0:3|0:3,0:0:0:0:
491,362,66890,6,0,P|403:290|313:322,1,179.999994506836,4|0,0:0|0:0,0:0:0:0:
222,378,67340,1,0,0:0:0:0:
222,378,67640,2,0,P|219:286|124:370,1,269.999991760254,8|0,0:0|0:0,0:0:0:0:
289,208,68240,5,8,0:0:0:0:
289,208,68390,2,0,B|198:223|198:223|99:163,1,179.999994506836,8|2,0:0|0:3,0:0:0:0:
235,2,68840,1,8,0:0:0:0:
221,111,68990,1,8,0:3:0:0:
221,111,69140,1,8,0:3:0:0:
488,91,69290,6,0,P|438:33|313:44,1,179.999994506836,4|0,0:0|0:0,0:0:0:0:
221,111,69740,1,0,0:0:0:0:
221,111,70040,2,0,L|108:98,2,89.9999972534181,8|0|0,0:0|0:0|0:0,0:0:0:0:
512,239,70490,1,2,0:0:0:0:
496,270,70565,1,0,0:0:0:0:
465,286,70640,5,8,0:0:0:0:
366,141,70790,1,8,0:0:0:0:
401,140,70865,1,8,0:0:0:0:
430,159,70940,1,8,0:0:0:0:
324,327,71090,1,8,0:0:0:0:
326,293,71165,1,8,0:0:0:0:
328,258,71240,5,8,0:0:0:0:
365,282,71315,1,8,0:0:0:0:
327,306,71390,1,8,0:0:0:0:
290,279,71465,1,8,0:0:0:0:
293,234,71540,1,8,0:0:0:0:
335,219,71615,1,8,0:0:0:0:
376,243,71690,6,0,B|288:252|288:252|240:213|240:213|125:224,1,230.000004386902,4|0,0:0|0:0,0:0:0:0:
29,349,72140,1,8,0:0:0:0:
29,349,72290,1,0,0:0:0:0:
207,321,72440,1,2,0:3:0:0:
50,239,72590,1,0,0:0:0:0:
225,330,72740,2,0,L|366:341,1,115.000002193451,8|0,0:0|0:0,0:0:0:0:
491,141,73040,5,2,0:3:0:0:
491,141,73190,1,0,0:0:0:0:
269,209,73340,1,8,0:0:0:0:
459,247,73490,1,0,0:0:0:0:
411,52,73640,5,2,0:3:0:0:
355,277,73790,1,0,0:0:0:0:
417,35,73940,1,8,0:0:0:0:
255,312,74090,6,0,B|115:326|115:326|12:247,1,230.000004386902,4|0,0:0|0:0,0:0:0:0:
72,94,74540,2,0,P|135:90|204:134,1,115.000002193451,8|0,0:0|0:0,0:0:0:0:
355,277,74840,5,2,0:3:0:0:
355,277,74990,1,0,0:0:0:0:
270,42,75140,1,8,0:0:0:0:
450,154,75290,1,0,0:0:0:0:
164,233,75440,5,8,0:0:0:0:
345,167,75590,1,8,0:3:0:0:
345,167,75665,1,8,0:3:0:0:
345,167,75740,2,0,B|289:144|289:144|223:151,1,115.000002193451,8|8,0:3|0:0,0:0:0:0:
102,324,76040,5,2,0:3:0:0:
269,250,76190,1,8,0:3:0:0:
84,335,76340,1,8,0:0:0:0:
470,323,76490,6,0,P|482:220|431:134,1,179.999994506836,4|0,0:0|0:0,0:0:0:0:
332,117,76940,1,0,0:0:0:0:
332,117,77240,2,0,B|255:154|255:154|141:137,1,179.999994506836,8|0,0:0|0:0,0:0:0:0:
57,64,77690,1,0,0:0:0:0:
57,64,77765,1,0,0:0:0:0:
57,64,77840,5,8,0:0:0:0:
100,240,77990,2,0,L|233:257,1,134.999995880127,8|0,0:0|0:0,0:0:0:0:
255,260,78290,1,0,0:0:0:0:
161,140,78440,5,4,0:3:0:0:
185,362,78590,1,4,0:3:0:0:
185,362,78740,1,4,0:3:0:0:
57,64,78890,6,0,P|130:17|237:31,1,179.999994506836,4|0,0:0|0:0,0:0:0:0:
161,140,79340,1,0,0:0:0:0:
161,140,79640,2,0,L|172:239,1,89.9999972534181,8|0,0:0|0:0,0:0:0:0:
185,362,79940,1,0,0:0:0:0:
185,362,80240,5,8,0:0:0:0:
161,140,80390,1,8,0:0:0:0:
169,111,80465,1,8,0:0:0:0:
177,82,80540,1,8,0:0:0:0:
400,182,80690,1,8,0:0:0:0:
372,194,80765,1,8,0:0:0:0:
344,206,80840,5,8,0:0:0:0:
308,170,80915,1,8,0:0:0:0:
321,121,80990,1,8,0:0:0:0:
364,96,81065,1,8,0:0:0:0:
413,104,81140,1,8,0:0:0:0:
446,140,81215,1,8,0:0:0:0:
450,189,81290,6,0,B|387:199|387:199|343:164|343:164|260:175,1,200,4|2,0:0|0:0,0:0:0:0:
60,279,81740,1,2,0:3:0:0:
179,47,83270,6,0,L|68:33,1,100,2|0,1:3|0:0,0:0:0:0:
79,34,83770,6,0,B|110:95|92:142|80:131|58:182|103:264,1,200,4|0,0:0|0:0,0:0:0:0:
287,305,84269,2,0,P|336:240|341:186,1,100,8|0,0:0|0:0,0:0:0:0:
221,62,84602,1,2,0:3:0:0:
202,68,84686,1,0,0:0:0:0:
414,144,84852,1,0,1:0:0:0:
432,135,84936,2,0,P|409:45|375:17,1,100,8|0,0:0|0:0,0:0:0:0:
129,202,85269,6,0,L|263:217,1,100,2|0,0:3|0:0,0:0:0:0:
451,247,85602,1,8,0:0:0:0:
316,274,85769,1,0,0:0:0:0:
406,41,85936,5,8,0:0:0:0:
360,367,86102,1,8,0:0:0:0:
360,367,86436,6,0,P|300:343|228:349,1,120,4|0,0:0|0:0,0:0:0:0:
230,353,87936,1,8,0:0:0:0:
216,365,89102,6,0,P|307:315|438:339,1,200,4|0,0:0|0:0,0:0:0:0:
136,297,89602,2,0,P|92:267|69:220,1,100,8|0,0:0|0:0,0:0:0:0:
254,26,89936,1,2,0:3:0:0:
158,94,90102,1,8,0:0:0:0:
155,113,90186,1,8,0:0:0:0:
152,132,90269,5,8,0:0:0:0:
167,168,90352,1,8,0:0:0:0:
187,203,90436,2,0,L|267:195,1,50,8|0,0:0|0:0,0:0:0:0:
466,111,90602,5,2,0:3:0:0:
347,80,90769,1,2,0:0:0:0:
344,99,90852,1,0,0:0:0:0:
343,124,90936,1,8,0:0:0:0:
353,157,91019,1,8,0:0:0:0:
368,199,91102,1,8,0:0:0:0:
373,243,91185,1,8,0:0:0:0:
360,286,91269,1,8,0:0:0:0:
323,311,91352,1,8,0:0:0:0:
278,311,91435,1,8,0:0:0:0:
239,286,91519,1,8,0:0:0:0:
226,242,91602,1,8,0:0:0:0:
236,198,91685,1,8,0:0:0:0:
276,169,91769,6,0,B|186:122|186:122|63:144,1,200,4|0,0:0|0:0,0:0:0:0:
9,275,92269,1,2,0:3:0:0:
9,275,93935,1,8,0:0:0:0:
9,275,94435,6,0,B|121:255|86:332|235:294,1,200,4|0,0:0|0:0,0:0:0:0:
398,239,94935,1,2,0:3:0:0:
413,242,96602,6,0,P|396:284|390:342,1,100,8|0,0:3|0:0,0:0:0:0:
389,338,97102,6,0,P|376:241|303:123,1,225.000008583069,4|0,0:0|0:0,0:0:0:0:
507,112,99269,5,8,0:0:0:0:
311,176,99435,1,8,0:3:0:0:
405,207,99602,1,8,0:3:0:0:
197,300,99769,6,0,B|182:230|182:230|204:180|204:180|182:68,1,200,4|0,0:0|0:0,0:0:0:0:
39,49,100269,1,2,0:3:0:0:
259,129,101769,5,0,0:0:0:0:
255,110,101852,1,0,0:0:0:0:
251,91,101935,1,8,0:0:0:0:
229,264,102102,2,0,P|280:235|340:237,1,120,0|0,0:0|0:0,0:0:0:0:
359,247,102435,6,0,B|419:216|419:216|434:71,1,200,4|0,0:0|0:0,0:0:0:0:
267,23,102935,2,0,L|279:161,1,100,8|0,0:0|0:0,0:0:0:0:
155,342,103269,1,2,0:3:0:0:
130,346,103352,1,0,0:0:0:0:
156,186,103519,1,8,0:0:0:0:
133,175,103602,1,0,1:1:0:0:
321,344,103769,6,0,P|435:349|512:281,1,200,2|0,0:3|0:0,0:0:0:0:
308,156,104269,2,0,P|274:232|285:281,1,100,8|0,0:0|0:0,0:0:0:0:
452,66,104602,1,2,0:3:0:0:
457,41,104685,1,0,0:0:0:0:
254,50,104852,1,0,1:0:0:0:
252,25,104935,1,8,0:0:0:0:
446,205,105102,6,0,B|388:151|388:151|285:157,1,160,4|0,0:0|0:0,0:0:0:0:
172,169,105602,1,0,0:0:0:0:
172,169,105935,2,0,P|228:247|216:333,1,160,8|0,0:0|0:0,0:0:0:0:
75,109,106435,6,0,B|132:57|132:57|249:71,1,160,2|0,0:3|0:0,0:0:0:0:
398,89,106935,2,0,L|307:80,1,80,2|0,0:3|0:0,0:0:0:0:
118,13,107269,5,8,0:0:0:0:
255,223,107435,1,2,0:3:0:0:
255,223,107769,6,0,P|110:219|38:289,1,230.000004386902,4|0,0:0|0:0,0:0:0:0:
327,305,108269,2,0,B|359:259|359:259|352:147,1,115.000002193451,10|0,0:0|0:0,0:0:0:0:
115,22,108602,5,10,0:0:0:0:
136,178,108768,1,0,0:0:0:0:
318,77,108935,1,8,0:0:0:0:
39,113,109102,5,2,0:0:0:0:
236,219,109269,2,0,B|246:163|246:163|216:108,1,115.000002193451,8|0,0:0|0:0,0:0:0:0:
0,278,109602,2,0,L|130:287,1,115.000002193451,10|2,0:0|0:0,0:0:0:0:
137,290,109852,1,0,0:0:0:0:
159,293,109935,1,8,0:0:0:0:
95,83,110102,5,8,0:0:0:0:
70,114,110185,1,8,0:0:0:0:
81,152,110269,1,8,0:0:0:0:
119,162,110352,1,8,0:0:0:0:
156,148,110435,6,0,B|299:135|299:135|387:217,1,230.000004386902,4|0,0:0|0:0,0:0:0:0:
410,351,110935,1,10,0:0:0:0:
233,247,111102,5,0,0:0:0:0:
439,122,111269,2,0,B|471:173|471:173|459:270,1,115.000002193451,10|2,0:0|0:0,0:0:0:0:
460,250,111519,1,0,0:0:0:0:
457,272,111602,1,8,0:0:0:0:
277,102,111769,6,0,L|321:97,1,37.5000014305115,2|0,0:3|0:0,0:0:0:0:
263,115,112102,6,0,L|310:110,1,37.5000014305115,2|0,0:3|0:0,0:0:0:0:
251,128,112435,6,0,L|339:118,1,75.0000028610231,2|0,0:3|0:0,0:0:0:0:
145,144,112935,1,8,0:0:0:0:
403,323,113102,6,0,B|359:265|359:265|219:247,1,200,4|0,0:0|0:0,0:0:0:0:
44,316,113602,2,0,L|178:307,1,100,8|0,0:0|0:0,0:0:0:0:
313,146,113935,1,2,0:3:0:0:
288,152,114019,1,0,0:0:0:0:
398,34,114185,1,0,1:0:0:0:
373,27,114269,1,8,0:0:0:0:
334,314,114435,6,0,P|403:224|416:101,1,200,2|0,0:3|0:0,0:0:0:0:
237,268,114935,2,0,L|119:256,1,100,8|0,0:0|0:0,0:0:0:0:
211,10,115269,1,2,0:3:0:0:
234,17,115352,1,0,0:0:0:0:
288,152,115519,1,0,1:0:0:0:
313,146,115602,1,8,0:0:0:0:
9,134,115769,6,0,P|88:92|174:104,1,160,2|0,0:3|0:0,0:0:0:0:
237,268,116269,1,0,0:0:0:0:
237,268,116602,2,0,P|190:217|76:208,1,160,8|0,0:0|0:0,0:0:0:0:
179,367,117102,6,0,B|263:376|263:376|351:322,1,160,2|0,0:3|0:0,0:0:0:0:
296,76,117602,2,0,P|226:107|202:137,1,80,2|0,0:3|0:0,0:0:0:0:
436,368,117935,5,8,0:0:0:0:
314,178,118102,1,2,0:3:0:0:
314,178,118435,6,0,B|233:187|233:187|182:154|182:154|94:165,1,230.000004386902,4|0,0:0|0:0,0:0:0:0:
261,80,118935,1,10,0:0:0:0:
155,263,119102,1,0,0:0:0:0:
417,171,119269,5,10,0:0:0:0:
417,171,119435,2,0,P|425:211|426:248,1,57.5000010967255,2|0,0:0|0:0,0:0:0:0:
276,347,119602,5,8,0:0:0:0:
276,347,119769,2,0,P|278:306|292:259,1,57.5000010967255,2|0,0:0|0:0,0:0:0:0:
261,80,119935,6,0,P|199:49|119:62,1,115.000002193451,10|0,0:0|0:0,0:0:0:0:
6,180,120269,1,10,0:0:0:0:
6,180,120435,2,0,P|40:169|109:163,1,57.5000010967255,2|0,0:0|0:0,0:0:0:0:
320,186,120602,5,8,0:0:0:0:
167,294,120769,1,8,0:3:0:0:
153,278,120852,1,8,0:3:0:0:
148,259,120935,1,8,0:3:0:0:
151,239,121019,1,8,0:3:0:0:
162,222,121102,5,4,0:0:0:0:
103,379,121269,2,0,P|63:339|44:285,1,115.000002193451,2|2,0:0|0:0,0:0:0:0:
42,262,121519,1,0,0:0:0:0:
45,239,121602,1,8,0:0:0:0:
255,330,121769,1,0,0:0:0:0:
227,106,121935,5,10,0:0:0:0:
178,216,122102,1,0,0:0:0:0:
413,165,122269,1,8,0:0:0:0:
124,21,122435,6,0,P|96:23|74:31,1,37.5000014305115,2|0,0:3|0:0,0:0:0:0:
122,125,122769,2,0,P|100:142|88:159,1,37.5000014305115,2|0,0:3|0:0,0:0:0:0:
178,216,123102,1,4,0:0:0:0:
256,192,123185,12,2,127935,0:3:0:0:
60,300,128602,6,0,B|41:250|41:250|47:199,1,100,6|8,0:0|0:0,0:0:0:0:
251,282,129602,2,0,B|219:324|219:324|170:343,1,100,2|0,0:0|0:0,0:0:0:0:
120,117,130602,2,0,L|178:124,1,50,2|0,0:0|0:0,0:0:0:0:
352,215,131268,6,0,B|403:220|403:220|456:192,1,100,4|8,0:0|0:0,0:0:0:0:
487,32,132268,1,0,0:0:0:0:
487,32,132602,2,0,L|481:87,1,50,6|0,0:0|0:0,0:0:0:0:
244,200,133268,6,0,L|248:175,1,25,8|0,0:0|0:0,0:0:0:0:
343,238,133602,2,0,L|355:210,1,25,8|8,0:3|0:3,0:0:0:0:
262,305,133935,6,0,B|213:318|213:318|161:311,1,100,6|8,0:0|0:0,0:0:0:0:
44,213,134935,1,2,0:0:0:0:
44,213,135268,2,0,L|97:207,1,50,4|0,0:0|0:0,0:0:0:0:
276,135,135935,2,0,L|224:129,1,50,10|0,0:0|0:0,0:0:0:0:
55,55,136602,6,0,B|93:24|93:24|153:19,1,100,4|8,0:0|0:0,0:0:0:0:
277,136,137602,2,0,B|328:140|328:140|376:123,1,100,0|0,0:0|0:0,0:0:0:0:
133,144,138602,6,0,L|127:177,1,25,8|0,0:0|0:0,0:0:0:0:
218,217,138935,2,0,L|220:245,1,25,8|0,0:3|0:0,0:0:0:0:
162,372,139268,6,0,B|203:345|203:345|256:342,1,100,4|8,0:0|0:0,0:0:0:0:
475,360,140268,2,0,B|424:358|424:358|375:332,1,100,2|0,0:0|0:0,0:0:0:0:
447,182,141268,2,0,L|450:234,1,50,2|0,0:0|0:0,0:0:0:0:
250,185,141935,6,0,B|251:134|251:134|279:89,1,100,4|8,0:0|0:0,0:0:0:0:
193,283,142935,2,0,B|159:245|159:245|144:194,1,100,2|0,0:0|0:0,0:0:0:0:
377,216,143935,6,0,L|375:249,1,25,8|0,0:0|0:0,0:0:0:0:
477,178,144268,2,0,L|482:212,1,25,8|0,0:3|0:0,0:0:0:0:
394,110,144601,6,0,B|343:103|343:103|299:117|299:117|243:111,1,150,4|2,0:0|0:0,0:0:0:0:
95,57,145935,2,0,B|136:90|136:90|145:139|145:139|127:189,1,150,4|2,0:0|0:0,0:0:0:0:
57,313,147268,6,0,L|99:320,1,34.9999989318848,8|0,0:3|0:0,0:0:0:0:
100,320,147518,1,0,0:0:0:0:
109,321,147601,6,0,P|174:280|272:292,1,150,8|0,0:0|0:0,0:0:0:0:
263,290,147935,1,8,0:0:0:0:
263,290,148268,2,0,P|246:244|251:193,1,75.0000028610231,0|0,0:0|0:0,0:0:0:0:
346,19,148601,5,8,0:0:0:0:
390,32,148682,1,8,0:0:0:0:
430,56,148763,1,8,0:0:0:0:
463,89,148844,1,8,0:0:0:0:
488,128,148925,1,8,0:0:0:0:
502,173,149006,1,8,0:0:0:0:
457,154,149087,5,8,0:0:0:0:
445,130,149168,1,8,0:0:0:0:
429,108,149249,1,8,0:0:0:0:
410,90,149330,1,8,0:0:0:0:
387,76,149411,1,8,0:0:0:0:
363,66,149492,1,8,0:0:0:0:
365,117,149573,6,0,P|403:137|422:166,1,75.0000028610231,8|8,0:3|0:3,0:0:0:0:
441,333,149898,6,0,L|445:266,1,59.9999981689454,4|4,0:3|0:3,0:0:0:0:
445,274,150213,6,0,B|339:288|339:288|239:243,1,172.500003290176,12|0,0:0|0:0,0:0:0:0:
248,154,150529,2,0,P|299:130|356:132,1,115.000002193451,2|0,0:3|0:0,0:0:0:0:
200,343,150845,2,0,P|172:281|177:212,1,115.000002193451,8|0,0:0|0:0,0:0:0:0:
284,28,151161,1,2,0:3:0:0:
284,28,151319,1,0,0:0:0:0:
33,176,151476,5,8,0:0:0:0:
248,154,151634,1,0,0:0:0:0:
9,74,151792,5,8,0:0:0:0:
106,100,151950,1,0,0:0:0:0:
135,196,152108,1,0,0:0:0:0:
70,275,152266,6,0,P|135:256|179:315,1,150,2|8,0:0|0:0,0:0:0:0:
178,314,153371,1,8,0:0:0:0:
178,314,153845,2,0,L|223:318,1,25,8|8,0:3|0:3,0:0:0:0:
301,322,154003,5,8,0:0:0:0:
255,226,154161,1,8,0:0:0:0:
310,341,154319,5,8,0:0:0:0:
404,301,154476,1,8,0:3:0:0:
471,379,154634,1,4,0:3:0:0:
255,226,154792,6,0,B|245:115|245:115|290:62,1,179.999994506836,4|0,0:0|0:0,0:0:0:0:
413,11,155266,1,0,0:0:0:0:
413,11,155582,2,0,B|339:51|281:25|290:13|237:-13|140:35,1,269.999991760254,8|0,0:0|0:0,0:0:0:0:
135,49,156134,1,0,0:0:0:0:
126,69,156213,5,8,0:0:0:0:
288,238,156371,2,0,P|294:183|225:122,1,134.999995880127,8|0,0:0|0:0,0:0:0:0:
221,122,156687,1,0,0:0:0:0:
221,324,156845,5,8,0:0:0:0:
377,306,157003,1,8,0:3:0:0:
377,306,157161,1,8,0:3:0:0:
119,340,157319,6,0,B|73:280|73:280|81:141,1,179.999994506836,4|0,0:0|0:0,0:0:0:0:
135,49,157792,1,0,0:0:0:0:
135,49,158108,2,0,B|232:83|215:17|338:73,1,179.999994506836,8|0,0:0|0:0,0:0:0:0:
282,225,158582,1,0,0:0:0:0:
259,198,158661,1,0,0:0:0:0:
256,163,158740,5,8,0:0:0:0:
383,271,158898,1,8,0:0:0:0:
371,304,158977,1,8,0:0:0:0:
342,324,159056,1,8,0:0:0:0:
374,154,159213,1,8,0:0:0:0:
408,159,159292,1,8,0:0:0:0:
441,163,159371,6,0,P|488:166|526:153,1,57.5000010967255,8|8,0:0|0:0,0:0:0:0:
296,84,159529,2,0,P|269:123|262:162,1,59.9999981689454,8|8,0:0|0:0,0:0:0:0:
468,60,159687,2,0,P|447:17|416:-8,1,59.9999981689454,8|8,0:0|0:0,0:0:0:0:
174,22,159845,6,0,B|159:164|159:164|216:262,1,230.000004386902,4|0,0:0|0:0,0:0:0:0:
393,263,160319,1,8,0:0:0:0:
393,263,160476,1,0,0:0:0:0:
189,344,160634,1,2,0:3:0:0:
301,197,160792,1,0,0:0:0:0:
171,352,160950,2,0,L|53:363,1,115.000002193451,8|0,0:0|0:0,0:0:0:0:
112,94,161266,6,0,P|172:100|221:133,1,115.000002193451,2|0,0:3|0:0,0:0:0:0:
310,344,161582,1,8,0:0:0:0:
310,344,161740,1,0,0:0:0:0:
409,164,161898,5,2,0:3:0:0:
187,235,162055,1,0,0:0:0:0:
429,159,162213,1,8,0:0:0:0:
193,347,162371,6,0,P|110:353|11:307,1,172.500003290176,4|0,0:0|0:0,0:0:0:0:
14,302,162687,1,0,0:0:0:0:
167,68,162845,1,8,0:0:0:0:
187,235,163003,1,0,0:0:0:0:
375,50,163161,6,0,P|410:59|439:79,1,57.5000010967255,2|0,0:3|0:0,0:0:0:0:
312,157,163476,6,0,P|347:153|377:157,1,57.5000010967255,8|0,0:0|0:0,0:0:0:0:
256,331,163792,6,0,P|336:265|381:270,1,115.000002193451,2|8,0:3|0:3,0:0:0:0:
361,269,164029,1,8,0:3:0:0:
378,278,164108,1,8,0:3:0:0:
187,235,164266,1,8,0:0:0:0:
474,349,164424,5,8,0:3:0:0:
474,349,164503,1,8,0:3:0:0:
474,349,164582,1,8,0:3:0:0:
449,126,164740,1,8,0:0:0:0:
208,341,164898,6,0,B|144:344|144:344|108:315|108:315|9:325,1,179.999994506836,4|0,0:0|0:0,0:0:0:0:
187,235,165371,1,0,0:0:0:0:
187,235,165687,2,0,P|178:142|239:69,1,179.999994506836,8|0,0:0|0:0,0:0:0:0:
357,41,166161,1,0,0:0:0:0:
362,62,166240,1,0,0:0:0:0:
367,83,166319,5,8,0:0:0:0:
285,178,166476,2,0,P|361:137|481:168,1,179.999994506836,8|0,0:0|0:0,0:0:0:0:
462,325,166950,5,8,0:0:0:0:
275,287,167108,1,8,0:3:0:0:
381,242,167266,1,8,0:3:0:0:
207,377,167424,6,0,B|166:318|166:318|178:205,1,179.999994506836,4|0,0:0|0:0,0:0:0:0:
198,69,167898,1,0,0:0:0:0:
198,69,168213,2,0,P|117:77|46:165,1,179.999994506836,8|0,0:0|0:0,0:0:0:0:
108,300,168687,1,0,0:0:0:0:
138,308,168766,1,0,0:0:0:0:
163,315,168845,5,8,0:0:0:0:
232,195,169003,1,8,0:0:0:0:
202,203,169082,1,8,0:0:0:0:
177,210,169161,5,8,0:0:0:0:
299,282,169319,1,8,0:0:0:0:
291,85,169476,5,8,0:0:0:0:
140,114,169634,1,8,0:3:0:0:
375,207,169792,1,4,0:3:0:0:
200,31,169950,6,0,L|174:239,1,179.999994506836,4|0,0:0|0:0,0:0:0:0:
157,362,170434,5,8,0:3:0:0:
240,290,171086,1,8,0:3:0:0:
177,209,171738,1,8,0:3:0:0:
94,279,172390,1,8,0:3:0:0:
157,362,173042,1,8,0:3:0:0:
253,60,173694,5,8,0:0:0:0:
13,136,173858,6,0,B|58:138|88:120|88:120|103:120|122:131|122:131|139:126|156:114|156:114|192:161|234:182|317:157,1,297.999983857728,4|0,0:0|0:0,0:0:0:0:
19,32,174354,1,8,0:0:0:0:
311,331,174521,6,0,B|399:348|430:271|430:271|379:226|379:226|401:198|401:198|386:162|395:102,1,320,4|0,0:0|0:0,0:0:0:0:
487,378,175021,1,8,0:0:0:0:
259,56,175187,6,0,B|289:34|345:35|345:35|376:11|376:11|428:25|428:25|464:3|510:3|510:3|514:55|435:116,1,340.000006484985,6|0,0:0|0:0,0:0:0:0:
341,269,175687,2,0,P|274:193|404:200,1,255.000004863739,2|0,0:3|0:0,0:0:0:0:
444,240,176021,2,0,P|520:248|546:240,2,85.0000016212464,8|8|4,0:3|0:3|0:3,0:0:0:0:
