osu file format v14

[General]
AudioFilename: audio.mp3
AudioLeadIn: 0
PreviewTime: 59990
Countdown: 0
SampleSet: None
StackLeniency: 0.7
Mode: 3
LetterboxInBreaks: 0
SpecialStyle: 0
WidescreenStoryboard: 1

[Editor]
DistanceSpacing: 1.2
BeatDivisor: 4
GridSize: 4
TimelineZoom: 2.5

[Metadata]
Title:She Sings In The Morning
TitleUnicode:She Sings In The Morning
Artist:Pierce The Veil
ArtistUnicode:Pierce The Veil
Creator:Abraxos
Version:hard
Source:
Tags:flair for dramatic metal punk post hardcore puxtu Soul Evans
BeatmapID:1139501
BeatmapSetID:537792

[Difficulty]
HPDrainRate:8
CircleSize:4
OverallDifficulty:7.5
ApproachRate:5
SliderMultiplier:1.4
SliderTickRate:1

[Events]
//Background and Video events
0,0,"stolenfrompuxtu.jpg",0,0
//Break Periods
//Storyboard Layer 0 (Background)
//Storyboard Layer 1 (Fail)
//Storyboard Layer 2 (Pass)
//Storyboard Layer 3 (Foreground)
//Storyboard Sound Samples

[TimingPoints]
223,342.857142857143,4,3,4,40,1,0
223,-97.2222222222222,4,3,4,40,0,0
25999,292.682926829268,4,3,4,40,1,0
25999,-113.888888888889,4,3,4,40,0,0
28340,300,4,3,4,40,1,0
28340,-111.111111111111,4,3,4,40,0,0
51140,300,5,3,4,40,1,0
51140,-111.111111111111,5,3,4,40,0,0
52640,300,4,3,4,40,1,0
52640,-111.111111111111,4,3,4,40,0,0
83270,333.333333333333,4,3,4,40,1,0
83936,333.333333333333,4,3,4,40,1,0
128602,333.333333333333,4,3,4,40,1,1
148601,324.324324324324,4,3,4,40,1,0
148601,-102.777777777778,4,3,4,40,0,0
149898,315.789473684211,4,3,4,40,1,0
149898,-105.555555555555,4,3,4,40,0,0
170108,326.086956521739,4,3,4,40,1,0
170108,-102.222222222222,4,3,4,40,0,0
173858,-102.222222222222,4,3,4,40,0,1
174021,333.333333333333,4,3,4,40,1,1
175187,-100,4,3,4,40,0,0

[HitObjects]
64,192,223,5,8,0:0:0:0:
448,192,223,1,4,0:0:0:0:
320,192,480,1,12,0:0:0:0:
192,192,565,1,8,0:0:0:0:
64,192,565,1,4,0:0:0:0:
64,192,737,1,8,0:0:0:0:
448,192,737,1,4,0:0:0:0:
192,192,908,1,4,0:0:0:0:
448,192,908,1,8,0:0:0:0:
320,192,1080,1,4,0:0:0:0:
64,192,1080,1,0,0:0:0:0:
64,192,1251,1,4,0:0:0:0:
192,192,1251,1,0,0:0:0:0:
320,192,1423,1,4,0:0:0:0:
448,192,1423,1,2,0:0:0:0:
64,192,1765,1,4,0:0:0:0:
320,192,1765,1,0,0:0:0:0:
192,192,1937,1,8,0:0:0:0:
64,192,1937,1,4,0:0:0:0:
320,192,2108,1,4,0:0:0:0:
448,192,2108,1,0,0:0:0:0:
320,192,2280,1,4,0:0:0:0:
192,192,2280,1,8,0:0:0:0:
64,192,2451,1,4,0:0:0:0:
448,192,2451,1,0,0:0:0:0:
320,192,2623,1,4,0:0:0:0:
64,192,2623,1,8,0:0:0:0:
192,192,2794,1,2,0:0:0:0:
448,192,2794,1,4,0:0:0:0:
320,192,3137,1,4,0:0:0:0:
448,192,3137,1,0,0:0:0:0:
448,192,3308,1,4,0:0:0:0:
64,192,3308,1,8,0:0:0:0:
320,192,3480,1,4,0:0:0:0:
192,192,3480,1,0,0:0:0:0:
192,192,3651,1,4,0:0:0:0:
64,192,3651,1,8,0:0:0:0:
320,192,3823,1,4,0:0:0:0:
448,192,3823,1,0,0:0:0:0:
192,192,3994,1,4,0:0:0:0:
448,192,3994,1,8,0:0:0:0:
320,192,4165,1,4,0:0:0:0:
64,192,4165,1,2,0:0:0:0:
64,192,4508,1,4,0:0:0:0:
448,192,4508,1,0,0:0:0:0:
320,192,4680,1,8,0:0:0:0:
64,192,4680,1,4,0:0:0:0:
192,192,4851,1,4,0:0:0:0:
448,192,4851,1,0,0:0:0:0:
320,192,5023,1,4,0:0:0:0:
448,192,5023,1,8,0:0:0:0:
192,192,5194,1,0,0:0:0:0:
64,192,5194,1,4,0:0:0:0:
64,192,5365,1,4,0:0:0:0:
448,192,5365,1,8,0:0:0:0:
320,192,5537,1,2,0:0:0:0:
192,192,5537,1,4,0:0:0:0:
64,192,5880,1,4,0:0:0:0:
192,192,5965,1,4,0:0:0:0:
320,192,6051,1,4,0:0:0:0:
448,192,6051,1,8,0:0:0:0:
192,192,6223,1,4,0:0:0:0:
64,192,6223,1,0,0:0:0:0:
448,192,6565,1,4,0:0:0:0:
320,192,6651,1,4,0:0:0:0:
192,192,6737,1,4,0:0:0:0:
64,192,6737,1,8,0:0:0:0:
320,192,6908,1,4,0:0:0:0:
448,192,6908,1,2,0:0:0:0:
192,192,7251,1,4,0:0:0:0:
64,192,7337,1,4,0:0:0:0:
448,192,7423,1,8,0:0:0:0:
320,192,7423,1,4,0:0:0:0:
192,192,7594,1,4,0:0:0:0:
64,192,7594,1,0,0:0:0:0:
192,192,7765,1,4,0:0:0:0:
448,192,7765,1,8,0:0:0:0:
320,192,7937,1,4,0:0:0:0:
448,192,8023,1,4,0:0:0:0:
192,192,8108,1,4,0:0:0:0:
64,192,8108,1,8,0:0:0:0:
448,192,8280,1,2,0:0:0:0:
320,192,8280,1,4,0:0:0:0:
64,192,8623,1,4,0:0:0:0:
448,192,8708,1,4,0:0:0:0:
320,192,8794,1,4,0:0:0:0:
192,192,8794,1,8,0:0:0:0:
64,192,8965,1,4,0:0:0:0:
448,192,8965,1,0,0:0:0:0:
320,192,9137,1,4,0:0:0:0:
448,192,9137,1,8,0:0:0:0:
192,192,9308,1,4,0:0:0:0:
320,192,9394,1,4,0:0:0:0:
448,192,9480,1,4,0:0:0:0:
64,192,9480,1,8,0:0:0:0:
320,192,9651,1,4,0:0:0:0:
192,192,9651,1,2,0:0:0:0:
320,192,9994,1,4,0:0:0:0:
64,192,10080,1,4,0:0:0:0:
448,192,10165,1,8,0:0:0:0:
192,192,10165,1,4,0:0:0:0:
320,192,10337,1,4,0:0:0:0:
64,192,10337,1,0,0:0:0:0:
320,192,10508,1,4,0:0:0:0:
448,192,10508,1,8,0:0:0:0:
192,192,10680,1,4,0:0:0:0:
448,192,10765,1,4,0:0:0:0:
320,192,10851,1,4,0:0:0:0:
64,192,10851,1,8,0:0:0:0:
192,192,11023,1,4,0:0:0:0:
448,192,11023,1,0,0:0:0:0:
320,192,11194,1,12,0:0:0:0:
64,192,11280,1,12,0:0:0:0:
448,192,11365,1,12,0:0:0:0:
192,192,11451,1,12,0:0:0:0:
64,192,11537,1,12,0:0:0:0:
192,192,11880,1,0,0:0:0:0:
320,192,11965,1,0,0:0:0:0:
448,192,12051,1,0,0:0:0:0:
64,192,12137,1,0,0:0:0:0:
192,192,12223,1,0,0:0:0:0:
192,192,12565,1,4,0:0:0:0:
64,192,12565,1,2,0:0:0:0:
320,192,12908,1,0,2:0:0:0:
448,192,13251,1,0,2:0:0:0:
64,192,13594,1,0,2:0:0:0:
448,192,13937,1,8,0:0:0:0:
192,192,13937,1,4,0:0:0:0:
320,192,14280,1,0,2:0:0:0:
64,192,14623,1,0,2:0:0:0:
320,192,14965,1,0,2:0:0:0:
192,192,15137,1,4,0:0:0:0:
64,192,15137,1,2,0:0:0:0:
448,192,15480,1,4,0:0:0:0:
320,192,15480,1,0,0:0:0:0:
192,192,15651,1,8,0:0:0:0:
64,192,15651,1,4,0:0:0:0:
448,192,15823,1,4,0:0:0:0:
320,192,15823,1,0,0:0:0:0:
448,192,15994,1,4,0:0:0:0:
192,192,15994,1,0,0:0:0:0:
192,192,16251,1,4,0:0:0:0:
320,192,16337,1,4,0:0:0:0:
448,192,16337,1,8,0:0:0:0:
192,192,16508,1,4,0:0:0:0:
64,192,16508,1,0,0:0:0:0:
320,192,16680,1,4,0:0:0:0:
64,192,16680,1,0,0:0:0:0:
64,192,16937,1,4,0:0:0:0:
320,192,17023,1,4,0:0:0:0:
448,192,17023,1,8,0:0:0:0:
448,192,17194,1,4,0:0:0:0:
64,192,17194,1,0,0:0:0:0:
192,192,17365,1,4,0:0:0:0:
320,192,17365,1,8,0:0:0:0:
192,192,17880,1,2,0:0:0:0:
64,192,17880,1,4,0:0:0:0:
320,192,18394,1,0,2:0:0:0:
192,192,18737,1,0,2:0:0:0:
64,192,19080,1,0,2:0:0:0:
448,192,19423,1,4,0:0:0:0:
192,192,19423,1,8,0:0:0:0:
320,192,19765,1,0,2:0:0:0:
448,192,20108,1,0,2:0:0:0:
64,192,20451,1,0,2:0:0:0:
192,192,20623,1,4,0:0:0:0:
448,192,20623,1,2,0:0:0:0:
320,192,20965,1,4,0:0:0:0:
192,192,20965,1,0,0:0:0:0:
64,192,21137,1,8,0:0:0:0:
448,192,21137,1,4,0:0:0:0:
448,192,21308,1,4,0:0:0:0:
320,192,21308,1,0,0:0:0:0:
192,192,21480,1,4,0:0:0:0:
64,192,21480,1,0,0:0:0:0:
320,192,21651,1,4,0:0:0:0:
192,192,21737,1,12,0:0:0:0:
448,192,21823,1,4,0:0:0:0:
64,192,21823,1,8,0:0:0:0:
320,192,21908,1,12,0:0:0:0:
192,192,21994,1,4,0:0:0:0:
320,192,22165,1,4,0:0:0:0:
64,192,22165,1,0,0:0:0:0:
192,192,22508,1,4,0:0:0:0:
320,192,22594,1,8,0:0:0:0:
448,192,22680,1,12,0:0:0:0:
64,192,22765,1,12,0:0:0:0:
448,192,22851,1,12,0:0:0:0:
64,192,22937,1,12,0:0:0:0:
320,192,23023,1,12,0:0:0:0:
192,192,23108,1,4,0:0:0:0:
448,192,23194,1,4,0:0:0:0:
64,192,23194,1,0,0:0:0:0:
320,192,23280,1,4,0:0:0:0:
64,192,23365,1,2,0:0:0:0:
192,192,23365,128,4,24223:0:0:0:0:
320,192,25999,1,0,2:0:0:0:
448,192,25999,1,0,2:0:0:0:
192,192,26072,1,0,2:0:0:0:
64,192,26145,1,0,2:0:0:0:
320,192,26218,1,0,2:0:0:0:
448,192,26291,1,0,2:0:0:0:
192,192,26364,1,0,2:0:0:0:
320,192,26438,1,0,2:0:0:0:
64,192,26511,1,0,2:0:0:0:
448,192,26584,1,0,2:0:0:0:
192,192,26657,1,0,2:0:0:0:
64,192,26730,1,0,2:0:0:0:
320,192,26803,1,0,2:0:0:0:
192,192,26877,1,0,2:0:0:0:
448,192,26950,1,0,2:0:0:0:
64,192,27023,1,0,2:0:0:0:
192,192,27096,1,0,2:0:0:0:
320,192,27169,1,0,2:0:0:0:
64,192,27242,1,0,2:0:0:0:
448,192,27316,1,0,2:0:0:0:
320,192,27389,1,0,2:0:0:0:
192,192,27462,1,0,2:0:0:0:
64,192,27535,1,0,2:0:0:0:
448,192,27608,1,0,2:0:0:0:
192,192,27681,1,0,2:0:0:0:
320,192,27755,1,0,2:0:0:0:
64,192,27828,1,0,2:0:0:0:
192,192,27901,1,0,2:0:0:0:
320,192,27974,1,0,2:0:0:0:
448,192,28047,1,0,2:0:0:0:
64,192,28047,128,0,28340:2:0:0:0:
320,192,28340,1,4,0:0:0:0:
448,192,28340,1,4,0:0:0:0:
320,192,29540,1,0,0:0:0:0:
192,192,29840,1,0,0:0:0:0:
192,192,30140,1,0,0:0:0:0:
320,192,30590,1,0,0:0:0:0:
192,192,31040,1,0,0:0:0:0:
192,192,31340,1,0,0:0:0:0:
448,192,31790,1,2,0:0:0:0:
320,192,31790,1,0,0:0:0:0:
192,192,31940,1,0,0:0:0:0:
192,192,32240,1,0,0:0:0:0:
192,192,32540,1,0,0:0:0:0:
64,192,32540,1,0,0:0:0:0:
320,192,32990,1,0,0:0:0:0:
192,192,33140,1,4,0:0:0:0:
64,192,33140,1,2,0:0:0:0:
448,192,33290,1,8,0:0:0:0:
320,192,33290,1,4,0:0:0:0:
192,192,33590,1,4,0:0:0:0:
64,192,33590,1,8,0:0:0:0:
64,192,33890,1,4,0:0:0:0:
192,192,33890,1,8,0:0:0:0:
192,192,34190,1,4,0:0:0:0:
64,192,34190,1,8,0:0:0:0:
320,192,34490,1,4,0:0:0:0:
448,192,34490,1,8,0:0:0:0:
448,192,34790,1,4,0:0:0:0:
320,192,34790,1,8,0:0:0:0:
320,192,35090,1,4,0:0:0:0:
448,192,35090,1,8,0:0:0:0:
448,192,35390,1,4,0:0:0:0:
320,192,35390,1,8,0:0:0:0:
192,192,35540,1,2,0:0:0:0:
64,192,35540,1,4,0:0:0:0:
448,192,35690,1,4,0:0:0:0:
320,192,35690,1,8,0:0:0:0:
192,192,35840,1,4,0:0:0:0:
320,192,35915,1,4,0:0:0:0:
448,192,35990,1,8,0:0:0:0:
64,192,35990,1,4,0:0:0:0:
320,192,36140,1,4,0:0:0:0:
192,192,36140,1,0,0:0:0:0:
448,192,36290,1,8,0:0:0:0:
64,192,36290,1,4,0:0:0:0:
192,192,36440,1,4,0:0:0:0:
64,192,36515,1,4,0:0:0:0:
320,192,36590,1,8,0:0:0:0:
448,192,36590,1,4,0:0:0:0:
192,192,36740,1,8,0:0:0:0:
64,192,36740,1,0,0:0:0:0:
448,192,36815,1,0,0:0:0:0:
320,192,36890,1,0,0:0:0:0:
192,192,36965,1,0,0:0:0:0:
64,192,37040,1,0,0:0:0:0:
448,192,37115,1,0,0:0:0:0:
192,192,37190,1,8,0:0:0:0:
320,192,37190,1,0,0:0:0:0:
64,192,37265,1,0,0:0:0:0:
448,192,37340,1,0,0:0:0:0:
320,192,37415,1,0,0:0:0:0:
64,192,37490,1,0,0:0:0:0:
192,192,37565,1,0,0:0:0:0:
320,192,37640,1,0,0:0:0:0:
448,192,37640,1,4,0:0:0:0:
64,192,37715,1,4,0:0:0:0:
320,192,37790,1,4,0:0:0:0:
192,192,37865,1,4,0:0:0:0:
448,192,37940,1,4,0:0:0:0:
64,192,37940,1,2,0:0:0:0:
192,192,38090,1,0,0:0:0:0:
448,192,38240,1,4,0:0:0:0:
192,192,38315,1,0,0:0:0:0:
320,192,38390,1,8,0:0:0:0:
448,192,38390,1,4,0:0:0:0:
192,192,38540,1,0,0:0:0:0:
64,192,38540,1,4,0:0:0:0:
192,192,38690,1,8,0:0:0:0:
320,192,38690,1,4,0:0:0:0:
448,192,38840,1,4,0:0:0:0:
320,192,38915,1,0,0:0:0:0:
192,192,38990,1,4,0:0:0:0:
64,192,38990,1,8,0:0:0:0:
320,192,39140,1,4,0:0:0:0:
448,192,39140,1,0,0:0:0:0:
320,192,39290,1,4,0:0:0:0:
64,192,39290,1,8,0:0:0:0:
192,192,39440,1,4,0:0:0:0:
448,192,39515,1,0,0:0:0:0:
64,192,39590,1,4,0:0:0:0:
192,192,39590,1,8,0:0:0:0:
320,192,39740,1,4,0:0:0:0:
448,192,39740,1,0,0:0:0:0:
64,192,39890,1,8,0:0:0:0:
448,192,39890,1,4,0:0:0:0:
192,192,40040,1,4,0:0:0:0:
320,192,40115,1,0,0:0:0:0:
64,192,40190,1,8,0:0:0:0:
448,192,40190,1,4,0:0:0:0:
192,192,40340,1,0,0:0:0:0:
320,192,40340,1,4,0:0:0:0:
192,192,40490,1,8,0:0:0:0:
64,192,40490,1,4,0:0:0:0:
448,192,40640,1,4,0:0:0:0:
64,192,40715,1,0,0:0:0:0:
192,192,40790,1,8,0:0:0:0:
448,192,40790,1,4,0:0:0:0:
320,192,40940,1,4,0:0:0:0:
64,192,40940,1,0,0:0:0:0:
192,192,41090,1,4,0:0:0:0:
64,192,41090,1,8,0:0:0:0:
320,192,41240,1,4,0:0:0:0:
448,192,41315,1,0,0:0:0:0:
192,192,41390,1,4,0:0:0:0:
64,192,41390,1,8,0:0:0:0:
320,192,41540,1,4,0:0:0:0:
448,192,41540,1,0,0:0:0:0:
320,192,41690,1,4,0:0:0:0:
192,192,41690,1,8,0:0:0:0:
64,192,41840,1,4,0:0:0:0:
320,192,41915,1,0,0:0:0:0:
192,192,41990,1,4,0:0:0:0:
64,192,41990,1,8,0:0:0:0:
320,192,42140,1,4,0:0:0:0:
448,192,42140,1,0,0:0:0:0:
448,192,42290,1,4,0:0:0:0:
64,192,42290,1,8,0:0:0:0:
192,192,42440,1,4,0:0:0:0:
320,192,42515,1,0,0:0:0:0:
448,192,42590,1,8,0:0:0:0:
64,192,42590,1,4,0:0:0:0:
192,192,42740,1,0,0:0:0:0:
320,192,42740,1,4,0:0:0:0:
192,192,42890,1,8,0:0:0:0:
64,192,42890,1,4,0:0:0:0:
448,192,43040,1,4,0:0:0:0:
192,192,43115,1,0,0:0:0:0:
448,192,43190,1,8,0:0:0:0:
64,192,43190,1,4,0:0:0:0:
320,192,43340,1,0,0:0:0:0:
192,192,43340,1,4,0:0:0:0:
320,192,43490,1,4,0:0:0:0:
448,192,43490,1,8,0:0:0:0:
192,192,43640,1,4,0:0:0:0:
320,192,43715,1,0,0:0:0:0:
64,192,43790,1,4,0:0:0:0:
448,192,43790,1,8,0:0:0:0:
192,192,43940,1,4,0:0:0:0:
320,192,43940,1,0,0:0:0:0:
192,192,44090,1,4,0:0:0:0:
448,192,44090,1,8,0:0:0:0:
320,192,44240,1,4,0:0:0:0:
192,192,44315,1,0,0:0:0:0:
320,192,44390,1,4,0:0:0:0:
448,192,44390,1,8,0:0:0:0:
192,192,44540,1,4,0:0:0:0:
64,192,44540,1,0,0:0:0:0:
192,192,44690,1,8,0:0:0:0:
448,192,44690,1,4,0:0:0:0:
320,192,44840,1,4,0:0:0:0:
192,192,44915,1,0,0:0:0:0:
64,192,44990,1,0,0:0:0:0:
320,192,45140,1,12,0:0:0:0:
192,192,45190,1,8,0:0:0:0:
64,192,45240,1,8,0:0:0:0:
448,192,45290,1,8,0:0:0:0:
192,192,45365,1,4,0:0:0:0:
320,192,45440,1,4,0:0:0:0:
64,192,45590,1,8,0:0:0:0:
448,192,45590,1,4,0:0:0:0:
448,192,45890,1,8,0:0:0:0:
320,192,45890,1,4,0:0:0:0:
64,192,46190,1,4,0:0:0:0:
448,192,46190,1,8,0:0:0:0:
320,192,46340,1,4,0:0:0:0:
64,192,46340,1,8,0:0:0:0:
64,192,46490,1,8,0:0:0:0:
320,192,46490,1,4,0:0:0:0:
192,192,46640,1,4,0:0:0:0:
448,192,46640,1,0,0:0:0:0:
192,192,46790,1,4,0:0:0:0:
448,192,46790,1,0,0:0:0:0:
320,192,46940,1,4,0:0:0:0:
448,192,46940,1,0,0:0:0:0:
192,192,47090,1,4,0:0:0:0:
320,192,47090,1,0,0:0:0:0:
192,192,47240,1,4,0:0:0:0:
64,192,47240,1,8,0:0:0:0:
192,192,47540,1,4,0:0:0:0:
320,192,47540,1,2,0:0:0:0:
192,192,47690,1,4,0:0:0:0:
64,192,47690,1,8,0:0:0:0:
448,192,47840,1,4,0:0:0:0:
64,192,47915,1,0,0:0:0:0:
192,192,47990,1,8,0:0:0:0:
448,192,47990,1,4,0:0:0:0:
320,192,48140,1,4,0:0:0:0:
64,192,48140,1,0,0:0:0:0:
320,192,48290,1,8,0:0:0:0:
448,192,48290,1,4,0:0:0:0:
192,192,48440,1,4,0:0:0:0:
448,192,48515,1,0,0:0:0:0:
64,192,48590,1,4,0:0:0:0:
320,192,48590,1,8,0:0:0:0:
192,192,48740,1,4,0:0:0:0:
448,192,48740,1,0,0:0:0:0:
192,192,48890,1,4,0:0:0:0:
320,192,48890,1,8,0:0:0:0:
64,192,49040,1,4,0:0:0:0:
320,192,49115,1,0,0:0:0:0:
192,192,49190,1,4,0:0:0:0:
64,192,49190,1,8,0:0:0:0:
320,192,49340,1,4,0:0:0:0:
448,192,49340,1,0,0:0:0:0:
320,192,49490,1,8,0:0:0:0:
192,192,49490,1,4,0:0:0:0:
64,192,49640,1,4,0:0:0:0:
320,192,49715,1,0,0:0:0:0:
192,192,49790,1,8,0:0:0:0:
448,192,49790,1,4,0:0:0:0:
320,192,49940,1,0,0:0:0:0:
64,192,49940,1,4,0:0:0:0:
448,192,50090,1,8,0:0:0:0:
64,192,50090,1,4,0:0:0:0:
192,192,50240,1,4,0:0:0:0:
320,192,50315,1,0,0:0:0:0:
64,192,50390,1,8,0:0:0:0:
192,192,50390,1,4,0:0:0:0:
320,192,50540,1,4,0:0:0:0:
448,192,50540,1,0,0:0:0:0:
448,192,50690,1,4,0:0:0:0:
64,192,50690,1,8,0:0:0:0:
320,192,50840,1,4,0:0:0:0:
192,192,50915,1,0,0:0:0:0:
448,192,50990,1,4,0:0:0:0:
64,192,50990,1,8,0:0:0:0:
320,192,51140,128,4,51327:0:0:0:0:
192,192,51327,128,12,51515:0:0:0:0:
64,192,51515,128,12,51665:0:0:0:0:
448,192,51665,128,4,51890:0:0:0:0:
320,192,51890,128,12,52115:0:0:0:0:
192,192,52115,128,12,52340:0:0:0:0:
64,192,52340,128,4,52640:0:0:0:0:
448,192,52340,1,8,0:0:0:0:
320,192,52640,1,4,0:0:0:0:
448,192,52640,1,0,0:0:0:0:
192,192,52790,1,4,0:0:0:0:
448,192,52790,1,8,0:0:0:0:
320,192,52940,1,4,0:0:0:0:
192,192,53015,1,0,0:0:0:0:
320,192,53090,1,8,0:0:0:0:
448,192,53090,1,4,0:0:0:0:
192,192,53240,1,0,0:0:0:0:
64,192,53240,1,4,0:0:0:0:
192,192,53390,1,8,0:0:0:0:
320,192,53390,1,4,0:0:0:0:
448,192,53540,1,4,0:0:0:0:
192,192,53615,1,0,0:0:0:0:
64,192,53690,1,4,0:0:0:0:
320,192,53690,1,8,0:0:0:0:
192,192,53840,1,4,0:0:0:0:
448,192,53840,1,0,0:0:0:0:
448,192,53990,1,4,0:0:0:0:
64,192,53990,1,8,0:0:0:0:
320,192,54140,1,4,0:0:0:0:
192,192,54215,1,0,0:0:0:0:
320,192,54290,1,4,0:0:0:0:
64,192,54290,1,8,0:0:0:0:
448,192,54440,1,4,0:0:0:0:
192,192,54440,1,0,0:0:0:0:
448,192,54590,1,8,0:0:0:0:
320,192,54590,1,4,0:0:0:0:
64,192,54740,1,4,0:0:0:0:
192,192,54740,1,0,0:0:0:0:
320,192,54890,1,8,0:0:0:0:
192,192,54890,1,4,0:0:0:0:
64,192,55040,1,4,0:0:0:0:
448,192,55040,1,0,0:0:0:0:
448,192,55190,1,4,0:0:0:0:
64,192,55190,1,0,0:0:0:0:
320,192,55490,1,8,0:0:0:0:
192,192,55490,1,4,0:0:0:0:
320,192,55940,1,4,0:0:0:0:
448,192,55940,1,8,0:0:0:0:
192,192,56040,1,4,0:0:0:0:
64,192,56040,1,8,0:0:0:0:
320,192,56140,1,8,0:0:0:0:
448,192,56140,1,4,0:0:0:0:
192,192,56240,1,8,0:0:0:0:
64,192,56240,1,4,0:0:0:0:
64,192,56540,1,4,0:0:0:0:
192,192,56540,1,0,0:0:0:0:
320,192,56840,1,8,0:0:0:0:
64,192,56840,1,4,0:0:0:0:
64,192,57140,1,4,0:0:0:0:
192,192,57140,1,0,0:0:0:0:
320,192,57290,1,8,0:0:0:0:
64,192,57290,1,4,0:0:0:0:
448,192,57740,1,8,0:0:0:0:
320,192,57740,1,4,0:0:0:0:
448,192,58040,1,8,0:0:0:0:
192,192,58040,1,4,0:0:0:0:
320,192,58340,1,8,0:0:0:0:
448,192,58340,1,4,0:0:0:0:
192,192,58640,1,8,0:0:0:0:
448,192,58640,1,4,0:0:0:0:
192,192,58940,1,4,0:0:0:0:
64,192,58940,1,8,0:0:0:0:
320,192,59090,1,8,0:0:0:0:
192,192,59090,1,4,0:0:0:0:
320,192,59390,1,8,0:0:0:0:
192,192,59390,1,4,0:0:0:0:
64,192,59690,1,8,0:0:0:0:
320,192,59690,1,4,0:0:0:0:
448,192,59690,1,0,0:0:0:0:
192,192,60140,1,0,2:0:0:0:
320,192,60440,1,0,2:0:0:0:
192,192,60740,1,0,2:0:0:0:
320,192,61040,1,0,2:0:0:0:
192,192,61340,1,0,2:0:0:0:
320,192,61640,1,0,2:0:0:0:
192,192,61940,1,0,2:0:0:0:
320,192,62090,1,2,0:0:0:0:
448,192,62090,1,4,0:0:0:0:
64,192,62090,1,0,0:0:0:0:
320,192,62390,1,0,0:0:0:0:
320,192,62540,1,4,0:0:0:0:
192,192,62540,1,8,0:0:0:0:
64,192,62690,1,0,0:0:0:0:
192,192,62840,1,4,0:0:0:0:
192,192,62990,1,0,0:0:0:0:
320,192,63140,1,4,0:0:0:0:
64,192,63140,1,8,0:0:0:0:
448,192,63290,1,0,0:0:0:0:
320,192,63440,1,4,0:0:0:0:
320,192,63590,1,0,0:0:0:0:
192,192,63740,1,4,0:0:0:0:
64,192,63740,1,8,0:0:0:0:
448,192,63890,1,0,0:0:0:0:
192,192,64040,1,4,0:0:0:0:
192,192,64190,1,0,0:0:0:0:
320,192,64340,1,8,0:0:0:0:
448,192,64340,1,4,0:0:0:0:
320,192,64490,1,2,0:0:0:0:
64,192,64490,1,0,0:0:0:0:
64,192,64790,1,0,0:0:0:0:
64,192,64940,1,4,0:0:0:0:
320,192,64940,1,8,0:0:0:0:
192,192,65090,1,0,0:0:0:0:
448,192,65240,1,4,0:0:0:0:
448,192,65390,1,0,0:0:0:0:
320,192,65540,1,4,0:0:0:0:
192,192,65540,1,8,0:0:0:0:
448,192,65690,1,0,0:0:0:0:
64,192,65840,1,4,0:0:0:0:
64,192,65990,1,0,0:0:0:0:
192,192,66065,1,0,0:0:0:0:
320,192,66140,1,4,0:0:0:0:
448,192,66140,1,8,0:0:0:0:
448,192,66290,1,0,0:0:0:0:
320,192,66290,1,0,0:0:0:0:
192,192,66440,1,8,0:0:0:0:
64,192,66440,1,4,0:0:0:0:
64,192,66590,1,0,0:0:0:0:
448,192,66590,1,0,0:0:0:0:
192,192,66740,1,4,0:0:0:0:
320,192,66740,1,0,0:0:0:0:
320,192,66890,1,2,0:0:0:0:
448,192,66890,1,4,0:0:0:0:
192,192,67190,1,4,0:0:0:0:
192,192,67340,1,4,0:0:0:0:
320,192,67490,1,0,0:0:0:0:
64,192,67640,1,8,0:0:0:0:
448,192,67640,128,4,68140:0:0:0:0:
192,192,67790,1,0,0:0:0:0:
320,192,67940,1,0,0:0:0:0:
192,192,68140,1,0,0:0:0:0:
64,192,68240,1,8,0:0:0:0:
320,192,68240,1,4,0:0:0:0:
320,192,68390,1,8,0:0:0:0:
64,192,68390,1,4,0:0:0:0:
448,192,68540,1,0,0:0:0:0:
192,192,68690,1,4,0:0:0:0:
192,192,68840,1,8,0:0:0:0:
320,192,68840,1,4,0:0:0:0:
448,192,68990,1,4,0:0:0:0:
64,192,68990,1,0,0:0:0:0:
192,192,69140,1,4,0:0:0:0:
448,192,69140,1,0,0:0:0:0:
320,192,69290,1,2,0:0:0:0:
192,192,69290,1,4,0:0:0:0:
320,192,69590,1,4,0:0:0:0:
320,192,69740,1,4,0:0:0:0:
192,192,69890,1,0,0:0:0:0:
64,192,70040,1,8,0:0:0:0:
448,192,70040,1,4,0:0:0:0:
320,192,70190,1,0,0:0:0:0:
192,192,70340,1,0,2:0:0:0:
320,192,70490,1,0,0:0:0:0:
192,192,70565,1,0,0:0:0:0:
64,192,70640,1,8,0:0:0:0:
448,192,70640,1,4,0:0:0:0:
320,192,70790,1,8,0:0:0:0:
192,192,70865,1,8,0:0:0:0:
320,192,70940,1,8,0:0:0:0:
448,192,70940,1,4,0:0:0:0:
192,192,71090,1,8,0:0:0:0:
320,192,71165,1,8,0:0:0:0:
192,192,71240,1,4,0:0:0:0:
64,192,71240,1,8,0:0:0:0:
448,192,71315,1,8,0:0:0:0:
320,192,71390,1,8,0:0:0:0:
192,192,71465,1,8,0:0:0:0:
64,192,71540,1,8,0:0:0:0:
320,192,71615,1,8,0:0:0:0:
448,192,71690,1,6,0:0:0:0:
192,192,71690,1,4,0:0:0:0:
320,192,71990,1,0,0:0:0:0:
320,192,72140,1,4,0:0:0:0:
64,192,72140,1,8,0:0:0:0:
64,192,72290,1,0,0:0:0:0:
448,192,72440,1,4,0:0:0:0:
448,192,72590,1,0,0:0:0:0:
320,192,72740,1,4,0:0:0:0:
192,192,72740,1,8,0:0:0:0:
192,192,72890,1,0,0:0:0:0:
64,192,73040,1,4,0:0:0:0:
64,192,73190,1,0,0:0:0:0:
192,192,73340,1,4,0:0:0:0:
448,192,73340,1,8,0:0:0:0:
448,192,73490,1,0,0:0:0:0:
192,192,73640,1,4,0:0:0:0:
192,192,73790,1,0,0:0:0:0:
64,192,73940,1,8,0:0:0:0:
448,192,73940,1,4,0:0:0:0:
64,192,74090,1,6,0:0:0:0:
64,192,74390,1,0,0:0:0:0:
64,192,74540,1,4,0:0:0:0:
448,192,74540,1,8,0:0:0:0:
448,192,74690,1,0,0:0:0:0:
192,192,74840,1,4,0:0:0:0:
192,192,74990,1,0,0:0:0:0:
320,192,75140,1,4,0:0:0:0:
448,192,75140,1,8,0:0:0:0:
320,192,75290,1,0,0:0:0:0:
192,192,75440,1,4,0:0:0:0:
448,192,75440,1,8,0:0:0:0:
192,192,75590,1,4,0:0:0:0:
320,192,75740,1,0,0:0:0:0:
320,192,75890,1,4,0:0:0:0:
192,192,75890,1,8,0:0:0:0:
64,192,76040,1,12,0:0:0:0:
64,192,76190,1,0,0:0:0:0:
448,192,76190,1,0,0:0:0:0:
192,192,76340,1,4,0:0:0:0:
320,192,76340,1,8,0:0:0:0:
320,192,76490,1,2,0:0:0:0:
448,192,76490,1,4,0:0:0:0:
64,192,76790,1,4,0:0:0:0:
448,192,76790,1,0,0:0:0:0:
448,192,76940,1,4,0:0:0:0:
64,192,76940,1,0,0:0:0:0:
320,192,77090,1,0,0:0:0:0:
192,192,77240,1,8,0:0:0:0:
64,192,77240,1,4,0:0:0:0:
64,192,77540,1,0,2:0:0:0:
320,192,77840,1,8,0:0:0:0:
448,192,77840,1,4,0:0:0:0:
448,192,77990,1,8,0:0:0:0:
320,192,77990,1,4,0:0:0:0:
64,192,78140,1,0,2:0:0:0:
192,192,78290,1,4,0:0:0:0:
320,192,78440,1,8,0:0:0:0:
448,192,78440,1,4,0:0:0:0:
192,192,78590,1,4,0:0:0:0:
192,192,78740,1,4,0:0:0:0:
64,192,78890,1,2,0:0:0:0:
448,192,78890,1,4,0:0:0:0:
320,192,79190,1,4,0:0:0:0:
320,192,79340,1,4,0:0:0:0:
192,192,79490,1,0,0:0:0:0:
64,192,79640,1,8,0:0:0:0:
448,192,79640,1,4,0:0:0:0:
320,192,79790,1,0,0:0:0:0:
192,192,79940,1,0,2:0:0:0:
448,192,80090,1,4,0:0:0:0:
192,192,80165,1,0,0:0:0:0:
320,192,80240,1,4,0:0:0:0:
448,192,80240,1,8,0:0:0:0:
64,192,80390,1,12,0:0:0:0:
320,192,80465,1,12,0:0:0:0:
192,192,80540,1,8,0:0:0:0:
64,192,80540,1,4,0:0:0:0:
320,192,80690,1,4,0:0:0:0:
192,192,80765,1,12,0:0:0:0:
320,192,80840,1,12,0:0:0:0:
448,192,80840,1,8,0:0:0:0:
64,192,80915,1,8,0:0:0:0:
192,192,80990,1,8,0:0:0:0:
320,192,81065,1,8,0:0:0:0:
448,192,81140,1,8,0:0:0:0:
192,192,81215,1,8,0:0:0:0:
320,192,81290,1,2,0:0:0:0:
64,192,81290,1,4,0:0:0:0:
192,192,81590,1,0,0:0:0:0:
448,192,81590,1,4,0:0:0:0:
448,192,81740,1,4,0:0:0:0:
64,192,81740,1,2,0:0:0:0:
320,192,82040,1,0,2:0:0:0:
448,192,82340,1,0,2:0:0:0:
64,192,82640,1,0,2:0:0:0:
192,192,82940,1,0,2:0:0:0:
448,192,83270,1,2,0:0:0:0:
64,192,83270,1,0,0:0:0:0:
320,192,83270,1,4,0:0:0:0:
192,192,83770,1,2,0:0:0:0:
64,192,83770,1,4,0:0:0:0:
320,192,84102,1,4,0:0:0:0:
448,192,84269,1,4,0:0:0:0:
64,192,84269,1,8,0:0:0:0:
192,192,84436,1,4,0:0:0:0:
192,192,84602,1,4,0:0:0:0:
320,192,84852,1,4,0:0:0:0:
64,192,84936,1,4,0:0:0:0:
192,192,84936,1,8,0:0:0:0:
320,192,85102,1,4,0:0:0:0:
448,192,85269,1,4,0:0:0:0:
448,192,85436,1,4,0:0:0:0:
192,192,85602,1,4,0:0:0:0:
64,192,85602,1,8,0:0:0:0:
320,192,85769,1,0,0:0:0:0:
448,192,85936,1,8,0:0:0:0:
64,192,85936,1,0,0:0:0:0:
64,192,86102,1,8,0:0:0:0:
448,192,86102,1,0,0:0:0:0:
192,192,86436,1,4,0:0:0:0:
448,192,86436,1,2,0:0:0:0:
320,192,86936,1,0,2:0:0:0:
192,192,87269,1,0,2:0:0:0:
448,192,87602,1,0,2:0:0:0:
64,192,87936,1,4,0:0:0:0:
192,192,87936,1,8,0:0:0:0:
320,192,88269,1,0,2:0:0:0:
192,192,88602,1,0,2:0:0:0:
448,192,88936,1,0,2:0:0:0:
320,192,89102,1,2,0:0:0:0:
64,192,89102,1,4,0:0:0:0:
320,192,89436,1,4,0:0:0:0:
192,192,89602,1,4,0:0:0:0:
64,192,89602,1,0,0:0:0:0:
448,192,89769,1,4,0:0:0:0:
448,192,89936,1,4,0:0:0:0:
320,192,90186,1,12,0:0:0:0:
64,192,90269,1,12,0:0:0:0:
448,192,90352,1,12,0:0:0:0:
192,192,90436,1,4,0:0:0:0:
320,192,90436,1,0,0:0:0:0:
320,192,90602,1,4,0:0:0:0:
192,192,90769,1,0,0:0:0:0:
320,192,90852,1,0,0:0:0:0:
64,192,90936,1,12,0:0:0:0:
448,192,91019,1,12,0:0:0:0:
64,192,91102,1,12,0:0:0:0:
320,192,91185,1,12,0:0:0:0:
448,192,91269,1,12,0:0:0:0:
192,192,91352,1,12,0:0:0:0:
448,192,91435,1,12,0:0:0:0:
320,192,91519,1,12,0:0:0:0:
64,192,91602,1,12,0:0:0:0:
448,192,91685,1,12,0:0:0:0:
64,192,91769,1,4,0:0:0:0:
192,192,91769,1,2,0:0:0:0:
448,192,92102,1,4,0:0:0:0:
448,192,92269,1,4,0:0:0:0:
192,192,92269,1,0,0:0:0:0:
320,192,92602,1,0,2:0:0:0:
64,192,92935,1,0,2:0:0:0:
320,192,93269,1,0,2:0:0:0:
192,192,93602,1,0,2:0:0:0:
320,192,93935,1,8,0:0:0:0:
448,192,93935,1,4,0:0:0:0:
192,192,94269,1,0,2:0:0:0:
320,192,94435,1,2,0:0:0:0:
64,192,94435,1,4,0:0:0:0:
192,192,94769,1,4,0:0:0:0:
448,192,94769,1,0,0:0:0:0:
192,192,94935,1,4,0:0:0:0:
448,192,94935,1,0,0:0:0:0:
64,192,95269,1,0,2:0:0:0:
320,192,95602,1,0,2:0:0:0:
192,192,95935,1,0,2:0:0:0:
448,192,96269,1,0,2:0:0:0:
320,192,96602,1,8,0:0:0:0:
192,192,96602,1,4,0:0:0:0:
192,192,97102,1,2,0:0:0:0:
64,192,97102,1,4,0:0:0:0:
320,192,97602,1,0,2:0:0:0:
192,192,97935,1,0,2:0:0:0:
448,192,98269,1,0,2:0:0:0:
64,192,98602,1,0,2:0:0:0:
320,192,98935,1,0,2:0:0:0:
192,192,99269,1,4,0:0:0:0:
448,192,99269,1,8,0:0:0:0:
64,192,99435,1,4,0:0:0:0:
64,192,99602,1,4,0:0:0:0:
320,192,99769,1,2,0:0:0:0:
448,192,99769,1,4,0:0:0:0:
192,192,100102,1,4,0:0:0:0:
320,192,100269,1,0,0:0:0:0:
448,192,100269,1,4,0:0:0:0:
320,192,100602,1,0,2:0:0:0:
192,192,100602,1,0,0:0:0:0:
192,192,100935,1,0,2:0:0:0:
64,192,100935,1,0,0:0:0:0:
64,192,101269,1,0,2:0:0:0:
448,192,101269,1,0,0:0:0:0:
192,192,101602,1,0,2:0:0:0:
448,192,101602,1,0,0:0:0:0:
320,192,101769,1,4,0:0:0:0:
192,192,101852,1,4,0:0:0:0:
320,192,101935,1,8,0:0:0:0:
448,192,101935,1,4,0:0:0:0:
320,192,102435,1,2,0:0:0:0:
64,192,102435,1,4,0:0:0:0:
192,192,102769,1,4,0:0:0:0:
320,192,102935,1,4,0:0:0:0:
448,192,102935,1,8,0:0:0:0:
192,192,103102,1,0,0:0:0:0:
192,192,103269,1,4,0:0:0:0:
64,192,103269,1,0,0:0:0:0:
320,192,103519,1,4,0:0:0:0:
448,192,103602,1,4,0:0:0:0:
64,192,103602,1,8,0:0:0:0:
192,192,103769,1,4,0:0:0:0:
320,192,103769,1,0,0:0:0:0:
448,192,104102,1,0,0:0:0:0:
320,192,104269,1,8,0:0:0:0:
64,192,104269,1,4,0:0:0:0:
448,192,104435,1,0,0:0:0:0:
448,192,104602,1,4,0:0:0:0:
192,192,104602,1,0,0:0:0:0:
64,192,104852,1,4,0:0:0:0:
192,192,104935,1,4,0:0:0:0:
320,192,104935,1,8,0:0:0:0:
448,192,105102,1,0,0:0:0:0:
64,192,105102,1,4,0:0:0:0:
320,192,105435,1,4,0:0:0:0:
192,192,105602,1,4,0:0:0:0:
448,192,105602,1,0,0:0:0:0:
192,192,105935,1,8,0:0:0:0:
64,192,105935,1,4,0:0:0:0:
320,192,106269,1,0,0:0:0:0:
64,192,106435,1,4,0:0:0:0:
448,192,106435,1,0,0:0:0:0:
192,192,106769,1,4,0:0:0:0:
448,192,106769,1,0,0:0:0:0:
320,192,106935,1,4,0:0:0:0:
64,192,106935,1,0,0:0:0:0:
192,192,107102,1,4,0:0:0:0:
448,192,107102,1,0,0:0:0:0:
320,192,107269,1,4,0:0:0:0:
64,192,107269,1,8,0:0:0:0:
192,192,107435,1,4,0:0:0:0:
64,192,107435,1,0,0:0:0:0:
320,192,107769,1,2,0:0:0:0:
448,192,107769,1,4,0:0:0:0:
192,192,108102,1,4,0:0:0:0:
64,192,108269,1,4,0:0:0:0:
320,192,108269,1,8,0:0:0:0:
448,192,108435,1,4,0:0:0:0:
192,192,108602,1,4,0:0:0:0:
320,192,108602,1,8,0:0:0:0:
64,192,108769,1,4,0:0:0:0:
448,192,108935,1,4,0:0:0:0:
320,192,108935,1,8,0:0:0:0:
192,192,109102,1,4,0:0:0:0:
64,192,109269,1,4,0:0:0:0:
448,192,109269,1,8,0:0:0:0:
320,192,109435,1,4,0:0:0:0:
192,192,109602,1,4,0:0:0:0:
64,192,109602,1,8,0:0:0:0:
320,192,109769,1,4,0:0:0:0:
192,192,109935,1,4,0:0:0:0:
448,192,109935,1,0,0:0:0:0:
64,192,110102,1,12,0:0:0:0:
320,192,110185,1,12,0:0:0:0:
64,192,110269,1,12,0:0:0:0:
192,192,110352,1,12,0:0:0:0:
320,192,110435,1,4,0:0:0:0:
448,192,110435,1,0,0:0:0:0:
320,192,110769,1,4,0:0:0:0:
192,192,110935,1,4,0:0:0:0:
64,192,110935,1,8,0:0:0:0:
320,192,111102,1,4,0:0:0:0:
448,192,111269,1,4,0:0:0:0:
64,192,111269,1,8,0:0:0:0:
192,192,111435,1,4,0:0:0:0:
320,192,111602,1,4,0:0:0:0:
448,192,111602,1,8,0:0:0:0:
192,192,111769,1,4,0:0:0:0:
64,192,111769,1,0,0:0:0:0:
192,192,112102,1,4,0:0:0:0:
320,192,112102,1,0,0:0:0:0:
320,192,112435,1,4,0:0:0:0:
448,192,112435,1,0,0:0:0:0:
192,192,112769,1,4,0:0:0:0:
320,192,112769,1,0,0:0:0:0:
320,192,112935,1,4,0:0:0:0:
448,192,112935,1,8,0:0:0:0:
192,192,113102,1,4,0:0:0:0:
64,192,113102,1,2,0:0:0:0:
64,192,113435,1,4,0:0:0:0:
192,192,113602,1,4,0:0:0:0:
448,192,113602,1,8,0:0:0:0:
64,192,113769,1,0,0:0:0:0:
320,192,113935,1,4,0:0:0:0:
64,192,113935,1,0,0:0:0:0:
448,192,114185,1,4,0:0:0:0:
320,192,114269,1,4,0:0:0:0:
64,192,114269,1,8,0:0:0:0:
192,192,114435,1,0,0:0:0:0:
448,192,114435,1,4,0:0:0:0:
320,192,114769,1,0,0:0:0:0:
192,192,114935,1,8,0:0:0:0:
448,192,114935,1,4,0:0:0:0:
192,192,115269,1,4,0:0:0:0:
64,192,115269,1,0,0:0:0:0:
64,192,115519,1,4,0:0:0:0:
192,192,115602,1,4,0:0:0:0:
448,192,115602,1,8,0:0:0:0:
320,192,115769,1,4,0:0:0:0:
64,192,115769,1,0,0:0:0:0:
192,192,116102,1,4,0:0:0:0:
448,192,116269,1,4,0:0:0:0:
192,192,116269,1,0,0:0:0:0:
320,192,116602,1,8,0:0:0:0:
448,192,116602,1,4,0:0:0:0:
192,192,116935,1,0,0:0:0:0:
320,192,117102,1,4,0:0:0:0:
448,192,117102,1,0,0:0:0:0:
64,192,117435,1,4,0:0:0:0:
448,192,117435,1,0,0:0:0:0:
192,192,117602,1,0,0:0:0:0:
320,192,117602,1,4,0:0:0:0:
64,192,117769,1,4,0:0:0:0:
448,192,117769,1,0,0:0:0:0:
192,192,117935,1,4,0:0:0:0:
320,192,117935,1,8,0:0:0:0:
320,192,118102,1,4,0:0:0:0:
448,192,118102,1,0,0:0:0:0:
64,192,118435,1,2,0:0:0:0:
448,192,118435,1,4,0:0:0:0:
320,192,118769,1,4,0:0:0:0:
192,192,118935,1,4,0:0:0:0:
64,192,118935,1,8,0:0:0:0:
320,192,119102,1,4,0:0:0:0:
64,192,119269,1,12,0:0:0:0:
448,192,119269,1,8,0:0:0:0:
192,192,119435,1,4,0:0:0:0:
320,192,119602,1,4,0:0:0:0:
448,192,119602,1,8,0:0:0:0:
192,192,119769,1,4,0:0:0:0:
64,192,119935,1,4,0:0:0:0:
448,192,119935,1,8,0:0:0:0:
320,192,120102,1,4,0:0:0:0:
192,192,120269,1,4,0:0:0:0:
64,192,120269,1,8,0:0:0:0:
320,192,120435,1,4,0:0:0:0:
64,192,120602,1,4,0:0:0:0:
448,192,120602,1,0,0:0:0:0:
320,192,120769,1,4,0:0:0:0:
192,192,120852,1,4,0:0:0:0:
448,192,120935,1,4,0:0:0:0:
320,192,121019,1,4,0:0:0:0:
192,192,121102,1,4,0:0:0:0:
64,192,121102,1,2,0:0:0:0:
320,192,121435,1,4,0:0:0:0:
192,192,121602,1,4,0:0:0:0:
448,192,121602,1,8,0:0:0:0:
64,192,121769,1,4,0:0:0:0:
320,192,121935,1,4,0:0:0:0:
448,192,121935,1,8,0:0:0:0:
192,192,122102,1,4,0:0:0:0:
64,192,122269,1,4,0:0:0:0:
448,192,122269,1,8,0:0:0:0:
192,192,122435,1,4,0:0:0:0:
64,192,122435,1,0,0:0:0:0:
320,192,122769,1,4,0:0:0:0:
64,192,122769,1,0,0:0:0:0:
64,192,123102,1,2,0:0:0:0:
448,192,123102,128,4,125935:0:0:0:0:
448,192,127935,1,6,0:0:0:0:
192,192,127935,1,0,0:0:0:0:
448,192,128269,1,2,0:0:0:0:
448,192,128602,1,6,0:0:0:0:
64,192,128602,1,2,0:0:0:0:
192,192,128935,1,4,0:2:0:0:
320,192,129268,1,12,0:0:0:0:
448,192,129268,1,4,2:0:0:0:
448,192,129602,1,4,2:0:0:0:
64,192,129602,1,4,0:0:0:0:
320,192,129935,1,4,2:0:0:0:
192,192,130268,1,4,0:0:0:0:
64,192,130268,1,4,2:0:0:0:
64,192,130602,1,4,0:0:0:0:
448,192,130602,1,4,2:0:0:0:
192,192,130935,1,4,2:0:0:0:
320,192,131268,1,6,0:0:0:0:
448,192,131268,1,4,2:0:0:0:
448,192,131602,1,4,0:0:0:0:
64,192,131602,1,4,2:0:0:0:
320,192,131935,1,12,0:0:0:0:
192,192,131935,1,4,2:0:0:0:
192,192,132268,1,4,0:0:0:0:
64,192,132268,1,4,2:0:0:0:
64,192,132602,1,4,2:0:0:0:
448,192,132602,1,4,0:0:0:0:
192,192,132935,1,4,2:0:0:0:
320,192,133268,1,12,0:0:0:0:
448,192,133268,1,4,2:0:0:0:
192,192,133435,1,4,0:0:0:0:
320,192,133602,1,4,0:0:0:0:
192,192,133768,1,4,0:0:0:0:
64,192,133768,1,8,0:0:0:0:
320,192,133935,1,4,2:0:0:0:
448,192,133935,1,4,0:0:0:0:
64,192,134268,1,4,0:0:0:0:
192,192,134268,1,4,2:0:0:0:
64,192,134602,1,12,0:0:0:0:
448,192,134602,1,4,2:0:0:0:
192,192,134935,1,4,2:0:0:0:
320,192,135268,1,4,2:0:0:0:
448,192,135268,1,4,0:0:0:0:
64,192,135602,1,4,2:0:0:0:
448,192,135602,1,4,0:0:0:0:
320,192,135935,1,12,0:0:0:0:
192,192,135935,1,4,2:0:0:0:
192,192,136268,1,4,0:0:0:0:
64,192,136268,1,4,2:0:0:0:
64,192,136602,1,4,2:0:0:0:
448,192,136602,1,4,0:0:0:0:
192,192,136935,1,4,2:0:0:0:
320,192,137268,1,12,0:0:0:0:
448,192,137268,1,4,2:0:0:0:
448,192,137602,1,4,2:0:0:0:
64,192,137602,1,4,0:0:0:0:
192,192,137935,1,4,2:0:0:0:
320,192,138102,1,0,0:0:0:0:
192,192,138268,1,4,0:0:0:0:
64,192,138435,1,0,0:0:0:0:
192,192,138602,1,12,0:0:0:0:
448,192,138602,1,4,2:0:0:0:
320,192,138768,1,4,0:0:0:0:
192,192,138935,1,4,0:0:0:0:
64,192,138935,1,0,0:0:0:0:
192,192,139102,1,4,0:0:0:0:
320,192,139268,1,4,2:0:0:0:
448,192,139268,1,6,0:0:0:0:
192,192,139602,1,4,2:0:0:0:
64,192,139935,1,12,0:0:0:0:
448,192,139935,1,4,2:0:0:0:
192,192,140268,1,4,0:0:0:0:
64,192,140268,1,4,2:0:0:0:
320,192,140602,1,4,2:0:0:0:
64,192,140935,1,4,0:0:0:0:
448,192,140935,1,4,2:0:0:0:
448,192,141268,1,4,0:0:0:0:
320,192,141268,1,4,2:0:0:0:
192,192,141602,1,4,2:0:0:0:
64,192,141935,1,4,2:0:0:0:
448,192,141935,1,4,0:0:0:0:
192,192,142268,1,4,0:0:0:0:
64,192,142268,1,4,2:0:0:0:
320,192,142602,1,12,0:0:0:0:
192,192,142602,1,4,2:0:0:0:
448,192,142935,1,4,0:0:0:0:
64,192,142935,1,4,2:0:0:0:
448,192,143268,1,4,2:0:0:0:
320,192,143268,1,4,0:0:0:0:
192,192,143601,1,4,2:0:0:0:
64,192,143935,1,12,0:0:0:0:
448,192,143935,1,4,2:0:0:0:
192,192,144101,1,4,0:0:0:0:
448,192,144268,1,4,0:0:0:0:
192,192,144435,1,12,0:0:0:0:
320,192,144601,1,4,2:0:0:0:
448,192,144601,1,4,0:0:0:0:
64,192,144935,1,4,0:0:0:0:
448,192,144935,1,4,2:0:0:0:
192,192,145268,1,4,2:0:0:0:
64,192,145268,1,12,0:0:0:0:
320,192,145601,1,4,2:0:0:0:
64,192,145935,1,4,2:0:0:0:
448,192,145935,1,4,0:0:0:0:
320,192,146268,1,4,2:0:0:0:
448,192,146268,1,4,0:0:0:0:
192,192,146601,1,12,0:0:0:0:
320,192,146601,1,4,2:0:0:0:
64,192,146935,1,4,2:0:0:0:
448,192,146935,1,4,0:0:0:0:
64,192,147268,1,4,0:0:0:0:
448,192,147435,1,4,0:0:0:0:
320,192,147518,1,4,0:0:0:0:
192,192,147601,1,12,0:0:0:0:
64,192,147601,1,4,2:0:0:0:
192,192,147935,1,12,0:0:0:0:
64,192,147935,1,4,2:0:0:0:
320,192,148268,1,4,0:0:0:0:
192,192,148435,1,4,0:0:0:0:
64,192,148601,1,4,0:0:0:0:
448,192,148601,1,0,0:0:0:0:
320,192,148682,1,8,0:0:0:0:
192,192,148763,128,0,148925:0:0:0:0:
64,192,148763,128,8,148925:0:0:0:0:
448,192,148925,1,8,0:0:0:0:
320,192,149006,1,8,0:0:0:0:
192,192,149087,1,4,0:0:0:0:
64,192,149087,1,0,0:0:0:0:
320,192,149168,1,0,0:0:0:0:
448,192,149249,1,8,0:0:0:0:
64,192,149330,1,8,0:0:0:0:
320,192,149411,128,8,149573:0:0:0:0:
448,192,149411,128,0,149573:0:0:0:0:
64,192,149573,1,4,0:0:0:0:
192,192,149573,1,0,0:0:0:0:
320,192,149655,1,0,0:0:0:0:
192,192,149736,1,4,0:0:0:0:
320,192,149817,1,0,0:0:0:0:
64,192,149898,1,4,0:0:0:0:
448,192,149898,1,0,0:0:0:0:
320,192,150055,1,4,0:0:0:0:
64,192,150213,1,12,0:0:0:0:
448,192,150213,1,0,0:0:0:0:
192,192,150371,1,2,0:0:0:0:
64,192,150529,1,4,0:0:0:0:
64,192,150687,1,4,0:0:0:0:
192,192,150845,1,4,0:0:0:0:
320,192,150845,1,8,0:0:0:0:
448,192,151003,1,0,0:0:0:0:
320,192,151161,1,4,0:0:0:0:
320,192,151319,1,4,0:0:0:0:
64,192,151476,1,4,0:0:0:0:
448,192,151476,1,8,0:0:0:0:
192,192,151634,1,0,0:0:0:0:
448,192,151792,1,4,0:0:0:0:
64,192,151792,1,8,0:0:0:0:
320,192,151950,1,4,0:0:0:0:
192,192,152108,1,4,0:0:0:0:
64,192,152266,1,4,2:0:0:0:
448,192,152266,1,0,0:0:0:0:
192,192,152740,1,8,0:0:0:0:
448,192,152740,1,4,0:0:0:0:
192,192,153371,1,4,0:0:0:0:
448,192,153371,1,8,0:0:0:0:
320,192,153845,1,4,0:0:0:0:
192,192,153924,1,4,0:0:0:0:
64,192,154003,1,8,0:0:0:0:
448,192,154003,1,4,0:0:0:0:
192,192,154161,1,4,0:0:0:0:
320,192,154161,1,8,0:0:0:0:
64,192,154319,1,8,0:0:0:0:
448,192,154319,1,4,0:0:0:0:
320,192,154476,1,4,0:0:0:0:
192,192,154476,1,0,0:0:0:0:
320,192,154634,1,4,0:0:0:0:
64,192,154634,1,0,0:0:0:0:
64,192,154792,1,2,0:0:0:0:
448,192,154792,1,4,0:0:0:0:
448,192,155108,1,4,0:0:0:0:
448,192,155266,1,4,0:0:0:0:
192,192,155424,1,0,0:0:0:0:
448,192,155582,1,8,0:0:0:0:
64,192,155582,1,4,0:0:0:0:
320,192,155740,1,0,0:0:0:0:
192,192,155898,1,0,0:0:0:0:
448,192,156055,1,0,0:0:0:0:
64,192,156134,1,0,0:0:0:0:
192,192,156213,1,8,0:0:0:0:
320,192,156213,1,4,0:0:0:0:
192,192,156371,1,8,0:0:0:0:
64,192,156371,1,4,0:0:0:0:
448,192,156529,1,0,0:0:0:0:
320,192,156687,1,4,0:0:0:0:
192,192,156845,1,8,0:0:0:0:
64,192,156845,1,4,0:0:0:0:
448,192,157003,1,4,0:0:0:0:
448,192,157161,1,4,0:0:0:0:
320,192,157319,1,2,0:0:0:0:
192,192,157319,1,4,0:0:0:0:
64,192,157634,1,4,0:0:0:0:
64,192,157792,1,4,0:0:0:0:
320,192,157950,1,0,0:0:0:0:
192,192,158108,1,8,0:0:0:0:
448,192,158108,1,4,0:0:0:0:
64,192,158266,1,0,0:0:0:0:
320,192,158424,1,0,2:0:0:0:
192,192,158582,1,4,0:0:0:0:
64,192,158661,1,4,0:0:0:0:
320,192,158740,1,8,0:0:0:0:
448,192,158740,1,4,0:0:0:0:
192,192,158898,1,8,0:0:0:0:
448,192,158976,1,8,0:0:0:0:
320,192,159055,1,8,0:0:0:0:
64,192,159055,1,4,0:0:0:0:
192,192,159213,1,4,0:0:0:0:
320,192,159292,1,4,0:0:0:0:
448,192,159371,1,4,0:0:0:0:
64,192,159371,1,8,0:0:0:0:
192,192,159450,1,8,0:0:0:0:
320,192,159529,1,8,0:0:0:0:
448,192,159608,1,12,0:0:0:0:
64,192,159687,1,12,0:0:0:0:
192,192,159766,1,8,0:0:0:0:
320,192,159845,1,2,0:0:0:0:
448,192,159845,1,4,0:0:0:0:
192,192,160161,1,4,0:0:0:0:
192,192,160319,1,4,0:0:0:0:
64,192,160319,1,8,0:0:0:0:
320,192,160476,1,0,0:0:0:0:
320,192,160634,1,4,0:0:0:0:
448,192,160792,1,0,0:0:0:0:
448,192,160950,1,4,0:0:0:0:
64,192,160950,1,8,0:0:0:0:
192,192,161108,1,0,0:0:0:0:
192,192,161266,1,4,0:0:0:0:
64,192,161424,1,0,0:0:0:0:
64,192,161582,1,4,0:0:0:0:
448,192,161582,1,8,0:0:0:0:
320,192,161740,1,0,0:0:0:0:
320,192,161898,1,4,0:0:0:0:
192,192,162055,1,0,0:0:0:0:
192,192,162213,1,8,0:0:0:0:
448,192,162213,1,4,0:0:0:0:
320,192,162371,1,2,0:0:0:0:
64,192,162371,1,4,0:0:0:0:
320,192,162687,1,0,0:0:0:0:
64,192,162845,1,8,0:0:0:0:
320,192,162845,1,4,0:0:0:0:
192,192,163003,1,0,0:0:0:0:
192,192,163161,1,4,0:0:0:0:
448,192,163161,1,0,0:0:0:0:
320,192,163319,1,0,0:0:0:0:
320,192,163476,1,8,0:0:0:0:
64,192,163476,1,4,0:0:0:0:
192,192,163634,1,0,0:0:0:0:
192,192,163792,1,8,0:0:0:0:
448,192,163792,1,0,0:0:0:0:
320,192,163950,1,8,0:0:0:0:
192,192,164029,1,0,0:0:0:0:
64,192,164108,1,4,0:0:0:0:
448,192,164108,1,0,0:0:0:0:
320,192,164266,1,8,0:0:0:0:
192,192,164266,1,0,0:0:0:0:
448,192,164424,1,0,0:0:0:0:
320,192,164503,1,0,0:0:0:0:
192,192,164582,1,4,0:0:0:0:
64,192,164582,1,0,0:0:0:0:
320,192,164740,1,8,0:0:0:0:
448,192,164740,1,4,0:0:0:0:
320,192,164898,1,2,0:0:0:0:
192,192,164898,1,4,0:0:0:0:
64,192,165213,1,4,0:0:0:0:
192,192,165371,1,0,0:0:0:0:
448,192,165371,1,4,0:0:0:0:
192,192,165687,1,8,0:0:0:0:
64,192,165687,1,4,0:0:0:0:
320,192,166003,1,0,2:0:0:0:
192,192,166161,1,0,0:0:0:0:
320,192,166240,1,0,0:0:0:0:
448,192,166319,1,8,0:0:0:0:
64,192,166319,1,4,0:0:0:0:
192,192,166476,1,8,0:0:0:0:
64,192,166476,1,4,0:0:0:0:
320,192,166634,1,0,2:0:0:0:
192,192,166792,1,4,0:0:0:0:
448,192,166950,1,8,0:0:0:0:
320,192,166950,1,4,0:0:0:0:
192,192,167108,1,4,0:0:0:0:
320,192,167108,1,0,0:0:0:0:
448,192,167266,1,4,0:0:0:0:
64,192,167266,1,0,0:0:0:0:
192,192,167424,1,2,0:0:0:0:
64,192,167424,1,4,0:0:0:0:
320,192,167740,1,4,0:0:0:0:
448,192,167898,1,4,0:0:0:0:
192,192,167898,1,0,0:0:0:0:
64,192,168055,1,0,0:0:0:0:
448,192,168213,1,8,0:0:0:0:
320,192,168213,1,4,0:0:0:0:
64,192,168371,1,0,0:0:0:0:
192,192,168529,1,0,2:0:0:0:
320,192,168687,1,4,0:0:0:0:
192,192,168766,1,4,0:0:0:0:
448,192,168845,1,4,0:0:0:0:
64,192,168845,1,8,0:0:0:0:
192,192,169003,1,8,0:0:0:0:
64,192,169082,1,8,0:0:0:0:
448,192,169161,1,8,0:0:0:0:
320,192,169161,1,4,0:0:0:0:
320,192,169319,1,4,0:0:0:0:
192,192,169319,1,8,0:0:0:0:
192,192,169476,1,8,0:0:0:0:
64,192,169476,1,4,0:0:0:0:
320,192,169634,1,4,0:0:0:0:
192,192,169792,1,4,0:0:0:0:
320,192,169950,1,2,0:0:0:0:
448,192,169950,1,4,0:0:0:0:
192,192,170271,1,4,0:0:0:0:
320,192,170352,1,0,0:0:0:0:
64,192,170434,1,4,0:0:0:0:
448,192,170434,1,0,0:0:0:0:
320,192,170760,1,0,2:0:0:0:
448,192,171086,1,4,0:0:0:0:
64,192,171086,1,0,0:0:0:0:
192,192,171412,1,0,2:0:0:0:
448,192,171738,1,0,0:0:0:0:
64,192,171738,1,4,0:0:0:0:
320,192,172064,1,0,2:0:0:0:
448,192,172390,1,4,0:0:0:0:
64,192,172390,1,0,0:0:0:0:
192,192,172716,1,0,2:0:0:0:
64,192,173042,1,4,0:0:0:0:
448,192,173042,1,0,0:0:0:0:
320,192,173368,1,0,2:0:0:0:
64,192,173694,1,4,0:0:0:0:
448,192,173694,1,8,0:0:0:0:
192,192,173858,1,2,0:0:0:0:
448,192,173858,1,4,0:0:0:0:
320,192,174187,1,4,0:0:0:0:
448,192,174187,1,0,0:0:0:0:
192,192,174354,1,4,0:0:0:0:
64,192,174354,1,8,0:0:0:0:
192,192,174521,1,4,0:0:0:0:
448,192,174521,1,2,0:0:0:0:
320,192,174854,1,4,0:0:0:0:
448,192,174854,1,0,0:0:0:0:
192,192,175021,1,8,0:0:0:0:
64,192,175021,1,4,0:0:0:0:
192,192,175187,1,2,0:0:0:0:
448,192,175187,128,4,175521:0:0:0:0:
320,192,175521,128,4,175687:0:0:0:0:
64,192,175521,1,0,0:0:0:0:
192,192,175687,128,2,176021:0:0:0:0:
64,192,175687,1,4,0:0:0:0:
320,192,176021,1,4,0:0:0:0:
448,192,176104,1,4,0:0:0:0:
192,192,176187,1,4,0:0:0:0:
64,192,176187,1,4,0:0:0:0:
